osu file format v14

[General]
AudioFilename: audio.mp3
AudioLeadIn: 0
PreviewTime: -1
Countdown: 1
SampleSet: Soft
StackLeniency: 0.7
Mode: 0
LetterboxInBreaks: 0
WidescreenStoryboard: 0

[Editor]
DistanceSpacing: 1.6
BeatDivisor: 4
GridSize: 32
TimelineZoom: 2.200007

[Metadata]
Title:Ankira!? Kyousoukyoku (GAME VERSION)
TitleUnicode:あんきら!?狂騒曲 (GAME VERSION)
Artist:HappyHappyTwin
ArtistUnicode:双葉杏(CV.五十嵐裕美)、諸星きらり(CV.松嵜麗);
Creator:M i r a g e
Version:Master+
Source:Idolm@ster Cinderella Girls Starlight Stage
Tags:
BeatmapID:1366295
BeatmapSetID:644704

[Difficulty]
HPDrainRate:9
CircleSize:4
OverallDifficulty:9
ApproachRate:9.5
SliderMultiplier:2.2
SliderTickRate:1

[Events]
//Background and Video events
0,0,"Cover.jpg",0,0
//Break Periods
//Storyboard Layer 0 (Background)
//Storyboard Layer 1 (Fail)
//Storyboard Layer 2 (Pass)
//Storyboard Layer 3 (Foreground)
//Storyboard Sound Samples

[TimingPoints]
3891,292.682926829268,4,2,0,100,1,0
3891,-100,4,2,0,100,0,0
15628,292.682926829268,4,2,0,100,1,0
15628,-100,4,2,0,100,0,1
29676,292.682926829268,4,2,0,100,1,0
29676,-100,4,2,0,100,0,0
41348,292.682926829268,4,2,0,100,1,0
41348,-100,4,2,0,100,0,0
46066,585.365853658537,4,2,0,100,1,0
46066,-133.333333333333,4,2,0,100,0,0
50748,292.682926829268,4,2,0,100,1,0
50748,-100,4,2,0,100,0,0
55430,585.365853658537,4,2,0,100,1,0
55430,-100,4,2,0,100,0,0
60112,585.365853658537,4,2,0,100,1,0
60112,-100,4,2,0,100,0,0
64794,585.365853658537,4,2,0,100,1,0
64794,-200,4,2,0,100,0,0
71818,292.682926829268,4,2,0,100,1,0
71818,-133.333333333333,4,2,0,100,0,0
76500,-200,4,2,0,100,0,0
78842,292.682926829268,4,2,0,100,1,0
78842,-100,4,2,0,100,0,0
81183,-200,4,2,0,100,0,0
82061,-100,4,2,0,100,0,0
88207,292.682926829268,4,2,0,100,1,0
88207,-100,4,2,0,100,0,0
106938,292.682926829268,4,2,0,100,1,0
106938,-133.333333333333,4,2,0,100,0,1
109279,-100,4,2,0,100,0,1
111620,-200,4,2,0,100,0,1
113962,-100,4,2,0,100,0,1
116303,-66.6666666666667,4,2,0,100,0,1
117474,-100,4,2,0,100,0,1
118645,-66.6666666666667,4,2,0,100,0,1
120986,-50,4,2,0,100,0,0

[Colours]
Combo1 : 255,172,81
Combo2 : 126,51,1
Combo3 : 253,192,102

[HitObjects]
256,64,3890,5,0,0:0:0:0:
128,192,4183,1,8,0:0:0:0:
256,256,4476,2,0,L|256:160,1,82.5
352,128,4769,1,8,0:0:0:0:
352,128,4878,1,0,0:0:0:0:
192,96,5208,1,0,0:0:0:0:
192,96,5355,1,8,0:0:0:0:
320,320,5647,1,0,0:0:0:0:
320,192,5793,1,0,0:0:0:0:
320,64,5939,1,8,0:0:0:0:
256,320,6232,5,0,0:0:0:0:
160,128,6525,1,8,0:0:0:0:
256,288,6817,1,0,0:0:0:0:
224,256,6927,1,0,0:0:0:0:
384,160,7110,1,8,0:0:0:0:
352,128,7220,1,0,0:0:0:0:
192,96,7536,1,0,0:0:0:0:
192,96,7683,1,8,0:0:0:0:
320,320,7989,1,0,0:0:0:0:
320,192,8135,1,0,0:0:0:0:
320,64,8281,1,8,0:0:0:0:
256,320,8573,5,0,0:0:0:0:
160,128,8866,1,8,0:0:0:0:
224,288,9159,2,0,P|256:192|256:192,1,82.5
384,160,9451,1,8,0:0:0:0:
352,128,9561,1,0,0:0:0:0:
192,96,9927,1,0,0:0:0:0:
192,96,10037,1,8,0:0:0:0:
320,224,10330,1,0,0:0:0:0:
320,192,10476,1,0,0:0:0:0:
320,160,10622,1,8,0:0:0:0:
256,320,10916,5,0,0:0:0:0:
256,320,11208,1,8,0:0:0:0:
192,224,11537,1,0,0:0:0:0:
224,256,11647,1,0,0:0:0:0:
288,320,11830,1,8,0:0:0:0:
320,320,11940,1,0,0:0:0:0:
192,96,12269,1,0,0:0:0:0:
192,96,12378,1,8,0:0:0:0:
192,192,12671,1,0,0:0:0:0:
320,192,12817,1,0,0:0:0:0:
320,64,12963,1,8,0:0:0:0:
256,192,13330,12,8,15305,0:0:0:0:
256,64,15628,6,0,P|224:160|192:192,1,110,8|0,0:0|0:0,0:0:0:0:
224,288,15920,2,0,P|288:288|352:256,1,110,8|0,0:0|0:0,0:0:0:0:
384,224,16213,2,0,P|352:128|320:96,1,110,8|0,0:0|0:0,0:0:0:0:
160,256,16506,2,0,P|160:160|192:128,1,110,8|0,0:0|0:0,0:0:0:0:
448,224,16798,2,0,P|448:128|416:96,1,110,8|0,0:0|0:0,0:0:0:0:
96,256,17091,2,0,P|96:160|128:128,1,110,8|0,0:0|0:0,0:0:0:0:
192,32,17384,2,0,P|256:32|288:64,1,110,8|0,0:0|0:0,0:0:0:0:
256,256,17676,2,0,P|160:256|128:224,1,110,8|0,0:0|0:0,0:0:0:0:
256,352,17969,5,0,0:0:0:0:
416,256,18115,1,0,0:0:0:0:
320,96,18262,1,8,0:0:0:0:
160,192,18408,1,0,0:0:0:0:
256,352,18554,1,0,0:0:0:0:
416,256,18701,1,0,0:0:0:0:
320,96,18847,1,8,0:0:0:0:
160,192,18993,1,0,0:0:0:0:
256,352,19140,1,0,0:0:0:0:
416,256,19286,1,0,0:0:0:0:
320,96,19432,1,8,0:0:0:0:
160,192,19579,1,0,0:0:0:0:
256,352,19725,1,0,0:0:0:0:
416,256,19871,1,0,0:0:0:0:
320,96,20018,1,8,0:0:0:0:
160,192,20164,1,0,0:0:0:0:
0,32,20310,6,0,L|0:160,1,110
0,352,20603,2,0,L|0:224,1,110,8|0,0:0|0:0,0:0:0:0:
96,32,20896,2,0,L|96:160,1,110
96,352,21188,2,0,L|96:224,1,110,8|0,0:0|0:0,0:0:0:0:
192,32,21481,2,0,L|192:160,1,110
192,352,21774,2,0,L|192:224,1,110,8|0,0:0|0:0,0:0:0:0:
288,32,22067,2,0,L|288:160,1,110
288,352,22359,2,0,L|288:224,1,110,8|0,0:0|0:0,0:0:0:0:
256,32,22652,5,0,0:0:0:0:
256,384,22798,1,0,0:0:0:0:
256,32,22945,1,8,0:0:0:0:
256,384,23091,1,0,0:0:0:0:
256,64,23237,1,0,0:0:0:0:
256,352,23384,1,0,0:0:0:0:
256,64,23530,1,8,0:0:0:0:
256,352,23676,1,0,0:0:0:0:
256,96,23823,1,0,0:0:0:0:
96,96,23969,2,0,P|160:128|160:192,1,110,0|8,0:0|0:0,0:0:0:0:
168,160,24262,2,0,P|192:224|256:224,1,110
228,233,24554,2,0,P|288:192|320:128,1,110,0|8,0:0|0:0,0:0:0:0:
288,96,24847,1,0,0:0:0:0:
224,64,24993,6,0,P|128:160|128:160,1,110,8|0,0:0|0:0,0:0:0:0:
192,192,25432,2,0,L|320:96,1,110,8|0,0:0|0:0,0:0:0:0:
32,32,26164,2,0,L|128:128,1,110,8|0,0:0|0:0,0:0:0:0:
0,224,26603,2,0,L|128:128,1,110,8|0,0:0|0:0,0:0:0:0:
128,160,26823,1,0,0:0:0:0:
160,160,26896,1,0,0:0:0:0:
192,160,26969,1,0,0:0:0:0:
224,160,27042,1,0,0:0:0:0:
256,160,27115,1,0,0:0:0:0:
288,160,27188,1,0,0:0:0:0:
320,256,27335,2,0,P|352:192|320:96,2,165,8|0|0,0:0|0:0|0:0,0:0:0:0:
288,96,27920,2,0,P|192:128|160:256,1,220,8|0,0:0|0:0,0:0:0:0:
256,192,28359,12,8,29384,0:0:0:0:
256,64,29676,6,0,P|160:128|128:160,1,110
192,192,29968,2,0,P|288:160|320:128,1,110,8|0,0:0|0:0,0:0:0:0:
192,256,30261,2,0,P|224:320|256:320,2,110,0|0|8,0:0|0:0|0:0,0:0:0:0:
256,64,30700,1,0,0:0:0:0:
96,192,30846,1,0,0:0:0:0:
384,192,30993,1,0,0:0:0:0:
384,192,31139,1,8,0:0:0:0:
256,192,31285,2,0,P|160:128|128:128,2,110
256,256,31724,2,0,P|256:320|288:352,2,110,8|0|0,0:0|0:0|0:0,0:0:0:0:
256,256,32163,2,0,P|256:160|224:128,2,110,0|8|0,0:0|0:0|0:0,0:0:0:0:
256,32,32602,6,0,P|192:96|192:128,1,110
224,160,32895,2,0,P|256:224|224:288,1,110,8|0,0:0|0:0,0:0:0:0:
248,258,33188,2,0,P|256:192|224:160,1,110
224,160,33480,2,0,P|224:96|288:64,2,110,8|0|0,0:0|0:0|0:0,0:0:0:0:
224,160,33919,2,0,P|256:224|224:288,2,110,0|8|0,0:0|0:0|0:0,0:0:0:0:
224,160,34358,6,0,P|160:96|128:128,1,110
96,128,34651,1,8,0:0:0:0:
64,192,34797,1,0,0:0:0:0:
64,256,34944,1,0,0:0:0:0:
128,288,35090,1,0,0:0:0:0:
192,288,35236,1,8,0:0:0:0:
259,284,35383,1,0,0:0:0:0:
288,224,35529,2,0,P|320:160|288:96,2,110,0|0|8,0:0|0:0|0:0,0:0:0:0:
288,224,35968,2,0,P|224:192|160:224,2,110
288,224,36407,2,0,P|320:288|352:288,2,110,8|0|0,0:0|0:0|0:0,0:0:0:0:
288,224,36846,2,0,P|352:160|352:128,2,110,0|8|0,0:0|0:0|0:0,0:0:0:0:
256,224,37285,5,0,0:0:0:0:
256,192,37432,1,0,0:0:0:0:
256,64,37578,1,8,0:0:0:0:
256,224,37724,1,0,0:0:0:0:
224,128,37871,2,0,P|160:160|128:224,2,110,0|0|8,0:0|0:0|0:0,0:0:0:0:
224,128,38310,2,0,P|288:128|320:160,2,110
224,192,38749,1,8,0:0:0:0:
224,256,38895,1,0,0:0:0:0:
256,192,39041,12,8,41090,0:0:0:0:
288,64,41348,5,0,0:0:0:0:
256,64,41494,2,0,P|192:128|160:192,2,110,0|8|0,0:0|0:0|0:0,0:0:0:0:
192,160,41933,2,0,P|256:224|288:224,2,110,0|0|8,0:0|0:0|0:0,0:0:0:0:
288,224,42372,2,0,P|320:160|320:96,1,110
288,96,42665,2,0,P|224:96|192:128,2,110,0|8|0,0:0|0:0|0:0,0:0:0:0:
192,160,43104,2,0,P|192:224|256:224,2,110,0|0|8,0:0|0:0|0:0,0:0:0:0:
256,32,43543,1,0,0:0:0:0:
128,192,43689,1,0,0:0:0:0:
256,352,43835,1,0,0:0:0:0:
352,192,43982,1,8,0:0:0:0:
256,32,44128,1,0,0:0:0:0:
256,32,44274,1,0,0:0:0:0:
160,128,44421,2,0,P|224:192|288:192,2,110,0|8|0,0:0|0:0|0:0,0:0:0:0:
256,192,44860,1,0,0:0:0:0:
256,192,45006,1,0,0:0:0:0:
256,192,45152,1,8,0:0:0:0:
256,224,45299,2,0,P|320:256|384:256,3,110,0|0|0|8,0:0|0:0|0:0|0:0,0:0:0:0:
256,64,46066,6,0,P|160:128|160:192,1,165.000006294251,0|8,0:0|0:0,0:0:0:0:
160,224,46944,1,0,0:0:0:0:
160,256,47236,2,0,P|224:288|320:224,1,165.000006294251,0|8,0:0|0:0,0:0:0:0:
320,192,48114,1,0,0:0:0:0:
320,96,48407,2,0,P|224:96|160:160,1,165.000006294251,0|8,0:0|0:0,0:0:0:0:
192,256,49285,1,0,0:0:0:0:
352,128,49578,2,0,B|256:128|256:128|352:96,1,165.000006294251,0|8,0:0|0:0,0:0:0:0:
192,64,50748,6,0,P|256:128|320:128,2,110,0|0|8,0:0|0:0|0:0,0:0:0:0:
288,160,51187,1,0,0:0:0:0:
288,192,51333,2,0,P|320:288|352:288,1,110
320,288,51626,1,8,0:0:0:0:
288,160,51772,1,0,0:0:0:0:
320,288,51918,1,0,0:0:0:0:
320,288,52065,1,0,0:0:0:0:
160,224,52211,2,0,P|160:128|192:96,3,110,8|0|0|0,0:0|0:0|0:0|0:0,0:0:0:0:
160,96,52796,1,8,0:0:0:0:
256,32,52942,5,0,0:0:0:0:
256,320,53089,1,0,0:0:0:0:
256,32,53235,1,0,0:0:0:0:
320,320,53381,1,8,0:0:0:0:
256,32,53528,1,0,0:0:0:0:
192,320,53674,1,0,0:0:0:0:
128,160,53821,1,0,0:0:0:0:
128,160,53967,2,0,P|192:128|256:160,1,110,8|0,0:0|0:0,0:0:0:0:
256,128,54260,1,0,0:0:0:0:
256,128,54406,1,0,0:0:0:0:
256,128,54552,1,8,0:0:0:0:
256,192,54699,2,0,B|320:256|320:256|384:224,2,110
224,160,55138,2,0,P|192:96|128:64,1,110,8|0,0:0|0:0,0:0:0:0:
256,32,55430,6,0,B|256:96|256:192|352:224,1,220,0|8,0:0|0:0,0:0:0:0:
384,256,56308,1,0,0:0:0:0:
320,288,56600,2,0,B|224:256|192:224|192:96,1,220,0|8,0:0|0:0,0:0:0:0:
480,32,57478,1,0,0:0:0:0:
96,320,57771,2,0,B|96:224|96:160|192:96,1,220,0|8,0:0|0:0,0:0:0:0:
256,160,58649,1,0,0:0:0:0:
480,32,58942,2,0,B|384:96|384:96|384:224,1,220,0|8,0:0|0:0,0:0:0:0:
256,96,59820,1,0,0:0:0:0:
96,64,60112,6,0,P|128:128|288:192,1,220,0|8,0:0|0:0,0:0:0:0:
96,288,60990,1,0,0:0:0:0:
412,40,61282,2,0,B|348:136|284:200|220:200,1,220,0|8,0:0|0:0,0:0:0:0:
256,192,62160,1,0,0:0:0:0:
256,192,62453,12,8,64209,0:0:0:0:
256,64,64794,6,8,P|224:128|256:160,1,110,8|8,0:0|0:0,0:0:0:0:
96,288,65672,1,0,0:0:0:0:
256,160,65964,2,8,P|288:224|320:224,1,110,8|8,0:0|0:0,0:0:0:0:
480,32,66842,1,0,0:0:0:0:
256,64,67135,1,8,0:0:0:0:
256,96,67281,1,8,0:0:0:0:
256,128,67428,1,8,0:0:0:0:
160,288,67720,1,8,0:0:0:0:
160,288,68013,1,8,0:0:0:0:
256,192,68306,2,8,B|256:128|256:128|320:128|320:128|320:128|320:128|320:128,1,110
256,64,69184,6,0,L|224:128,1,55,8|0,0:0|0:0,0:0:0:0:
160,192,69696,1,8,0:0:0:0:
320,192,69915,1,8,0:0:0:0:
320,192,70062,1,8,0:0:0:0:
256,32,70647,1,8,0:0:0:0:
96,192,70867,1,8,0:0:0:0:
256,224,71086,1,8,0:0:0:0:
256,224,71233,1,8,0:0:0:0:
256,64,71818,6,0,P|224:96|256:128,1,82.5000031471254,8|0,0:0|0:0,0:0:0:0:
256,160,72110,2,0,P|256:224|224:224,1,82.5000031471254,8|0,0:0|0:0,0:0:0:0:
256,256,72403,2,0,P|256:320|288:320,1,82.5000031471254,8|0,0:0|0:0,0:0:0:0:
352,320,72696,2,0,B|352:256|352:256|320:256,1,82.5000031471254,8|0,0:0|0:0,0:0:0:0:
352,224,72988,2,0,P|352:160|384:128,1,82.5000031471254,8|0,0:0|0:0,0:0:0:0:
320,128,73281,2,0,P|256:128|256:160,1,82.5000031471254,8|0,0:0|0:0,0:0:0:0:
192,128,73574,2,0,P|128:128|128:96,1,82.5000031471254,8|0,0:0|0:0,0:0:0:0:
128,160,73866,2,0,P|128:224|96:256,1,82.5000031471254,8|0,0:0|0:0,0:0:0:0:
256,64,74159,5,0,0:0:0:0:
96,192,74305,1,0,0:0:0:0:
256,64,74452,1,8,0:0:0:0:
96,192,74598,1,0,0:0:0:0:
256,64,74744,1,0,0:0:0:0:
96,192,74891,1,0,0:0:0:0:
256,320,75037,1,8,0:0:0:0:
96,192,75183,1,0,0:0:0:0:
256,320,75330,1,0,0:0:0:0:
96,192,75476,5,0,0:0:0:0:
256,320,75622,1,8,0:0:0:0:
416,192,75769,1,0,0:0:0:0:
256,320,75915,1,0,0:0:0:0:
416,192,76061,1,0,0:0:0:0:
256,320,76208,1,8,0:0:0:0:
288,128,76354,1,0,0:0:0:0:
160,160,76500,6,0,L|128:160,4,27.5
192,192,76866,1,0,0:0:0:0:
224,224,76939,1,0,0:0:0:0:
256,256,77013,1,0,0:0:0:0:
288,288,77086,1,0,0:0:0:0:
320,288,77159,1,0,0:0:0:0:
320,224,77232,1,0,0:0:0:0:
320,192,77305,2,0,L|288:160,3,27.5
288,160,77598,1,0,0:0:0:0:
256,128,77671,6,0,P|224:96|160:96,1,110,0|8,0:0|0:0,0:0:0:0:
128,192,78257,2,0,P|96:160|128:96,1,110,8|0,0:0|0:0,0:0:0:0:
256,64,78842,6,0,P|192:128|192:192,1,110,8|0,0:0|0:0,0:0:0:0:
224,192,79134,1,8,0:0:0:0:
384,288,79281,1,0,0:0:0:0:
352,96,79427,1,0,0:0:0:0:
160,288,79573,1,0,0:0:0:0:
160,192,79720,2,0,P|128:128|192:96,1,110,8|0,0:0|0:0,0:0:0:0:
224,192,80012,2,0,P|288:224|288:256,2,110,0|0|8,0:0|0:0|0:0,0:0:0:0:
224,96,80451,1,0,0:0:0:0:
128,224,80598,1,0,0:0:0:0:
256,320,80744,1,0,0:0:0:0:
192,224,80890,1,8,0:0:0:0:
96,320,81037,1,0,0:0:0:0:
96,32,81183,6,0,L|96:128,1,55
96,256,81476,2,0,L|96:192,1,55,8|0,0:0|0:0,0:0:0:0:
96,160,81768,2,0,L|160:160,1,55
256,64,82061,5,8,0:0:0:0:
160,192,82207,1,0,0:0:0:0:
256,320,82354,1,0,0:0:0:0:
256,32,82500,1,0,0:0:0:0:
160,160,82646,1,8,0:0:0:0:
256,288,82793,1,0,0:0:0:0:
256,192,82939,2,0,P|256:128|320:96,2,110,0|0|8,0:0|0:0|0:0,0:0:0:0:
288,224,83378,2,0,P|320:288|288:320,1,110
160,96,83671,6,0,P|192:192|224:192,3,110,0|8|0|0,0:0|0:0|0:0|0:0,0:0:0:0:
256,192,84256,2,0,P|256:96|288:96,1,110,0|8,0:0|0:0,0:0:0:0:
256,256,84549,2,0,P|256:320|224:352,3,110,0|0|0|8,0:0|0:0|0:0|0:0,0:0:0:0:
192,224,85134,2,0,P|160:160|192:96,1,110
192,96,85427,2,0,P|288:64|288:32,1,110,0|8,0:0|0:0,0:0:0:0:
256,32,85720,5,0,0:0:0:0:
96,192,85866,1,0,0:0:0:0:
256,32,86012,1,0,0:0:0:0:
96,192,86159,1,8,0:0:0:0:
256,320,86305,1,0,0:0:0:0:
416,192,86451,1,0,0:0:0:0:
256,320,86598,1,0,0:0:0:0:
416,192,86744,1,8,0:0:0:0:
256,96,86890,1,0,0:0:0:0:
256,96,87037,1,0,0:0:0:0:
192,192,87183,2,0,L|160:128,2,55,0|0|8,0:0|0:0|0:0,0:0:0:0:
256,192,87476,2,0,P|256:128|224:64,1,110
192,96,87768,2,0,P|160:160|192:224,2,110,0|8|0,0:0|0:0|0:0,0:0:0:0:
256,64,88207,6,0,P|192:128|224:256,1,220,0|8,0:0|0:0,0:0:0:0:
256,256,88646,2,0,P|288:192|256:128,2,110
256,64,89085,1,8,0:0:0:0:
256,64,89231,1,0,0:0:0:0:
160,192,89377,1,0,0:0:0:0:
160,192,89524,1,0,0:0:0:0:
256,320,89670,2,0,P|320:256|320:192,1,110,8|0,0:0|0:0,0:0:0:0:
256,192,89963,2,0,P|224:128|256:96,1,110
96,32,90255,2,0,P|96:96|128:128,1,110,8|0,0:0|0:0,0:0:0:0:
128,192,90548,2,0,P|128:256|96:288,1,110
192,320,90841,2,0,P|224:256|288:256,1,110,8|0,0:0|0:0,0:0:0:0:
256,192,91133,2,0,P|256:128|224:96,1,110
128,96,91426,5,8,0:0:0:0:
128,96,91572,1,0,0:0:0:0:
128,192,91719,1,0,0:0:0:0:
128,192,91865,1,0,0:0:0:0:
128,288,92011,1,8,0:0:0:0:
128,288,92158,1,0,0:0:0:0:
256,96,92304,1,0,0:0:0:0:
256,96,92450,1,0,0:0:0:0:
256,192,92597,1,8,0:0:0:0:
256,192,92743,1,0,0:0:0:0:
256,32,92889,6,0,P|192:96|192:160,2,110,0|0|8,0:0|0:0|0:0,0:0:0:0:
192,128,93328,2,0,P|192:192|160:224,2,110
160,288,93767,1,8,0:0:0:0:
256,256,93914,1,0,0:0:0:0:
352,224,94060,2,0,P|352:288|320:288,2,110,0|0|8,0:0|0:0|0:0,0:0:0:0:
352,160,94499,2,0,P|352:96|384:64,2,110
192,128,94938,1,8,0:0:0:0:
256,256,95085,5,8,0:0:0:0:
256,128,95231,1,8,0:0:0:0:
160,192,95377,1,8,0:0:0:0:
352,192,95523,1,8,0:0:0:0:
192,160,95670,1,8,0:0:0:0:
256,256,95816,1,8,0:0:0:0:
126,87,95963,2,0,P|124:156|159:174,2,110,0|8|0,0:0|0:0|0:0,0:0:0:0:
128,192,96402,2,0,P|160:241|160:320,1,110
160,320,96621,5,0,0:0:0:0:
192,320,96694,1,8,0:0:0:0:
224,320,96767,1,0,0:0:0:0:
256,320,96841,1,0,0:0:0:0:
288,320,96914,1,0,0:0:0:0:
320,320,96987,1,0,0:0:0:0:
352,320,97060,1,0,0:0:0:0:
384,320,97133,1,0,0:0:0:0:
416,320,97206,2,0,L|416:256,3,55,0|8|0|0,0:0|0:0|0:0|0:0,0:0:0:0:
416,224,97499,1,0,0:0:0:0:
256,64,97572,6,0,P|224:128|224:192,2,110,0|0|8,0:0|0:0|0:0,0:0:0:0:
224,192,98011,2,0,P|224:256|160:256,2,110
256,32,98450,1,8,0:0:0:0:
256,32,98597,1,0,0:0:0:0:
128,160,98743,1,0,0:0:0:0:
128,160,98889,1,0,0:0:0:0:
160,256,99036,2,0,P|256:256|288:224,1,110,8|0,0:0|0:0,0:0:0:0:
256,32,99328,6,0,P|192:96|320:256,1,330,0|8,0:0|0:0,0:0:0:0:
320,256,99914,2,8,P|416:160|288:32,1,330
256,64,100792,2,8,B|192:128|288:224|480:128,2,330,8|0|8,0:0|0:0|0:0,0:0:0:0:
192,96,101816,2,0,P|192:160|256:224,2,110,0|8|0,0:0|0:0|0:0,0:0:0:0:
256,256,102255,1,0,0:0:0:0:
352,288,102402,1,0,0:0:0:0:
352,192,102548,1,8,0:0:0:0:
256,160,102694,2,0,P|192:192|192:224,1,110
256,128,102987,2,0,P|256:64|320:64,2,110,0|8|0,0:0|0:0|0:0,0:0:0:0:
256,224,103426,2,0,P|224:288|160:288,1,110
224,192,103719,2,0,P|160:128|192:96,1,110,8|0,0:0|0:0,0:0:0:0:
288,192,104011,2,0,P|352:256|352:288,1,110
256,288,104304,1,8,0:0:0:0:
256,160,104450,1,0,0:0:0:0:
256,32,104597,5,0,0:0:0:0:
128,192,104743,1,0,0:0:0:0:
256,320,104889,1,8,0:0:0:0:
416,192,105036,1,0,0:0:0:0:
288,160,105182,1,0,0:0:0:0:
288,128,105255,1,0,0:0:0:0:
288,96,105328,1,0,0:0:0:0:
288,64,105402,1,0,0:0:0:0:
256,64,105475,1,8,0:0:0:0:
224,64,105548,1,0,0:0:0:0:
192,64,105621,1,0,0:0:0:0:
256,320,105767,5,0,0:0:0:0:
128,160,105914,1,0,0:0:0:0:
352,64,106060,1,8,0:0:0:0:
256,160,106206,2,0,P|192:96|224:64,2,110
288,160,106646,2,0,P|352:160|352:96,1,110,8|0,0:0|0:0,0:0:0:0:
256,32,106938,5,0,0:0:0:0:
256,32,107084,1,0,0:0:0:0:
256,32,107230,1,0,0:0:0:0:
256,32,107377,1,0,0:0:0:0:
128,192,107523,1,0,0:0:0:0:
128,192,107669,1,0,0:0:0:0:
128,192,107816,1,0,0:0:0:0:
128,192,107962,1,0,0:0:0:0:
256,320,108108,1,0,0:0:0:0:
256,320,108255,1,0,0:0:0:0:
256,320,108401,1,0,0:0:0:0:
256,320,108547,1,0,0:0:0:0:
384,192,108694,1,0,0:0:0:0:
384,192,108840,1,0,0:0:0:0:
384,192,108986,1,0,0:0:0:0:
384,192,109133,1,0,0:0:0:0:
256,32,109279,6,0,P|192:64|192:96,3,110
64,192,109864,2,0,P|64:256|32:288,3,110
256,352,110450,2,0,P|320:320|384:320,3,110
384,192,111035,2,0,P|384:128|416:96,3,110
256,32,111620,5,0,0:0:0:0:
192,32,111767,1,0,0:0:0:0:
192,96,111913,1,0,0:0:0:0:
256,96,112059,1,0,0:0:0:0:
32,192,112206,1,0,0:0:0:0:
96,192,112352,1,0,0:0:0:0:
96,256,112498,1,0,0:0:0:0:
32,256,112645,1,0,0:0:0:0:
320,192,112791,1,0,0:0:0:0:
384,192,112937,1,0,0:0:0:0:
384,256,113083,1,0,0:0:0:0:
320,256,113230,1,0,0:0:0:0:
288,32,113377,1,0,0:0:0:0:
352,32,113523,1,0,0:0:0:0:
352,96,113669,1,0,0:0:0:0:
288,96,113816,1,0,0:0:0:0:
320,32,113962,6,0,L|192:32,3,110
32,256,114547,2,0,L|32:128,3,110
160,320,115133,2,0,L|320:320,3,110
416,192,115718,2,0,L|416:64,3,110
256,32,116303,6,0,P|128:128|224:256,1,330.000012588501
256,256,116742,1,0,0:0:0:0:
256,256,116889,1,0,0:0:0:0:
256,96,117181,1,4,0:0:0:0:
256,32,117474,2,0,P|160:96|192:192,1,220
256,224,117913,1,4,0:0:0:0:
64,256,118059,1,0,0:0:0:0:
64,224,118133,1,0,0:0:0:0:
64,192,118206,1,0,0:0:0:0:
64,160,118279,1,0,0:0:0:0:
64,128,118352,1,0,0:0:0:0:
64,96,118425,1,0,0:0:0:0:
64,64,118498,1,0,0:0:0:0:
64,32,118572,1,0,0:0:0:0:
256,32,118645,6,0,P|160:192|288:256,1,330.000012588501
320,256,119084,2,0,P|384:192|384:64,1,165.000006294251
448,32,119816,2,0,B|96:32|96:32|96:352|96:352|448:352,1,990.000037765504
256,192,120986,12,0,122157,0:0:0:0:
