osu file format v14

[General]
AudioFilename: audio.mp3
AudioLeadIn: 0
PreviewTime: -1
Countdown: 3
SampleSet: Soft
StackLeniency: 0.7
Mode: 0
LetterboxInBreaks: 0
WidescreenStoryboard: 1

[Editor]
DistanceSpacing: 2.8
BeatDivisor: 4
GridSize: 32
TimelineZoom: 1.350004

[Metadata]
Title:Ankira!? Kyousoukyoku (GAME VERSION)
TitleUnicode:あんきら!?狂騒曲 (GAME VERSION)
Artist:HappyHappyTwin
ArtistUnicode:双葉杏(CV.五十嵐裕美)、諸星きらり(CV.松嵜麗);
Creator:M i r a g e
Version:Master
Source:Idolm@ster Cinderella Girls Starlight Stage
Tags:
BeatmapID:1367980
BeatmapSetID:644704

[Difficulty]
HPDrainRate:6.9
CircleSize:3.8
OverallDifficulty:7
ApproachRate:9
SliderMultiplier:2.2
SliderTickRate:1

[Events]
//Background and Video events
0,0,"Cover.jpg",0,0
//Break Periods
//Storyboard Layer 0 (Background)
//Storyboard Layer 1 (Fail)
//Storyboard Layer 2 (Pass)
//Storyboard Layer 3 (Foreground)
//Storyboard Sound Samples

[TimingPoints]
3965,292.682926829268,4,2,0,100,1,0
3965,-100,4,2,0,100,0,0
15628,292.682926829268,4,2,0,100,1,0
15628,-100,4,2,0,100,0,1
29687,292.682926829268,4,2,0,100,1,0
29687,-100,4,2,0,100,0,0
41348,292.682926829268,4,2,0,100,1,0
41348,-100,4,2,0,100,0,0
46066,585.365853658537,4,2,0,100,1,0
46066,-133.333333333333,4,2,0,100,0,0
50748,292.682926829268,4,2,0,100,1,0
50748,-100,4,2,0,100,0,0
55430,585.365853658537,4,2,0,100,1,0
55430,-100,4,2,0,100,0,0
60112,585.365853658537,4,2,0,100,1,0
60112,-100,4,2,0,100,0,0
64794,585.365853658537,4,2,0,100,1,0
64794,-200,4,2,0,100,0,0
71818,292.682926829268,4,2,0,100,1,0
71818,-133.333333333333,4,2,0,100,0,0
76500,-200,4,2,0,100,0,0
78842,292.682926829268,4,2,0,100,1,0
78842,-100,4,2,0,100,0,1
81183,-200,4,2,0,100,0,1
82061,-100,4,2,0,100,0,1
88207,292.682926829268,4,2,0,100,1,0
88207,-100,4,2,0,100,0,1
106938,292.682926829268,4,2,0,100,1,0
106938,-133.333333333333,4,2,0,100,0,0
109279,-100,4,2,0,100,0,0
111620,-200,4,2,0,100,0,0
113962,-100,4,2,0,100,0,0
116303,-66.6666666666667,4,2,0,100,0,0
117474,-100,4,2,0,100,0,0
118645,-66.6666666666667,4,2,0,100,0,0
120986,-50,4,2,0,100,0,0

[Colours]
Combo1 : 255,172,81
Combo2 : 126,51,1
Combo3 : 253,192,102

[HitObjects]
256,32,15628,6,0,P|192:96|224:224,1,220
224,224,16067,1,0,0:0:0:0:
352,256,16213,2,0,P|256:288|128:256,1,220
128,256,16652,1,0,0:0:0:0:
128,64,16798,2,0,P|128:192|224:224,1,220
224,224,17237,1,0,0:0:0:0:
256,64,17384,2,0,P|256:160|384:192,1,220
384,224,17823,1,0,0:0:0:0:
160,64,17969,6,0,P|192:128|256:128,2,110
224,64,18408,1,0,0:0:0:0:
224,128,18554,2,0,P|224:192|256:224,2,110
288,128,18993,1,0,0:0:0:0:
256,224,19140,2,0,P|320:256|352:288,2,110
224,256,19579,1,0,0:0:0:0:
96,96,19725,2,0,P|128:160|192:160,2,110
160,96,20164,1,0,0:0:0:0:
256,32,20310,6,0,P|224:95|224:159,1,110
256,128,20603,2,0,P|292:187|356:187,1,110
320,224,20896,2,0,P|316:313|284:345,1,110
277,302,21188,2,0,P|192:288|160:320,1,110
128,288,21481,2,0,P|96:224|128:192,1,110
64,192,21774,2,0,P|64:128|32:96,1,110
64,64,22067,2,0,P|160:32|192:64,1,110
192,64,22359,2,0,P|256:128|288:96,1,110
256,32,22652,6,0,P|192:96|192:128,3,110
192,160,23237,2,0,P|192:224|160:256,3,110
192,288,23823,2,0,P|256:320|288:352,3,110
256,160,24408,2,0,P|192:160|160:224,3,110
256,32,24993,6,0,P|192:64|160:160,1,165
160,192,25432,1,0,0:0:0:0:
160,192,25579,1,0,0:0:0:0:
256,256,26164,6,0,P|288:160|352:128,1,165
352,160,26603,1,0,0:0:0:0:
352,160,26749,2,0,L|416:160,7,55
320,160,27335,2,0,P|192:128|160:224,1,220
128,192,27774,2,0,L|64:96,1,110
256,192,28506,12,0,29384,0:0:0:0:
256,64,29687,6,0,P|192:96|160:160,2,110
160,160,30126,1,0,0:0:0:0:
160,160,30272,1,0,0:0:0:0:
160,224,30418,2,0,P|96:256|64:224,1,110
64,160,30711,2,0,P|96:96|64:32,2,110
64,320,31150,2,0,P|64:256|128:192,1,110
160,224,31443,2,0,P|192:160|160:96,2,110
320,224,31882,2,0,P|256:160|256:128,2,110
320,288,32321,2,0,P|288:352|256:352,2,110
288,192,32760,5,0,0:0:0:0:
288,192,32906,1,0,0:0:0:0:
192,160,33052,2,0,P|128:160|128:224,2,110
128,256,33491,2,0,P|192:288|224:256,2,110
256,192,33930,1,0,0:0:0:0:
256,192,34077,1,0,0:0:0:0:
160,128,34223,2,0,P|96:128|64:160,1,110
96,224,34516,2,0,L|224:224,2,110
96,224,34955,2,0,L|96:96,2,110
96,224,35394,2,0,L|96:352,1,110
96,224,35686,2,0,L|-32:224,2,110
96,128,36126,5,0,0:0:0:0:
128,160,36272,1,0,0:0:0:0:
160,192,36418,1,0,0:0:0:0:
192,224,36565,2,0,P|256:192|288:128,2,110
192,224,37004,2,0,L|288:288,1,110
288,288,37296,2,0,P|320:192|352:160,2,110
256,64,37735,5,0,0:0:0:0:
256,64,37882,1,0,0:0:0:0:
256,96,38028,1,0,0:0:0:0:
256,96,38174,1,0,0:0:0:0:
256,192,38321,2,0,P|160:192|160:224,2,110
256,192,38760,1,0,0:0:0:0:
256,192,38906,1,0,0:0:0:0:
256,192,39052,12,0,41028,0:0:0:0:
256,64,41348,5,0,0:0:0:0:
256,96,41494,1,0,0:0:0:0:
256,128,41640,2,0,P|160:128|128:160,1,110
153,159,41933,1,0,0:0:0:0:
153,187,42079,1,0,0:0:0:0:
160,224,42226,2,0,P|224:224|288:192,1,110
288,192,42518,1,0,0:0:0:0:
320,160,42665,2,0,P|288:96|256:64,1,110
192,96,42957,2,0,P|128:160|128:192,1,110
160,192,43250,2,0,P|224:256|256:256,1,110
320,256,43543,6,0,P|320:320|352:320,4,110
192,192,44274,1,0,0:0:0:0:
192,192,44421,1,0,0:0:0:0:
192,192,44567,1,0,0:0:0:0:
256,192,44713,2,0,P|288:128|352:96,1,110
288,224,45006,2,0,P|352:288|352:320,2,110
256,224,45445,2,0,P|192:192|128:192,3,110
256,32,46066,6,0,P|192:96|224:192,1,165.000006294251
192,160,46944,1,0,0:0:0:0:
192,224,47236,2,0,P|288:256|416:160,1,247.500009441376
352,160,48407,2,0,P|256:128|192:192,1,165.000006294251
192,224,49285,1,0,0:0:0:0:
256,320,49578,2,0,P|352:288|416:224,1,165.000006294251
416,160,50456,1,0,0:0:0:0:
256,64,50748,6,0,P|192:96|160:160,1,110
192,160,51040,1,0,0:0:0:0:
192,160,51187,1,0,0:0:0:0:
192,160,51333,1,0,0:0:0:0:
192,224,51479,2,0,P|160:288|128:288,1,110
224,320,51772,2,0,P|288:288|352:288,2,110
320,256,52211,2,0,P|320:160|288:128,1,110
256,128,52504,1,0,0:0:0:0:
192,128,52650,1,0,0:0:0:0:
128,128,52796,1,0,0:0:0:0:
128,192,52943,1,0,0:0:0:0:
160,256,53089,6,0,P|224:224|288:256,2,110
128,256,53528,2,0,P|96:192|128:128,2,110
160,128,53967,1,0,0:0:0:0:
224,128,54113,1,0,0:0:0:0:
288,128,54260,1,0,0:0:0:0:
352,128,54406,1,0,0:0:0:0:
352,192,54552,1,0,0:0:0:0:
288,224,54699,2,0,P|224:288|192:256,2,110
160,288,55138,1,0,0:0:0:0:
160,288,55284,1,0,0:0:0:0:
256,32,55430,6,0,P|160:96|224:192,1,220
192,256,56308,1,0,0:0:0:0:
256,256,56600,1,0,0:0:0:0:
320,256,56893,1,0,0:0:0:0:
384,256,57186,1,0,0:0:0:0:
384,192,57478,1,0,0:0:0:0:
384,128,57771,1,0,0:0:0:0:
384,64,58064,1,0,0:0:0:0:
320,64,58356,1,0,0:0:0:0:
256,64,58649,1,0,0:0:0:0:
192,64,58942,1,0,0:0:0:0:
192,128,59234,1,0,0:0:0:0:
192,192,59527,1,0,0:0:0:0:
256,192,59820,1,0,0:0:0:0:
256,64,60112,6,0,P|224:128|320:224,1,220
256,32,61282,6,0,P|192:128|64:128,1,220
256,352,62453,6,0,P|256:224|160:160,1,220
256,192,63624,12,0,64502,0:0:0:0:
256,32,64794,5,0,0:0:0:0:
256,96,65086,1,0,0:0:0:0:
256,160,65379,2,0,L|320:160,1,55
256,224,65964,1,0,0:0:0:0:
256,288,66257,1,0,0:0:0:0:
256,352,66550,2,0,L|192:352,1,55
256,64,67135,2,0,L|288:64,1,27.5
256,128,67428,2,0,L|192:128,1,55
256,192,68013,2,0,L|320:192,1,55
256,256,68598,2,0,L|192:256,1,55
256,192,69184,5,0,0:0:0:0:
192,64,69476,2,0,L|224:64,1,27.5
256,32,69915,2,0,P|288:32|288:32,1,27.5
256,64,70647,1,0,0:0:0:0:
256,64,70794,1,0,0:0:0:0:
256,160,71086,2,0,L|256:192,1,27.5
256,64,71818,6,0,P|192:96|192:128,1,82.5000031471254
224,160,72110,2,0,P|288:128|288:96,1,82.5000031471254
352,192,72403,2,0,P|352:256|320:256,1,82.5000031471254
256,256,72696,2,0,P|224:224|224:160,1,82.5000031471254
224,128,72988,2,0,P|224:64|192:64,1,82.5000031471254
288,128,73281,2,0,P|288:64|320:64,1,82.5000031471254
320,256,73574,2,0,P|288:192|256:192,1,82.5000031471254
128,288,73866,2,0,L|160:192,1,82.5000031471254
160,192,74159,5,0,0:0:0:0:
160,192,74305,1,0,0:0:0:0:
160,192,74452,1,0,0:0:0:0:
160,192,74598,1,0,0:0:0:0:
256,192,74744,1,0,0:0:0:0:
256,192,74891,1,0,0:0:0:0:
256,192,75037,1,0,0:0:0:0:
256,192,75183,1,0,0:0:0:0:
128,160,75330,5,0,0:0:0:0:
128,160,75476,1,0,0:0:0:0:
128,160,75622,1,0,0:0:0:0:
128,160,75769,1,0,0:0:0:0:
160,224,75915,1,0,0:0:0:0:
160,224,76061,1,0,0:0:0:0:
160,224,76208,1,0,0:0:0:0:
160,224,76354,1,0,0:0:0:0:
256,64,76500,5,0,0:0:0:0:
256,96,76574,1,0,0:0:0:0:
256,128,76647,1,0,0:0:0:0:
256,160,76720,1,0,0:0:0:0:
256,192,76793,1,0,0:0:0:0:
256,224,76866,2,0,L|224:224,3,27.5
192,224,77159,1,0,0:0:0:0:
160,224,77232,1,0,0:0:0:0:
128,224,77305,1,0,0:0:0:0:
96,224,77378,2,0,L|96:256,2,27.5
64,224,77671,2,0,P|32:160|64:128,1,110
49,135,78110,1,0,0:0:0:0:
49,135,78257,1,0,0:0:0:0:
128,96,78403,5,0,0:0:0:0:
160,96,78476,1,0,0:0:0:0:
192,96,78549,1,0,0:0:0:0:
224,96,78622,1,0,0:0:0:0:
256,96,78696,1,0,0:0:0:0:
256,192,78842,6,0,P|224:128|256:64,2,110
160,96,79281,1,0,0:0:0:0:
160,224,79427,1,0,0:0:0:0:
160,96,79573,1,0,0:0:0:0:
256,224,79720,2,0,P|320:160|384:160,1,110
384,160,80012,2,0,P|384:96|352:32,2,110
256,160,80451,1,0,0:0:0:0:
288,192,80598,1,0,0:0:0:0:
320,224,80744,1,0,0:0:0:0:
352,256,80890,1,0,0:0:0:0:
384,288,81037,1,0,0:0:0:0:
96,64,81183,6,0,P|128:96|160:96,2,55
160,128,81622,2,0,L|160:192,1,55
192,256,81915,1,0,0:0:0:0:
256,64,82061,6,0,P|256:128|192:192,2,110
320,128,82500,1,0,0:0:0:0:
320,160,82646,1,0,0:0:0:0:
320,192,82793,1,0,0:0:0:0:
288,192,82939,2,0,P|288:128|320:96,2,110
192,192,83378,2,0,P|192:96|160:64,2,110
192,256,83817,1,0,0:0:0:0:
192,320,83963,2,0,P|256:320|320:288,2,110
320,256,84402,2,0,P|320:192|288:128,2,110
224,160,84842,5,0,0:0:0:0:
224,192,84988,1,0,0:0:0:0:
256,224,85134,1,0,0:0:0:0:
288,256,85281,1,0,0:0:0:0:
320,288,85427,1,0,0:0:0:0:
384,224,85573,2,0,P|352:160|288:128,1,110
160,128,85866,1,0,0:0:0:0:
224,192,86012,1,0,0:0:0:0:
160,128,86159,1,0,0:0:0:0:
224,192,86305,5,0,0:0:0:0:
160,128,86451,1,0,0:0:0:0:
224,192,86598,1,0,0:0:0:0:
288,224,86744,2,0,P|320:160|288:96,1,110
256,160,87037,1,0,0:0:0:0:
192,160,87183,2,0,L|192:96,2,55
160,224,87476,1,0,0:0:0:0:
224,256,87622,1,0,0:0:0:0:
224,256,87768,1,0,0:0:0:0:
288,224,87915,2,0,P|288:160|256:128,1,110
256,32,88207,6,0,P|192:128|224:224,1,220
256,256,88646,1,0,0:0:0:0:
256,256,88792,1,0,0:0:0:0:
256,256,88938,1,0,0:0:0:0:
160,288,89085,1,0,0:0:0:0:
160,288,89231,1,0,0:0:0:0:
160,288,89377,1,0,0:0:0:0:
128,96,89524,2,0,P|128:160|160:192,2,110
160,64,89963,2,0,P|224:64|256:96,1,110
256,128,90255,2,0,P|256:192|288:192,1,110
320,32,90548,6,0,P|288:128|192:96,1,220
192,192,91133,2,0,P|320:224|384:160,1,220
384,160,91572,1,0,0:0:0:0:
352,160,91719,1,0,0:0:0:0:
320,160,91865,1,0,0:0:0:0:
256,160,92011,2,0,P|224:96|256:64,2,110
224,192,92450,2,0,P|192:256|224:288,1,110
256,320,92743,1,0,0:0:0:0:
256,320,92889,1,0,0:0:0:0:
256,320,93036,2,0,L|256:192,1,110
96,192,93328,5,0,0:0:0:0:
96,192,93475,1,0,0:0:0:0:
96,192,93621,2,0,L|223:192,1,110
96,192,93914,1,0,0:0:0:0:
96,192,94060,1,0,0:0:0:0:
96,192,94207,2,0,L|96:64,1,110
96,82,94499,1,0,0:0:0:0:
96,82,94646,1,0,0:0:0:0:
96,96,94792,2,0,L|224:96,1,110
96,192,95085,5,0,0:0:0:0:
320,192,95231,1,0,0:0:0:0:
96,192,95377,1,0,0:0:0:0:
320,192,95524,1,0,0:0:0:0:
96,192,95670,1,0,0:0:0:0:
320,192,95816,1,0,0:0:0:0:
192,96,95963,6,0,P|192:160|256:192,2,110
256,224,96402,2,0,L|320:288,4,55
224,192,96767,1,0,0:0:0:0:
224,160,96841,1,0,0:0:0:0:
224,128,96914,1,0,0:0:0:0:
224,96,96987,1,0,0:0:0:0:
224,64,97060,2,0,L|160:64,5,55
256,192,97572,6,0,P|352:192|352:160,2,110
384,224,98011,2,0,L|384:96,1,110
320,96,98304,1,0,0:0:0:0:
320,96,98450,1,0,0:0:0:0:
256,96,98597,2,0,P|192:160|192:192,2,110
256,128,99036,2,0,P|288:192|256:256,1,110
256,256,99328,2,0,P|160:256|128:224,3,110
96,160,99914,1,0,0:0:0:0:
96,160,100060,1,0,0:0:0:0:
96,160,100206,1,0,0:0:0:0:
160,160,100353,1,0,0:0:0:0:
160,160,100499,1,0,0:0:0:0:
160,160,100646,1,0,0:0:0:0:
256,192,100792,12,0,101670,0:0:0:0:
256,64,101963,6,0,P|192:160|224:256,2,220
352,256,102841,2,0,P|384:160|320:64,2,220
256,96,103719,2,0,P|192:128|160:192,2,110
256,192,104304,2,0,P|192:256|160:256,1,110
256,64,104597,2,0,L|128:64,1,110
160,128,104889,2,0,L|288:128,1,110
288,160,105182,1,0,0:0:0:0:
288,192,105255,1,0,0:0:0:0:
288,224,105328,1,0,0:0:0:0:
288,256,105402,1,0,0:0:0:0:
288,288,105475,1,0,0:0:0:0:
288,320,105548,1,0,0:0:0:0:
256,320,105621,1,0,0:0:0:0:
224,320,105694,1,0,0:0:0:0:
192,320,105767,1,0,0:0:0:0:
256,32,106938,5,0,0:0:0:0:
256,32,107084,1,0,0:0:0:0:
256,32,107230,2,0,L|160:32,1,82.5000031471254
160,96,107523,1,0,0:0:0:0:
160,96,107669,1,0,0:0:0:0:
160,96,107816,2,0,L|256:96,1,82.5000031471254
256,160,108108,2,0,P|256:224|224:256,2,82.5000031471254
224,160,108547,2,0,P|160:128|160:96,1,82.5000031471254
160,96,108840,2,0,P|160:32|128:32,1,82.5000031471254
128,32,109133,1,0,0:0:0:0:
320,64,109279,6,0,L|192:64,3,110
96,160,109864,2,0,L|96:288,3,110
224,352,110450,2,0,L|384:352,3,110
448,256,111035,2,0,L|448:96,3,110
256,64,111620,5,0,0:0:0:0:
224,96,111767,1,0,0:0:0:0:
192,128,111913,1,0,0:0:0:0:
160,160,112059,1,0,0:0:0:0:
128,192,112206,5,0,0:0:0:0:
160,224,112352,1,0,0:0:0:0:
192,256,112498,1,0,0:0:0:0:
224,288,112645,1,0,0:0:0:0:
256,320,112791,5,0,0:0:0:0:
288,288,112938,1,0,0:0:0:0:
320,256,113084,1,0,0:0:0:0:
352,224,113230,1,0,0:0:0:0:
384,192,113377,5,0,0:0:0:0:
352,160,113523,1,0,0:0:0:0:
320,128,113669,1,0,0:0:0:0:
288,96,113816,1,0,0:0:0:0:
64,160,113962,6,0,L|160:288,3,110
224,64,114547,2,0,L|320:192,3,110
320,320,115133,2,0,L|256:224,3,110
448,224,115718,2,0,L|384:128,3,110
256,64,116303,6,0,P|160:128|288:224,1,330.000012588501
352,224,116742,2,0,L|352:32,1,165.000006294251
256,32,117474,5,0,0:0:0:0:
96,192,117767,1,0,0:0:0:0:
96,192,117913,1,0,0:0:0:0:
160,256,118059,1,0,0:0:0:0:
160,256,118133,1,0,0:0:0:0:
160,256,118206,1,0,0:0:0:0:
160,256,118279,1,0,0:0:0:0:
160,256,118352,1,0,0:0:0:0:
160,256,118425,1,0,0:0:0:0:
160,256,118498,1,0,0:0:0:0:
256,0,118645,6,0,L|256:352,1,330.000012588501
256,288,119084,2,0,L|480:288,1,165.000006294251
256,192,119816,12,0,120986,0:0:0:0:
