osu file format v14

[General]
AudioFilename: audio.mp3
AudioLeadIn: 0
PreviewTime: 88401
Countdown: 0
SampleSet: Soft
StackLeniency: 1
Mode: 1
LetterboxInBreaks: 0
WidescreenStoryboard: 1

[Editor]
Bookmarks: 21504,33918,140125,141504,142797,156849
DistanceSpacing: 1
BeatDivisor: 4
GridSize: 32
TimelineZoom: 2.4

[Metadata]
Title:Sayonara Kuriketto
TitleUnicode:さよならクリケット
Artist:Happy Kuru Kuru
ArtistUnicode:ハッピーくるくる
Creator:Captain
Version:Inner Oni
Source:
Tags:Yunomi Drum Bass dnb Dubstep Japanese コオロギ Criket
BeatmapID:2488574
BeatmapSetID:998974

[Difficulty]
HPDrainRate:5.5
CircleSize:5
OverallDifficulty:6
ApproachRate:9
SliderMultiplier:1.4
SliderTickRate:1

[Events]
//Background and Video events
0,0,"Konachan.png",0,0
//Break Periods
//Storyboard Layer 0 (Background)
//Storyboard Layer 1 (Fail)
//Storyboard Layer 2 (Pass)
//Storyboard Layer 3 (Foreground)
//Storyboard Layer 4 (Overlay)
//Storyboard Sound Samples

[TimingPoints]
815,344.827586206897,4,2,1,60,1,0

[Colours]
Combo1 : 53,249,121
Combo2 : 239,91,41
Combo3 : 255,176,216
Combo4 : 220,208,61

[HitObjects]
256,192,815,12,0,1677,0:0:0:0:
256,192,1849,5,2,0:0:0:0:
256,192,2194,1,0,0:0:0:0:
256,192,3228,5,0,0:0:0:0:
256,192,3573,1,2,0:0:0:0:
256,192,4952,1,2,0:0:0:0:
256,192,5815,5,0,0:0:0:0:
256,192,5987,1,0,0:0:0:0:
256,192,6159,1,2,0:0:0:0:
256,192,6332,12,0,7194,0:0:0:0:
256,192,7366,5,2,0:0:0:0:
256,192,7711,1,0,0:0:0:0:
256,192,8746,5,0,0:0:0:0:
256,192,9090,5,2,0:0:0:0:
256,192,10470,1,2,0:0:0:0:
256,192,11849,5,0,0:0:0:0:
256,192,12021,1,0,0:0:0:0:
256,192,12108,1,0,0:0:0:0:
256,192,12194,1,8,0:0:0:0:
256,192,12366,1,0,0:0:0:0:
256,192,12452,1,0,0:0:0:0:
256,192,12539,1,2,0:0:0:0:
256,192,12625,1,0,0:0:0:0:
256,192,12711,1,8,0:0:0:0:
256,192,12883,1,6,0:0:0:0:
256,192,13228,1,0,0:0:0:0:
256,192,13401,1,0,0:0:0:0:
256,192,13487,1,0,0:0:0:0:
256,192,13573,1,8,0:0:0:0:
256,192,13746,1,0,0:0:0:0:
256,192,13832,1,2,0:0:0:0:
256,192,13918,1,0,0:0:0:0:
256,192,14004,1,2,0:0:0:0:
256,192,14263,1,2,0:0:0:0:
256,192,14608,1,0,0:0:0:0:
256,192,14780,1,0,0:0:0:0:
256,192,14866,1,0,0:0:0:0:
256,192,14952,1,8,0:0:0:0:
256,192,15125,1,0,0:0:0:0:
256,192,15211,1,0,0:0:0:0:
256,192,15297,1,2,0:0:0:0:
256,192,15383,1,0,0:0:0:0:
256,192,15470,1,8,0:0:0:0:
256,192,15642,1,0,0:0:0:0:
256,192,15987,1,0,0:0:0:0:
256,192,16159,1,0,0:0:0:0:
256,192,16246,1,0,0:0:0:0:
256,192,16332,1,8,0:0:0:0:
256,192,16504,1,0,0:0:0:0:
256,192,16590,1,2,0:0:0:0:
256,192,16677,1,0,0:0:0:0:
256,192,16763,1,2,0:0:0:0:
256,192,16849,1,0,0:0:0:0:
256,192,17021,1,0,0:0:0:0:
256,192,17194,1,2,0:0:0:0:
256,192,17366,1,4,0:0:0:0:
256,192,17539,1,2,0:0:0:0:
256,192,17625,1,0,0:0:0:0:
256,192,17711,1,8,0:0:0:0:
256,192,17883,1,8,0:0:0:0:
256,192,18056,1,12,0:0:0:0:
256,192,18228,1,2,0:0:0:0:
256,192,18315,1,0,0:0:0:0:
256,192,18401,1,8,0:0:0:0:
256,192,18573,1,8,0:0:0:0:
256,192,18746,1,12,0:0:0:0:
256,192,18918,1,0,0:0:0:0:
256,192,19004,1,0,0:0:0:0:
256,192,19090,1,8,0:0:0:0:
256,192,19263,1,8,0:0:0:0:
256,192,19435,1,12,0:0:0:0:
256,192,19608,1,0,0:0:0:0:
256,192,19694,1,0,0:0:0:0:
256,192,19780,1,8,0:0:0:0:
256,192,19952,1,8,0:0:0:0:
256,192,20125,1,2,0:0:0:0:
256,192,20211,1,2,0:0:0:0:
256,192,20297,1,2,0:0:0:0:
256,192,20383,1,2,0:0:0:0:
256,192,20470,1,0,0:0:0:0:
256,192,20556,1,0,0:0:0:0:
256,192,20642,1,0,0:0:0:0:
256,192,20728,1,0,0:0:0:0:
256,192,20815,1,2,0:0:0:0:
256,192,20901,1,2,0:0:0:0:
256,192,20987,1,0,0:0:0:0:
256,192,21073,1,0,0:0:0:0:
256,192,21159,1,2,0:0:0:0:
256,192,21246,1,0,0:0:0:0:
256,192,21332,1,2,0:0:0:0:
256,192,21418,1,0,0:0:0:0:
256,192,21504,1,6,0:0:0:0:
256,192,22539,1,2,0:0:0:0:
256,192,22883,1,4,0:0:0:0:
256,192,23056,1,2,0:0:0:0:
256,192,23142,1,0,0:0:0:0:
256,192,23228,1,2,0:0:0:0:
256,192,23315,1,0,0:0:0:0:
256,192,23401,1,2,0:0:0:0:
256,192,23487,1,0,0:0:0:0:
256,192,23573,1,0,0:0:0:0:
256,192,23746,1,0,0:0:0:0:
256,192,23918,1,6,0:0:0:0:
256,192,24090,1,0,0:0:0:0:
256,192,24263,1,0,0:0:0:0:
256,192,24435,1,0,0:0:0:0:
256,192,24521,1,0,0:0:0:0:
256,192,24608,1,2,0:0:0:0:
256,192,24694,1,0,0:0:0:0:
256,192,24780,1,2,0:0:0:0:
256,192,24952,1,2,0:0:0:0:
256,192,25125,1,0,0:0:0:0:
256,192,25297,1,2,0:0:0:0:
256,192,25470,1,0,0:0:0:0:
256,192,25642,1,4,0:0:0:0:
256,192,25815,1,2,0:0:0:0:
256,192,25901,1,0,0:0:0:0:
256,192,25987,1,2,0:0:0:0:
256,192,26073,1,0,0:0:0:0:
256,192,26159,1,2,0:0:0:0:
256,192,26246,1,2,0:0:0:0:
256,192,26332,1,2,0:0:0:0:
256,192,26504,1,0,0:0:0:0:
256,192,26677,1,2,0:0:0:0:
256,192,26849,1,0,0:0:0:0:
256,192,27021,1,4,0:0:0:0:
256,192,27194,1,0,0:0:0:0:
256,192,27366,1,2,0:0:0:0:
256,192,27452,1,2,0:0:0:0:
256,192,27539,1,0,0:0:0:0:
256,192,27711,1,0,0:0:0:0:
256,192,27883,1,2,0:0:0:0:
256,192,28056,1,12,0:0:0:0:
256,192,28228,1,0,0:0:0:0:
256,192,28401,1,4,0:0:0:0:
256,192,28573,1,2,0:0:0:0:
256,192,28659,1,0,0:0:0:0:
256,192,28746,1,2,0:0:0:0:
256,192,28832,1,0,0:0:0:0:
256,192,28918,1,2,0:0:0:0:
256,192,29004,1,0,0:0:0:0:
256,192,29090,1,0,0:0:0:0:
256,192,29263,1,0,0:0:0:0:
256,192,29435,1,2,0:0:0:0:
256,192,29608,1,0,0:0:0:0:
256,192,29780,1,4,0:0:0:0:
256,192,29952,1,0,0:0:0:0:
256,192,30125,1,2,0:0:0:0:
256,192,30297,1,2,0:0:0:0:
256,192,30470,1,2,0:0:0:0:
256,192,30642,1,0,0:0:0:0:
256,192,30815,1,0,0:0:0:0:
256,192,30987,1,2,0:0:0:0:
256,192,31159,1,4,0:0:0:0:
256,192,31332,1,2,0:0:0:0:
256,192,31418,1,0,0:0:0:0:
256,192,31504,1,2,0:0:0:0:
256,192,31590,1,0,0:0:0:0:
256,192,31677,1,2,0:0:0:0:
256,192,31763,1,2,0:0:0:0:
256,192,31849,1,2,0:0:0:0:
256,192,32021,1,0,0:0:0:0:
256,192,32194,1,2,0:0:0:0:
256,192,32366,1,0,0:0:0:0:
256,192,32539,1,0,0:0:0:0:
256,192,32625,1,0,0:0:0:0:
256,192,32711,1,2,0:0:0:0:
256,192,32797,1,0,0:0:0:0:
256,192,32883,1,2,0:0:0:0:
256,192,33056,1,2,0:0:0:0:
256,192,33142,1,0,0:0:0:0:
256,192,33228,1,2,0:0:0:0:
256,192,33315,1,2,0:0:0:0:
256,192,33401,1,0,0:0:0:0:
256,192,33573,1,6,0:0:0:0:
256,192,33918,1,0,0:0:0:0:
