osu file format v14

[General]
AudioFilename: audio.mp3
AudioLeadIn: 0
PreviewTime: 11102
Countdown: 0
SampleSet: Soft
StackLeniency: 0.7
Mode: 0
LetterboxInBreaks: 0
WidescreenStoryboard: 0

[Editor]
Bookmarks: 413,5930,11447,16447,16964,22481,27999,33516,39033,44550,50068,55585,61102,66619,72137,77654,83171,88688,94206,99723,110757,116275,121792,127309,132826,138344,143861,154895,160413,165930,171447,176964,182481,187999,193516,199033,210068,221102,232137
DistanceSpacing: 2.7
BeatDivisor: 12
GridSize: 8
TimelineZoom: 5.799996

[Metadata]
Title:Good Morning Tokyo
TitleUnicode:Good Morning Tokyo
Artist:Happy Kuru Kuru
ArtistUnicode:Happy Kuru Kuru
Creator:aigoh
Version:Mangocurry
Source:
Tags:HonKAn Good Morning Tokyo Happy Kuru Kuru Yunomi
BeatmapID:1691006
BeatmapSetID:805592

[Difficulty]
HPDrainRate:8.3
CircleSize:4
OverallDifficulty:8
ApproachRate:9.3
SliderMultiplier:1.8
SliderTickRate:1

[Events]
//Background and Video events
0,0,"69413462_p012131.png",0,0
//Break Periods
//Storyboard Layer 0 (Background)
//Storyboard Layer 1 (Fail)
//Storyboard Layer 2 (Pass)
//Storyboard Layer 3 (Foreground)
//Storyboard Sound Samples

[TimingPoints]
413,344.827586206897,4,2,1,35,1,0
413,-142.857142857143,4,2,1,35,0,0
1102,-166.666666666667,4,2,1,35,0,0
1792,-142.857142857143,4,2,1,35,0,0
2481,-166.666666666667,4,2,1,35,0,0
3171,-142.857142857143,4,2,1,35,0,0
3861,-166.666666666667,4,2,1,35,0,0
4550,-142.857142857143,4,2,1,35,0,0
5585,-45.4545454545455,4,2,1,35,0,0
5930,-100,4,2,1,35,0,0
6102,-111.111111111111,4,2,1,35,0,0
6275,-66.6666666666667,4,2,1,35,0,0
6619,-83.3333333333333,4,2,1,35,0,0
6964,-52.0833333333333,4,2,1,35,0,0
7309,-83.3333333333333,4,2,1,35,0,0
7654,-47.6190476190476,4,2,1,35,0,0
7999,-83.3333333333333,4,2,1,35,0,0
8344,-45.4545454545455,4,2,1,35,0,0
8688,-89.2857142857143,4,2,1,35,0,0
10039,-50,4,2,1,5,0,0
10068,-50,4,2,1,35,0,0
10089,-50,4,2,1,5,0,0
10671,-43.4782608695652,4,2,1,35,0,0
10757,-62.5,4,2,1,35,0,0
11073,-58.8235294117647,4,2,1,5,0,0
11102,-58.8235294117647,4,2,1,35,0,0
11390,-58.8235294117647,4,2,1,5,0,0
11447,-83.3333333333333,4,2,1,50,0,1
11792,-71.4285714285714,4,2,1,50,0,1
12481,-125,4,2,1,50,0,1
12999,-166.666666666667,4,2,1,50,0,1
13516,-125,4,2,1,50,0,1
14206,-80,4,2,1,50,0,1
14895,-50,4,2,1,50,0,1
15240,-100,4,2,1,50,0,1
15585,-83.3333333333333,4,2,1,50,0,1
15757,-100,4,2,1,50,0,1
15815,-100,4,2,1,5,0,1
15844,-100,4,2,1,50,0,1
15901,-100,4,2,1,5,0,1
15930,-71.4285714285714,4,2,1,50,0,1
16275,-71.4285714285714,4,2,1,50,0,1
16591,-71.4285714285714,4,2,1,5,0,1
16619,-166.666666666667,4,2,1,50,0,1
16907,-166.666666666667,4,2,1,5,0,1
16964,-100,4,2,1,50,0,1
22481,-100,4,2,1,50,0,0
88688,-100,4,2,1,50,0,1
99723,-100,4,2,1,50,0,0
110757,-100,4,2,1,50,0,1
120413,-100,4,2,1,50,0,0
120757,-200,4,2,1,50,0,0
121102,-333.333333333333,4,2,1,50,0,0
121447,-1000,4,2,1,50,0,0

[HitObjects]
340,240,413,6,0,B|375:243|399:262|399:262|393:206|437:174,1,157.499995193482
491,248,930,1,0,0:0:0:0:
321,315,1102,6,0,B|350:317|371:333|371:333|367:286|404:257,1,134.999995880127
454,324,1619,1,0,0:0:0:0:
250,255,1792,6,0,B|205:250|205:250|182:275|182:275|176:242|176:242|135:224,1,157.499995193482
213,161,2309,1,0,0:0:0:0:
271,144,2481,6,0,B|232:139|232:139|212:161|212:161|207:132|207:132|172:117,1,134.999995880127
243,46,2998,1,0,0:0:0:0:
383,39,3171,6,0,B|421:22|458:28|458:28|471:64|461:107,1,157.499995193482
458,206,3688,1,0,0:0:0:0:
371,211,3861,6,0,B|406:205|436:218|436:218|439:251|421:285,1,134.999995880127
335,292,4378,1,0,0:0:0:0:
256,281,4550,6,0,B|280:284|296:300|296:300|291:322|272:340,2,94.499997116089
165,217,5240,6,0,B|133:217|133:217|105:232,1,62.9999980773926
191,106,5585,6,0,B|170:110|128:136|115:161|135:209|192:228|234:164|245:153|245:153|262:144|277:150|291:167|282:190|262:196|248:194|241:183|235:173,1,297.000009063721
390,245,5930,6,0,P|413:266|415:299,1,60
427,372,6102,2,0,P|420:344|437:313,1,53.9999983520508
500,283,6275,2,0,B|485:301|455:301|441:296|432:292|432:292|421:287|409:277|391:275|362:287,1,135.000005149842
303,330,6533,1,0,0:0:0:0:
221,313,6619,6,0,P|201:284|208:252,1,53.9999983520508
219,187,6792,1,0,0:0:0:0:
213,188,6878,1,0,0:0:0:0:
210,193,6964,2,0,B|206:202|205:210|218:215|218:214|229:213|238:211|239:203|237:193|234:180|234:180|223:153|216:131|216:131|212:111|217:87|249:69,1,172.80000421875
319,44,7223,5,0,0:0:0:0:
375,109,7309,2,0,P|375:140|357:165,1,53.9999983520508
279,206,7481,1,0,0:0:0:0:
286,203,7568,1,0,0:0:0:0:
287,196,7654,2,0,B|272:180|257:176|241:190|240:208|248:220|248:220|284:207|322:200|353:206|378:225,1,188.999994232178
431,159,7913,5,0,0:0:0:0:
354,97,7999,2,0,P|330:96|298:109,1,53.9999983520508
237,150,8171,1,0,0:0:0:0:
237,156,8257,1,0,0:0:0:0:
243,159,8344,2,0,B|255:165|273:155|271:128|255:118|231:119|210:135|210:135|195:143|171:141|171:141|160:141|148:136|148:136|139:130|115:129|90:131,1,198.000006042481
85,55,8602,5,0,0:0:0:0:
167,31,8688,2,0,B|195:-5|255:-20|302:32|302:32|313:73|298:89|273:97|273:97|251:100|234:128|189:96|189:96|228:58|270:108|270:108|276:128|276:147|261:159|261:159|240:176|222:180|200:160|200:160|234:131|258:184|258:184|243:203|226:209|222:190|222:190|233:181|244:207|244:207|232:211|217:226|217:226|205:244|212:251|216:288,1,789.600009638672
220,294,10068,6,0,L|224:316,1,22.5
424,330,10671,2,0,L|426:369,2,25.8750004935265
423,307,10757,2,0,P|435:281|436:244,2,54
424,318,10930,6,0,P|445:274|416:208,1,120
413,209,11102,2,0,B|385:205|371:182|371:182|357:204|313:213|313:213|280:223|266:257|268:283|299:290|328:278|315:225,1,255.000004863739
304,134,11447,6,0,B|272:136|230:135|202:116|205:86|205:86|209:71|224:47|246:36|281:52|244:98,1,215.999993408203
304,134,11964,5,0,0:0:0:0:
189,262,12137,2,0,P|198:221|123:183,1,125.999996154785
0,329,12481,6,0,B|33:319|64:338|64:338|63:327|63:327|96:345|127:340,1,144
222,371,12913,5,0,0:0:0:0:
290,302,12999,1,0,0:0:0:0:
285,293,13171,6,0,P|291:266|316:244,1,53.9999983520508
464,227,13516,5,0,0:0:0:0:
469,378,13688,1,0,0:0:0:0:
424,384,13775,1,0,0:0:0:0:
386,361,13861,2,0,P|387:325|395:290,1,72
477,131,14206,6,0,B|437:122|417:140|417:140|400:122|376:131|376:131|321:132|347:42|401:89,1,225
268,31,14723,1,0,0:0:0:0:
222,162,14895,6,0,B|215:207|180:195|178:171|175:154|186:132|204:122|222:123|222:123|247:123|262:141|279:170|244:186|234:240,1,270
265,304,15240,6,0,P|258:260|278:219,1,90
175,371,15585,6,0,P|181:332|158:300,1,80.9999975280763
81,259,15757,6,0,P|64:263|50:270,1,30
96,167,15844,2,0,P|82:160|67:157,1,30
154,88,15930,6,0,P|181:119|197:157,1,83.9999974365235
243,45,16102,2,0,P|224:82|218:123,1,83.9999974365235
319,112,16275,6,0,B|351:127|373:122|398:106|398:106|412:115|415:141|415:141|434:190|494:135|443:110,1,230.99999295044
400,148,16619,6,0,B|408:171|432:180|458:178|472:158,1,89.9999972534181
