osu file format v14

[General]
AudioFilename: audio.mp3
AudioLeadIn: 0
PreviewTime: 57056
Countdown: 0
SampleSet: Soft
StackLeniency: 0.7
Mode: 0
LetterboxInBreaks: 0
WidescreenStoryboard: 0

[Editor]
Bookmarks: 664,6739,18891,31043,43195,52309,55727,58385,70537,82689
DistanceSpacing: 1.7
BeatDivisor: 4
GridSize: 4
TimelineZoom: 2.5

[Metadata]
Title:PUNCH*MIND*HAPPINESS
TitleUnicode:PUNCH☆MIND☆HAPPINESS
Artist:Happy Clover
ArtistUnicode:Happy Clover
Creator:rui
Version:Insane
Source:あんハピ♪
Tags:unne happy opening tv anime Moester Rizia kawaiwkyik
BeatmapID:959581
BeatmapSetID:446853

[Difficulty]
HPDrainRate:7
CircleSize:4
OverallDifficulty:8
ApproachRate:9
SliderMultiplier:1.6
SliderTickRate:1

[Events]
//Background and Video events
Video,0,"movie.avi"
0,0,"31529-ANNE_HAPPY-PC .jpg",0,0
//Break Periods
//Storyboard Layer 0 (Background)
//Storyboard Layer 1 (Fail)
//Storyboard Layer 2 (Pass)
//Storyboard Layer 3 (Foreground)
//Storyboard Sound Samples

[TimingPoints]
664,379.746835443038,4,2,1,60,1,0
5600,-100,4,2,2,60,0,0
6739,-100,4,2,1,65,0,0
15853,-100,4,2,1,65,0,0
17372,-100,4,2,2,70,0,0
18132,-83.3333333333333,4,2,1,70,0,0
18891,-100,4,2,1,55,0,0
24208,-100,4,2,2,55,0,0
24588,-100,4,2,1,55,0,0
30284,-100,4,2,2,55,0,0
40157,-166.666666666667,4,2,1,52,0,0
40537,-142.857142857143,4,2,1,54,0,0
40917,-111.111111111111,4,2,1,56,0,0
41201,-90.9090909090909,4,2,1,58,0,0
41486,-76.9230769230769,4,2,1,60,0,0
42056,-133.333333333333,4,2,2,40,0,0
43195,-166.666666666667,4,2,2,40,0,0
49081,-166.666666666667,4,2,1,40,0,0
49271,-166.666666666667,4,2,2,40,0,0
51170,-166.666666666667,4,2,1,40,0,0
52309,-125,4,2,1,60,0,0
55347,-100,4,2,1,65,0,0
56107,-83.3333333333333,4,2,1,65,0,0
58385,-83.3333333333333,4,2,1,70,0,1
64271,-66.6666666666667,4,2,1,70,0,1
64651,-83.3333333333333,4,2,1,70,0,1
65790,-66.6666666666667,4,2,1,70,0,1
66170,-83.3333333333333,4,2,1,70,0,1
67309,-66.6666666666667,4,2,1,70,0,1
67689,-83.3333333333333,4,2,1,70,0,1
69967,-83.3333333333333,4,2,2,70,0,0
70537,-83.3333333333333,4,2,1,70,0,1
82689,-100,4,2,1,60,0,0

[Colours]
Combo1 : 128,255,128
Combo2 : 255,128,128
Combo3 : 255,179,142
Combo4 : 128,255,255

[HitObjects]
172,84,664,6,0,L|264:96,1,80,8|0,1:2|0:0,0:0:0:0:
343,274,1043,2,0,L|264:264,1,80,8|0,1:2|0:0,0:0:0:0:
132,152,1423,2,0,L|88:144,2,40,0|0|0,1:0|0:0|0:0,0:0:0:0:
184,200,1708,2,0,L|236:208,1,40,8|0,1:2|0:0,0:0:0:0:
320,224,1993,1,8,1:2:0:0:
200,128,2182,5,0,1:0:0:0:
160,272,2372,1,0,0:0:0:0:
304,128,2562,1,8,1:2:0:0:
104,176,2752,1,0,0:0:0:0:
240,356,2942,2,0,P|248:320|256:260,1,80,8|0,1:2|0:0,0:0:0:0:
214,206,3227,2,0,P|205:167|200:128,1,80,8|0,1:2|0:0,0:0:0:0:
212,48,3512,1,8,1:2:0:0:
388,88,3701,6,0,P|358:114|326:139,1,80,0|0,1:0|0:0,0:0:0:0:
404,112,4081,2,0,P|370:133|334:152,1,80,0|0,1:0|0:0,0:0:0:0:
415,139,4461,2,0,P|388:152|372:160,2,40,8|0|0,1:2|0:0|0:0,0:0:0:0:
272,208,4746,2,0,L|236:192,1,40,8|0,0:0|0:0,0:0:0:0:
280,72,5031,1,8,0:0:0:0:
208,260,5220,6,0,L|128:272,1,80,0|0,1:0|0:0,0:0:0:0:
72,220,5505,1,0,0:0:0:0:
72,220,5600,2,0,L|84:140,1,80,2|0,0:0|0:0,0:0:0:0:
360,20,5980,2,0,L|372:100,1,80,2|0,0:0|0:0,0:0:0:0:
300,144,6265,1,0,0:0:0:0:
328,180,6360,1,2,0:0:0:0:
332,224,6455,1,0,0:0:0:0:
320,268,6550,1,0,0:0:0:0:
292,300,6645,1,0,0:0:0:0:
252,320,6739,6,0,L|244:360,1,40,4|0,0:2|0:0,0:0:0:0:
136,296,6929,2,0,L|149:334,1,40
51,294,7119,2,0,B|40:341|40:341|16:320,1,80,0|0,1:0|0:0,0:0:0:0:
191,248,7499,2,0,B|180:202|180:202|156:224,1,80,2|0,0:0|0:0,0:0:0:0:
272,300,7784,1,0,0:0:0:0:
272,300,7879,2,0,L|292:208,1,80,0|0,1:0|0:0,0:0:0:0:
328,68,8258,5,2,0:0:0:0:
360,224,8448,1,0,0:0:0:0:
424,52,8638,1,0,1:0:0:0:
276,160,8828,1,0,0:0:0:0:
148,28,9018,2,0,L|112:108,1,80,2|0,0:0|0:0,0:0:0:0:
192,156,9303,1,0,0:0:0:0:
192,156,9398,2,0,P|200:194|224:228,1,80,0|0,1:0|0:0,0:0:0:0:
336,104,9777,6,0,L|352:67,1,40,2|0,0:0|0:0,0:0:0:0:
368,188,9967,2,0,L|401:164,1,40
344,272,10157,2,0,L|440:280,1,80,0|0,1:0|0:0,0:0:0:0:
284,208,10537,2,0,P|264:240|260:284,1,80,2|0,0:0|0:0,0:0:0:0:
196,344,10822,1,0,0:0:0:0:
196,344,10917,2,0,P|176:308|172:264,1,80,0|0,1:0|0:0,0:0:0:0:
96,104,11296,5,2,0:0:0:0:
208,164,11486,1,0,0:0:0:0:
52,196,11676,1,0,1:0:0:0:
192,64,11866,1,0,0:0:0:0:
140,244,12056,1,2,0:0:0:0:
140,244,12151,1,0,0:0:0:0:
140,244,12246,1,0,0:0:0:0:
264,104,12436,2,0,P|272:65|264:26,1,80,0|0,1:0|0:0,0:0:0:0:
84,80,12815,6,0,L|103:126,1,40,4|0,0:2|0:0,0:0:0:0:
48,184,13005,2,0,L|92:207,1,40
157,265,13195,2,0,L|80:284,1,80,0|0,1:0|0:0,0:0:0:0:
256,232,13575,2,0,P|232:196|200:172,1,80,2|0,0:0|0:0,0:0:0:0:
252,72,13860,1,0,0:0:0:0:
252,72,13955,2,0,P|276:108|308:132,1,80,0|0,1:0|0:0,0:0:0:0:
420,188,14334,5,2,0:0:0:0:
256,232,14524,1,0,0:0:0:0:
252,72,14714,1,0,1:0:0:0:
88,116,14904,1,0,0:0:0:0:
256,272,15094,2,0,P|296:264|328:236,1,80,2|0,0:0|0:0,0:0:0:0:
260,192,15380,1,0,0:0:0:0:
214,207,15474,1,0,1:0:0:0:
166,210,15569,1,0,0:0:0:0:
119,199,15664,1,0,1:0:0:0:
80,56,15853,6,0,L|160:32,1,80,2|0,1:0|0:0,0:0:0:0:
436,93,16233,2,0,L|360:117,1,80,0|0,1:0|0:0,0:0:0:0:
80,144,16613,6,0,P|68:180|64:232,1,80,8|0,1:2|0:0,0:0:0:0:
192,212,16898,2,0,P|203:248|208:300,1,80,8|0,1:2|0:0,0:0:0:0:
324,344,17182,1,8,1:2:0:0:
384,196,17372,6,0,L|412:152,1,40,2|0,0:0|0:0,0:0:0:0:
328,108,17562,2,0,L|358:82,1,40,2|0,0:0|0:0,0:0:0:0:
212,132,17752,2,0,L|178:152,1,40,2|0,0:0|0:0,0:0:0:0:
173,36,17942,2,0,L|146:66,1,40,2|2,0:0|0:0,0:0:0:0:
40,234,18132,6,0,P|88:236|133:222,1,95.9999970703126,0|0,1:0|1:0,0:0:0:0:
208,192,18417,1,0,0:0:0:0:
288,196,18512,1,0,1:0:0:0:
356,236,18607,1,0,1:0:0:0:
436,224,18701,1,0,1:0:0:0:
484,160,18796,1,0,1:0:0:0:
504,84,18891,6,0,P|461:89|420:104,1,80,4|0,0:0|0:0,0:0:0:0:
288,196,19271,2,0,P|328:200|376:220,1,80,0|0,1:0|0:0,0:0:0:0:
224,132,19651,1,0,0:0:0:0:
208,248,19841,1,0,0:0:0:0:
124,140,20031,1,0,1:0:0:0:
108,256,20221,1,0,0:0:0:0:
60,80,20410,6,0,P|96:59|147:51,1,80
288,192,20790,2,0,P|251:212|200:220,1,80,0|0,1:0|0:0,0:0:0:0:
133,51,21170,2,0,P|171:59|206:78,1,80
296,116,21550,1,0,1:0:0:0:
280,264,21739,1,0,0:0:0:0:
396,84,21929,1,0,0:0:0:0:
396,84,22309,5,0,1:0:0:0:
280,264,22499,1,0,0:0:0:0:
296,116,22689,2,0,L|208:140,1,80
152,228,23069,1,0,1:0:0:0:
152,64,23258,1,0,0:0:0:0:
72,168,23448,2,0,P|60:200|48:256,1,80
264,304,23828,2,0,P|255:264|241:227,1,80,0|0,1:0|0:0,0:0:0:0:
180,96,24208,5,2,0:0:0:0:
158,71,24303,1,0,0:0:0:0:
174,44,24398,1,2,0:0:0:0:
205,50,24493,1,0,0:0:0:0:
208,82,24588,2,0,P|204:128|196:168,1,80,0|0,1:0|0:0,0:0:0:0:
108,276,24967,6,0,P|101:312|129:292,1,80
268,340,25347,2,0,P|294:359|299:326,1,80,0|0,1:0|0:0,0:0:0:0:
320,128,25727,2,0,P|313:91|341:111,1,80
480,64,26107,2,0,P|506:44|511:77,1,80,0|0,1:0|0:0,0:0:0:0:
496,172,26486,5,0,0:0:0:0:
424,236,26676,1,0,0:0:0:0:
328,248,26866,1,0,1:0:0:0:
244,204,27056,1,0,0:0:0:0:
272,112,27246,1,0,0:0:0:0:
188,68,27436,1,0,0:0:0:0:
92,80,27626,1,0,1:0:0:0:
20,144,27816,1,0,0:0:0:0:
40,236,28005,6,0,P|76:243|57:213,1,80
180,136,28385,2,0,P|234:95|249:161,1,160,0|0,1:0|0:0,0:0:0:0:
280,332,29145,2,0,P|288:288|304:248,1,80,0|0,1:0|0:0,0:0:0:0:
396,236,29524,2,0,P|368:172|372:80,1,160,0|0,0:0|1:0,0:0:0:0:
284,88,30094,1,0,0:0:0:0:
216,36,30284,5,2,0:0:0:0:
196,71,30379,1,0,0:0:0:0:
196,106,30474,1,2,0:0:0:0:
212,141,30569,1,0,0:0:0:0:
244,164,30664,1,2,0:0:0:0:
276,186,30758,1,0,0:0:0:0:
292,221,30853,1,2,0:0:0:0:
292,256,30948,1,0,0:0:0:0:
284,292,31043,5,4,0:0:0:0:
172,232,31233,1,0,0:0:0:0:
348,176,31423,1,0,1:0:0:0:
208,296,31613,1,0,0:0:0:0:
300,116,31803,1,0,0:0:0:0:
108,84,31993,6,0,L|24:100,2,80,0|0|0,0:0|1:0|0:0,0:0:0:0:
232,56,32562,1,0,0:0:0:0:
192,176,32752,1,0,0:0:0:0:
328,124,32942,1,0,1:0:0:0:
288,244,33132,1,0,0:0:0:0:
414,202,33322,2,0,L|454:194,2,40,2|0|2,0:0|0:0|0:0,0:0:0:0:
240,316,33701,2,0,L|318:330,1,80,0|0,1:0|0:0,0:0:0:0:
156,340,34081,6,0,P|156:304|172:260,1,80
212,168,34461,1,0,1:0:0:0:
240,316,34651,1,0,0:0:0:0:
320,208,34841,1,0,0:0:0:0:
404,300,35031,6,0,L|488:284,2,80,0|0|0,0:0|1:0|0:0,0:0:0:0:
280,328,35600,1,0,0:0:0:0:
320,208,35790,1,0,0:0:0:0:
184,260,35980,1,0,1:0:0:0:
224,140,36170,1,0,0:0:0:0:
57,189,36360,1,2,0:0:0:0:
28,168,36455,1,0,0:0:0:0:
20,132,36550,1,2,0:0:0:0:
32,100,36645,1,0,0:0:0:0:
64,80,36739,2,0,L|148:60,1,80,0|0,1:0|0:0,0:0:0:0:
296,40,37119,6,0,P|332:48|292:56,1,80
168,140,37499,2,0,P|132:148|172:156,1,80,0|0,1:0|0:0,0:0:0:0:
348,184,37879,2,0,P|384:192|344:200,1,80
128,276,38259,2,0,P|92:284|132:292,1,80,0|0,1:0|0:0,0:0:0:0:
256,360,38638,5,0,0:0:0:0:
408,304,38828,1,0,0:0:0:0:
284,204,39018,1,0,1:0:0:0:
340,352,39208,1,0,0:0:0:0:
384,208,39398,5,0,0:0:0:0:
248,328,39588,1,0,0:0:0:0:
216,144,39778,1,0,1:0:0:0:
120,312,39968,1,0,0:0:0:0:
48,152,40157,6,0,P|40:176|36:204,1,47.9999985351563,0|0,1:0|0:0,0:0:0:0:
140,240,40537,6,0,P|148:213|152:185,1,55.9999982910157,0|0,1:0|0:0,0:0:0:0:
292,144,40917,6,0,P|292:176|280:220,1,71.9999978027344,0|0,1:0|0:0,0:0:0:0:
384,308,41201,5,0,1:0:0:0:
396,288,41296,1,0,0:0:0:0:
400,268,41391,1,0,0:0:0:0:
400,244,41486,2,0,L|392:168,1,51.999997619629,0|0,1:0|0:0,0:0:0:0:
376,28,41676,1,0,1:0:0:0:
376,28,42056,6,0,P|368:72|360:124,1,90.0000034332277,2|0,0:0|0:0,0:0:0:0:
304,92,42436,2,0,P|299:121|294:151,1,60.0000022888184,2|0,0:0|0:0,0:0:0:0:
236,132,42720,1,0,1:0:0:0:
236,132,42815,2,0,P|231:161|226:191,1,60.0000022888184,0|0,1:0|0:0,0:0:0:0:
164,152,43195,6,0,B|156:204|156:204|176:252,2,95.9999970703126,4|0|0,0:0|0:0|0:0,0:0:0:0:
84,76,44145,2,0,L|104:20,2,47.9999985351563
36,176,44714,2,0,L|72:280,1,95.9999970703126
72,364,45284,2,0,L|24:354,1,47.9999985351563
152,308,45664,2,0,L|224:224,1,95.9999970703126
272,156,46233,1,0,0:0:0:0:
360,116,46423,6,0,P|408:120|456:132,1,95.9999970703126
272,156,46993,2,0,P|224:152|176:140,1,95.9999970703126
88,104,47562,1,0,0:0:0:0:
166,45,47752,2,0,P|176:88|178:145,1,95.9999970703126
268,172,48322,2,0,P|258:215|256:272,1,95.9999970703126
424,172,49081,6,0,P|422:140|415:108,1,47.9999985351563,6|0,0:0|0:0,0:0:0:0:
348,148,49461,1,0,0:0:0:0:
272,164,49651,1,0,0:0:0:0:
196,160,49841,1,0,0:0:0:0:
120,140,50031,2,0,P|121:171|128:203,1,47.9999985351563
267,211,50410,2,0,P|271:187|272:164,1,47.9999985351563
212,65,50790,6,0,P|199:112|196:160,1,95.9999970703126,0|0,0:0|1:0,0:0:0:0:
296,228,51360,1,0,0:0:0:0:
296,228,51455,1,0,1:0:0:0:
296,228,51550,2,0,L|316:164,1,47.9999985351563,2|0,0:0|0:0,0:0:0:0:
180,288,51929,1,0,1:0:0:0:
180,288,52024,1,0,0:0:0:0:
180,288,52119,1,0,0:0:0:0:
288,92,52309,5,8,1:2:0:0:
288,92,52689,1,8,1:2:0:0:
288,92,53069,2,0,L|276:24,1,64,8|0,1:2|0:0,0:0:0:0:
160,92,53353,1,8,1:2:0:0:
160,92,53448,1,2,0:0:0:0:
304,164,53638,5,8,1:2:0:0:
112,196,53828,1,12,1:2:0:0:
312,200,54018,1,0,0:2:0:0:
144,101,54208,1,8,1:2:0:0:
168,276,54398,1,0,0:2:0:0:
264,108,54588,2,0,L|272:160,1,32,0|0,1:0|0:0,0:0:0:0:
307,231,54777,2,0,L|315:179,1,32,0|8,0:0|1:2,0:0:0:0:
340,60,54967,1,2,0:0:0:0:
416,248,55157,1,8,1:2:0:0:
279,301,55347,6,0,P|220:302|167:275,1,120,4|0,1:2|0:0,0:0:0:0:
92,215,55727,2,0,P|144:187|203:189,1,120,0|0,1:2|0:0,0:0:0:0:
336,240,56107,6,0,P|386:227|441:205,1,95.9999970703126,8|0,1:2|0:0,0:0:0:0:
260,40,56391,2,0,P|243:89|233:147,1,95.9999970703126,8|0,1:2|0:0,0:0:0:0:
166,274,56676,1,8,1:2:0:0:
400,72,56866,1,4,1:2:0:0:
400,72,57246,6,0,B|408:108|408:108|396:136|404:176|404:176|376:220,1,143.999995605469
340,272,57626,1,0,1:0:0:0:
272,112,57815,1,0,1:0:0:0:
204,288,58005,1,0,1:0:0:0:
204,288,58100,1,0,1:0:0:0:
204,288,58195,1,0,1:0:0:0:
216,48,58385,6,0,P|260:32|324:44,1,95.9999970703126,4|0,0:0|0:0,0:0:0:0:
352,180,58670,1,0,0:0:0:0:
352,180,58765,2,0,P|313:203|256:212,1,95.9999970703126,0|0,1:0|0:0,0:0:0:0:
148,200,59145,1,2,0:0:0:0:
272,96,59334,5,8,0:0:0:0:
208,368,59524,2,0,P|206:322|192:260,1,95.9999970703126,8|0,1:2|0:0,0:0:0:0:
328,264,59904,6,0,L|348:164,1,95.9999970703126,2|0,0:0|0:0,0:0:0:0:
256,52,60189,1,0,0:0:0:0:
256,52,60284,2,0,P|224:92|208:140,1,95.9999970703126,0|0,1:0|0:0,0:0:0:0:
192,248,60664,1,2,0:0:0:0:
346,169,60853,5,8,0:0:0:0:
72,84,61043,2,0,P|72:136|88:192,1,95.9999970703126,8|0,1:2|0:0,0:0:0:0:
176,332,61423,6,0,P|228:320|268:292,1,95.9999970703126,2|0,0:0|0:0,0:0:0:0:
404,184,61803,2,0,P|445:210|492:220,1,95.9999970703126,0|0,1:0|0:0,0:0:0:0:
260,28,62182,2,0,P|240:76|224:124,1,95.9999970703126,2|0,0:0|0:0,0:0:0:0:
240,264,62467,1,0,0:0:0:0:
240,264,62562,2,0,P|275:225|306:186,1,95.9999970703126,0|0,1:0|0:0,0:0:0:0:
392,44,62942,5,2,0:0:0:0:
244,132,63132,1,0,0:0:0:0:
364,256,63322,1,0,1:0:0:0:
160,312,63512,5,2,0:0:0:0:
302,190,63701,1,2,0:0:0:0:
98,154,63891,1,2,0:0:0:0:
230,26,64080,1,0,1:0:0:0:
48,288,64271,6,0,B|76:264|76:264|120:252|120:252|156:220,1,120.000004577637,4|0,0:0|0:0,0:0:0:0:
260,96,64651,6,0,L|316:104,1,47.9999985351563
408,48,64841,2,0,L|373:92,1,47.9999985351563,2|0,0:0|0:0,0:0:0:0:
376,200,65031,2,0,L|354:147,1,47.9999985351563
260,96,65220,6,0,L|240:44,1,47.9999985351563,0|0,1:0|0:0,0:0:0:0:
192,280,65410,2,0,L|212:332,2,47.9999985351563,0|0|0,0:0|0:0|1:0,0:0:0:0:
20,32,65790,6,0,P|80:27|141:50,1,120.000004577637,4|0,0:0|0:0,0:0:0:0:
277,140,66170,6,0,L|333:148,1,47.9999985351563
425,92,66360,2,0,L|390:136,1,47.9999985351563,2|0,0:0|0:0,0:0:0:0:
393,244,66550,2,0,L|371:191,1,47.9999985351563
277,140,66739,6,0,L|257:88,1,47.9999985351563,0|0,1:0|0:0,0:0:0:0:
209,324,66929,2,0,L|229:376,2,47.9999985351563,0|0|0,0:0|0:0|1:0,0:0:0:0:
508,258,67309,6,0,P|448:263|387:240,1,120.000004577637,4|0,0:0|0:0,0:0:0:0:
256,172,67689,5,0,0:0:0:0:
116,232,67879,1,0,1:0:0:0:
248,312,68069,1,0,0:0:0:0:
148,144,68258,1,2,0:0:0:0:
328,76,68448,1,0,0:0:0:0:
176,240,68638,1,0,1:0:0:0:
116,56,68828,1,0,0:0:0:0:
324,172,69018,5,2,0:0:0:0:
140,324,69208,1,2,0:0:0:0:
116,128,69398,1,0,1:0:0:0:
388,308,69588,1,2,0:0:0:0:
388,308,69967,6,0,L|444:284,1,47.9999985351563
452,96,70157,1,2,0:0:0:0:
398,72,70251,1,0,0:0:0:0:
340,81,70346,1,0,0:0:0:0:
301,124,70441,1,0,0:0:0:0:
275,176,70537,6,0,P|238:208|197:238,1,95.9999970703126,4|0,0:0|0:0,0:0:0:0:
84,148,70822,1,0,0:0:0:0:
84,148,70917,2,0,P|112:100|148:56,1,95.9999970703126,0|0,1:0|0:0,0:0:0:0:
240,16,71296,1,2,0:0:0:0:
184,160,71486,5,8,0:0:0:0:
428,224,71676,2,0,P|448:176|448:124,1,95.9999970703126,8|0,1:2|0:0,0:0:0:0:
284,28,72056,6,0,L|320:132,1,95.9999970703126,2|0,0:0|0:0,0:0:0:0:
208,216,72341,1,0,0:0:0:0:
208,216,72436,2,0,P|168:188|128:144,1,95.9999970703126,0|0,1:0|0:0,0:0:0:0:
96,48,72815,1,2,0:0:0:0:
16,180,73005,5,8,0:0:0:0:
264,284,73195,2,0,P|288:240|288:188,1,95.9999970703126,8|0,1:2|0:0,0:0:0:0:
192,76,73575,6,0,P|144:128|148:204,1,143.999995605469,2|0,0:0|0:0,0:0:0:0:
84,272,73955,2,0,P|129:287|176:286,1,95.9999970703126,0|0,1:0|0:0,0:0:0:0:
424,264,74334,2,0,P|364:224|288:224,1,143.999995605469,2|0,0:0|0:0,0:0:0:0:
224,108,74714,2,0,P|205:152|200:200,1,95.9999970703126,0|0,1:0|0:0,0:0:0:0:
296,368,75094,5,2,0:0:0:0:
336,192,75284,1,0,0:0:0:0:
172,320,75474,1,0,1:0:0:0:
396,260,75664,2,0,P|420:220|424:168,1,95.9999970703126,4|0,0:0|0:0,0:0:0:0:
124,24,76043,2,0,P|104:60|96:124,1,95.9999970703126,4|0,0:0|0:0,0:0:0:0:
172,320,76423,2,0,B|200:284|200:228|200:228|228:268|269:288|269:288|304:256|316:200,1,287.999991210938,4|0,0:0|1:0,0:0:0:0:
356,96,77182,5,0,0:0:0:0:
428,176,77372,2,0,P|456:136|464:80,1,95.9999970703126,2|0,0:0|0:0,0:0:0:0:
288,16,77752,2,0,P|260:56|252:108,1,95.9999970703126,0|0,1:0|0:0,0:0:0:0:
236,264,78132,5,2,0:0:0:0:
160,96,78322,1,0,0:0:0:0:
328,148,78512,1,0,1:0:0:0:
152,204,78701,2,0,P|140:248|136:308,1,95.9999970703126,0|2,0:0|0:0,0:0:0:0:
354,279,79081,6,0,L|346:219,1,47.9999985351563
416,128,79271,2,0,L|408:188,1,47.9999985351563,0|0,1:0|1:0,0:0:0:0:
460,272,79461,1,0,0:0:0:0:
324,144,79651,1,6,0:0:0:0:
184,208,79841,6,0,L|192:268,1,47.9999985351563
122,359,80031,2,0,L|130:299,1,47.9999985351563,0|0,1:0|0:0,0:0:0:0:
78,215,80221,1,0,0:0:0:0:
216,344,80410,6,0,P|260:324|300:296,1,95.9999970703126,6|0,0:0|0:0,0:0:0:0:
179,160,80790,2,0,P|187:208|190:255,1,95.9999970703126,0|0,1:0|0:0,0:0:0:0:
332,200,81170,5,2,0:0:0:0:
172,52,81360,1,0,0:0:0:0:
256,240,81550,1,0,1:0:0:0:
324,104,81739,1,0,0:0:0:0:
232,328,81929,2,0,P|176:312|144:288,1,95.9999970703126,2|0,0:0|0:0,0:0:0:0:
72,164,82309,1,0,1:0:0:0:
72,164,82404,1,0,1:0:0:0:
72,164,82499,1,0,1:0:0:0:
172,52,82689,6,0,L|272:36,1,80,12|0,1:2|0:0,0:0:0:0:
368,204,83069,2,0,L|272:220,1,80,8|0,1:2|0:0,0:0:0:0:
180,152,83448,2,0,L|132:160,2,40,0|0|0,1:0|0:0|0:0,0:0:0:0:
252,116,83733,2,0,L|304:108,1,40,8|0,1:2|0:0,0:0:0:0:
388,96,84018,1,8,1:2:0:0:
308,232,84208,5,0,1:0:0:0:
256,40,84398,1,0,0:0:0:0:
180,152,84588,1,8,1:2:0:0:
388,96,84777,1,0,0:0:0:0:
371,292,84967,2,0,P|336:310|297:319,1,80,0|0,1:0|0:0,0:0:0:0:
235,371,85252,2,0,P|216:336|208:297,1,80,8|0,1:2|0:0,0:0:0:0:
212,216,85537,1,8,1:2:0:0:
228,60,85727,6,0,L|244:148,1,80,12|0,1:2|0:0,0:0:0:0:
408,268,86107,2,0,L|424:180,1,80,8|0,1:2|0:0,0:0:0:0:
372,72,86486,2,0,L|380:24,2,40,0|0|0,1:0|0:0|0:0,0:0:0:0:
336,144,86771,2,0,L|324:196,1,40,8|0,1:2|0:0,0:0:0:0:
300,276,87056,1,8,1:2:0:0:
220,124,87246,5,0,1:0:0:0:
136,290,87436,1,0,0:0:0:0:
276,204,87626,1,2,0:0:0:0:
128,144,87816,1,0,0:0:0:0:
232,360,88005,6,0,P|228:315|236:249,1,80,2|0,0:0|0:0,0:0:0:0:
388,240,88290,2,0,P|376:197|345:137,1,80
270,28,88575,1,4,1:2:0:0:
