osu file format v14

[General]
AudioFilename: audio.mp3
AudioLeadIn: 0
PreviewTime: 57246
Countdown: 0
SampleSet: Normal
StackLeniency: 0.7
Mode: 1
LetterboxInBreaks: 0
WidescreenStoryboard: 0

[Editor]
Bookmarks: 664,18891,31043,43195
DistanceSpacing: 1.7
BeatDivisor: 4
GridSize: 16
TimelineZoom: 1.2

[Metadata]
Title:PUNCH*MIND*HAPPINESS
TitleUnicode:PUNCH☆MIND☆HAPPINESS
Artist:Happy Clover
ArtistUnicode:Happy Clover
Creator:rew0825
Version:Muzukashii
Source:あんハピ♪
Tags:Anne Happy unhappy 花小泉杏 Hanakoizumi An 花守ゆみり Hanamori Yumiri 雲雀丘瑠璃 Hibarigaoka Ruri 白石晴香 Shiraishi Haruka 久米川牡丹 Kumegawa Botan 安野希世乃 Yasuno Kiyono 萩生響 Hagyuu Hibiki 山村響 Yamamura Hibiku 江古田蓮 Ekoda Ren 吉岡茉祐 Yoshioka Mayu op tv size PUNCHMINDHAPPINESS Volta
BeatmapID:1442581
BeatmapSetID:682197

[Difficulty]
HPDrainRate:6
CircleSize:2
OverallDifficulty:4
ApproachRate:10
SliderMultiplier:1.4
SliderTickRate:1

[Events]
//Background and Video events
0,0,"BG.jpg",0,110
//Break Periods
//Storyboard Layer 0 (Background)
//Storyboard Layer 1 (Fail)
//Storyboard Layer 2 (Pass)
//Storyboard Layer 3 (Foreground)
//Storyboard Sound Samples

[TimingPoints]
664,379.746835443038,4,1,0,70,1,0
43195,-100,4,1,0,50,0,0
52309,-100,4,1,0,70,0,0
58385,-100,4,1,0,80,0,1
82689,-100,4,1,0,70,0,0

[HitObjects]
256,192,664,5,4,0:0:0:0:
256,192,1043,1,8,0:0:0:0:
256,192,1423,1,0,0:0:0:0:
256,192,1708,1,0,0:0:0:0:
256,192,2182,1,0,0:0:0:0:
256,192,2372,1,8,0:0:0:0:
256,192,2562,1,0,0:0:0:0:
256,192,2752,1,8,0:0:0:0:
256,192,2942,1,0,0:0:0:0:
256,192,3227,1,0,0:0:0:0:
256,192,3701,1,4,0:0:0:0:
256,192,4081,1,8,0:0:0:0:
256,192,4461,1,0,0:0:0:0:
256,192,4746,1,0,0:0:0:0:
256,192,5220,1,0,0:0:0:0:
256,192,5600,1,8,0:0:0:0:
256,192,5790,1,8,0:0:0:0:
256,192,5980,1,0,0:0:0:0:
256,192,6360,1,8,0:0:0:0:
256,192,6739,1,0,0:0:0:0:
256,192,6834,1,0,0:0:0:0:
256,192,6929,1,0,0:0:0:0:
256,192,7119,1,8,0:0:0:0:
256,192,7309,1,8,0:0:0:0:
256,192,7499,1,0,0:0:0:0:
256,192,7879,1,8,0:0:0:0:
256,192,8258,1,0,0:0:0:0:
256,192,8448,1,8,0:0:0:0:
256,192,8638,1,0,0:0:0:0:
256,192,8828,1,8,0:0:0:0:
256,192,9018,1,0,0:0:0:0:
256,192,9398,1,8,0:0:0:0:
256,192,9777,1,0,0:0:0:0:
256,192,9872,1,0,0:0:0:0:
256,192,9967,1,0,0:0:0:0:
256,192,10157,1,8,0:0:0:0:
256,192,10347,1,8,0:0:0:0:
256,192,10537,1,0,0:0:0:0:
256,192,10917,1,8,0:0:0:0:
256,192,11296,1,0,0:0:0:0:
256,192,11486,1,0,0:0:0:0:
256,192,11676,1,8,0:0:0:0:
256,192,11866,1,8,0:0:0:0:
256,192,12056,1,0,0:0:0:0:
256,192,12436,1,8,0:0:0:0:
256,192,12815,1,0,0:0:0:0:
256,192,12910,1,0,0:0:0:0:
256,192,13005,1,0,0:0:0:0:
256,192,13195,1,8,0:0:0:0:
256,192,13385,1,8,0:0:0:0:
256,192,13575,1,0,0:0:0:0:
256,192,13955,1,8,0:0:0:0:
256,192,14334,1,0,0:0:0:0:
256,192,14524,1,8,0:0:0:0:
256,192,14714,1,0,0:0:0:0:
256,192,14904,1,8,0:0:0:0:
256,192,15094,1,0,0:0:0:0:
256,192,15474,1,8,0:0:0:0:
256,192,15853,1,4,0:0:0:0:
256,192,16233,1,8,0:0:0:0:
256,192,16613,1,0,0:0:0:0:
256,192,16898,1,8,0:0:0:0:
256,192,17182,1,8,0:0:0:0:
256,192,17372,1,4,0:0:0:0:
256,192,18132,1,8,0:0:0:0:
256,192,18322,1,0,0:0:0:0:
256,192,18512,1,8,0:0:0:0:
256,192,18607,1,8,0:0:0:0:
256,192,18701,1,8,0:0:0:0:
256,192,18891,1,4,0:0:0:0:
256,192,19651,1,0,0:0:0:0:
256,192,20031,1,8,0:0:0:0:
256,192,20410,1,0,0:0:0:0:
256,192,20600,1,0,0:0:0:0:
256,192,20790,1,8,0:0:0:0:
256,192,21170,1,0,0:0:0:0:
256,192,21550,1,8,0:0:0:0:
256,192,21739,1,8,0:0:0:0:
256,192,21929,1,0,0:0:0:0:
256,192,22689,1,0,0:0:0:0:
256,192,23069,1,8,0:0:0:0:
256,192,23448,1,0,0:0:0:0:
256,192,23828,1,8,0:0:0:0:
256,192,24018,1,8,0:0:0:0:
256,192,24208,1,0,0:0:0:0:
256,192,24303,1,0,0:0:0:0:
256,192,24398,1,0,0:0:0:0:
256,192,24588,1,8,0:0:0:0:
256,192,24967,1,0,0:0:0:0:
256,192,25727,1,0,0:0:0:0:
256,192,26107,1,8,0:0:0:0:
256,192,26486,1,0,0:0:0:0:
256,192,26676,1,0,0:0:0:0:
256,192,26866,1,8,0:0:0:0:
256,192,27246,1,0,0:0:0:0:
256,192,27626,1,8,0:0:0:0:
256,192,27815,1,8,0:0:0:0:
256,192,28005,1,0,0:0:0:0:
256,192,28765,1,8,0:0:0:0:
256,192,29145,1,0,0:0:0:0:
256,192,29524,1,8,0:0:0:0:
256,192,29904,1,0,0:0:0:0:
256,192,30094,1,0,0:0:0:0:
256,192,30284,1,8,0:0:0:0:
256,192,30379,1,8,0:0:0:0:
256,192,30474,1,8,0:0:0:0:
256,192,30664,1,8,0:0:0:0:
256,192,31043,1,4,0:0:0:0:
256,192,31423,1,8,0:0:0:0:
256,192,31613,1,8,0:0:0:0:
256,192,31803,1,0,0:0:0:0:
256,192,32562,1,0,0:0:0:0:
256,192,32942,1,0,0:0:0:0:
256,192,33132,1,0,0:0:0:0:
256,192,33322,1,8,0:0:0:0:
256,192,33701,1,8,0:0:0:0:
256,192,34081,1,0,0:0:0:0:
256,192,34461,1,8,0:0:0:0:
256,192,34651,1,8,0:0:0:0:
256,192,34841,1,0,0:0:0:0:
256,192,35600,1,0,0:0:0:0:
256,192,35980,1,8,0:0:0:0:
256,192,36170,1,0,0:0:0:0:
256,192,36360,1,8,0:0:0:0:
256,192,36455,1,8,0:0:0:0:
256,192,36550,1,8,0:0:0:0:
256,192,36739,1,0,0:0:0:0:
256,192,37119,1,0,0:0:0:0:
256,192,37879,1,0,0:0:0:0:
256,192,38258,1,8,0:0:0:0:
256,192,38638,1,0,0:0:0:0:
256,192,38828,1,0,0:0:0:0:
256,192,39018,1,8,0:0:0:0:
256,192,39398,1,0,0:0:0:0:
256,192,39777,1,8,0:0:0:0:
256,192,39967,1,8,0:0:0:0:
256,192,40157,1,0,0:0:0:0:
256,192,40917,1,8,0:0:0:0:
256,192,41201,1,8,0:0:0:0:
256,192,41486,1,0,0:0:0:0:
256,192,41676,1,8,0:0:0:0:
256,192,42056,1,4,0:0:0:0:
256,192,42436,1,8,0:0:0:0:
256,192,42626,1,0,0:0:0:0:
256,192,42720,1,0,0:0:0:0:
256,192,42815,1,0,0:0:0:0:
256,192,43005,1,8,0:0:0:0:
256,192,43195,1,4,0:0:0:0:
256,192,43955,1,0,0:0:0:0:
256,192,44145,1,0,0:0:0:0:
256,192,44334,1,8,0:0:0:0:
256,192,44714,1,0,0:0:0:0:
256,192,45094,1,8,0:0:0:0:
256,192,45284,1,0,0:0:0:0:
256,192,45664,1,8,0:0:0:0:
256,192,46043,1,0,0:0:0:0:
256,192,46613,1,8,0:0:0:0:
256,192,46993,1,0,0:0:0:0:
256,192,47182,1,0,0:0:0:0:
256,192,47372,1,8,0:0:0:0:
256,192,47752,1,0,0:0:0:0:
256,192,48132,1,8,0:0:0:0:
256,192,48322,1,0,0:0:0:0:
256,192,48701,1,8,0:0:0:0:
256,192,49081,1,4,0:0:0:0:
256,192,49651,1,8,0:0:0:0:
256,192,50031,1,0,0:0:0:0:
256,192,50220,1,8,0:0:0:0:
256,192,50410,1,0,0:0:0:0:
256,192,50790,1,0,0:0:0:0:
256,192,51170,1,8,0:0:0:0:
256,192,51360,1,0,0:0:0:0:
256,192,51739,1,0,0:0:0:0:
256,192,51929,1,8,0:0:0:0:
256,192,52024,1,8,0:0:0:0:
256,192,52119,1,8,0:0:0:0:
256,192,52309,1,4,0:0:0:0:
256,192,52689,1,8,0:0:0:0:
256,192,53069,1,0,0:0:0:0:
256,192,53353,1,0,0:0:0:0:
256,192,53828,1,4,0:0:0:0:
256,192,54018,1,8,0:0:0:0:
256,192,54208,1,0,0:0:0:0:
256,192,54398,1,8,0:0:0:0:
256,192,54588,1,0,0:0:0:0:
256,192,54872,1,0,0:0:0:0:
256,192,55347,1,4,0:0:0:0:
256,192,55727,1,8,0:0:0:0:
256,192,56107,1,0,0:0:0:0:
256,192,56391,1,0,0:0:0:0:
256,192,56866,1,4,0:0:0:0:
256,192,57246,1,8,0:0:0:0:
256,192,57626,1,0,0:0:0:0:
256,192,57815,1,0,0:0:0:0:
256,192,58005,1,8,0:0:0:0:
256,192,58100,1,8,0:0:0:0:
256,192,58195,1,8,0:0:0:0:
256,192,58385,1,4,0:0:0:0:
256,192,58765,1,8,0:0:0:0:
256,192,58955,1,0,0:0:0:0:
256,192,59145,1,8,0:0:0:0:
256,192,59524,1,4,0:0:0:0:
256,192,59904,1,4,0:0:0:0:
256,192,60284,1,8,0:0:0:0:
256,192,60474,1,0,0:0:0:0:
256,192,60664,1,8,0:0:0:0:
256,192,61043,1,4,0:0:0:0:
256,192,61423,1,0,0:0:0:0:
256,192,61803,1,8,0:0:0:0:
256,192,61993,1,0,0:0:0:0:
256,192,62182,1,8,0:0:0:0:
256,192,62562,1,0,0:0:0:0:
256,192,62752,1,8,0:0:0:0:
256,192,62942,1,0,0:0:0:0:
256,192,63322,1,8,0:0:0:0:
256,192,63512,1,4,0:0:0:0:
256,192,63891,1,4,0:0:0:0:
256,192,64271,1,12,0:0:0:0:
256,192,64841,1,0,0:0:0:0:
256,192,65031,1,0,0:0:0:0:
256,192,65220,1,8,0:0:0:0:
256,192,65505,1,8,0:0:0:0:
256,192,65790,1,4,0:0:0:0:
256,192,66360,1,0,0:0:0:0:
256,192,66550,1,0,0:0:0:0:
256,192,66739,1,8,0:0:0:0:
256,192,67024,1,8,0:0:0:0:
256,192,67309,1,4,0:0:0:0:
256,192,67879,1,8,0:0:0:0:
256,192,68258,1,0,0:0:0:0:
256,192,68448,1,0,0:0:0:0:
256,192,68638,1,8,0:0:0:0:
256,192,69018,1,4,0:0:0:0:
256,192,69398,1,12,0:0:0:0:
256,192,69588,1,12,0:0:0:0:
256,192,69967,1,0,0:0:0:0:
256,192,70537,1,4,0:0:0:0:
256,192,70917,1,8,0:0:0:0:
256,192,71107,1,8,0:0:0:0:
256,192,71296,1,0,0:0:0:0:
256,192,71676,1,4,0:0:0:0:
256,192,72056,1,4,0:0:0:0:
256,192,72436,1,8,0:0:0:0:
256,192,72626,1,8,0:0:0:0:
256,192,72815,1,0,0:0:0:0:
256,192,73195,1,4,0:0:0:0:
256,192,73575,1,0,0:0:0:0:
256,192,73955,1,8,0:0:0:0:
256,192,74145,1,8,0:0:0:0:
256,192,74334,1,0,0:0:0:0:
256,192,74714,1,0,0:0:0:0:
256,192,74904,1,0,0:0:0:0:
256,192,75094,1,8,0:0:0:0:
256,192,75474,1,8,0:0:0:0:
256,192,75664,1,4,0:0:0:0:
256,192,76043,1,4,0:0:0:0:
256,192,76423,1,12,0:0:0:0:
256,192,76993,1,8,0:0:0:0:
256,192,77372,1,0,0:0:0:0:
256,192,77562,1,0,0:0:0:0:
256,192,77752,1,8,0:0:0:0:
256,192,78132,1,0,0:0:0:0:
256,192,78512,1,8,0:0:0:0:
256,192,78701,1,0,0:0:0:0:
256,192,79081,1,0,0:0:0:0:
256,192,79271,1,8,0:0:0:0:
256,192,79651,1,0,0:0:0:0:
256,192,80031,1,8,0:0:0:0:
256,192,80220,1,8,0:0:0:0:
256,192,80410,1,0,0:0:0:0:
256,192,80790,1,8,0:0:0:0:
256,192,81170,1,0,0:0:0:0:
256,192,81360,1,0,0:0:0:0:
256,192,81550,1,8,0:0:0:0:
256,192,81739,1,8,0:0:0:0:
256,192,81929,1,0,0:0:0:0:
256,192,82309,1,8,0:0:0:0:
256,192,82404,1,8,0:0:0:0:
256,192,82499,1,8,0:0:0:0:
256,192,82689,1,4,0:0:0:0:
256,192,83069,1,8,0:0:0:0:
256,192,83448,1,0,0:0:0:0:
256,192,83733,1,0,0:0:0:0:
256,192,84208,1,0,0:0:0:0:
256,192,84398,1,8,0:0:0:0:
256,192,84588,1,0,0:0:0:0:
256,192,84777,1,8,0:0:0:0:
256,192,84967,1,0,0:0:0:0:
256,192,85252,1,0,0:0:0:0:
256,192,85727,1,4,0:0:0:0:
256,192,86107,1,8,0:0:0:0:
256,192,86486,1,0,0:0:0:0:
256,192,86771,1,0,0:0:0:0:
256,192,87246,1,0,0:0:0:0:
256,192,87436,1,0,0:0:0:0:
256,192,87626,1,8,0:0:0:0:
256,192,87815,1,8,0:0:0:0:
256,192,88005,1,0,0:0:0:0:
256,192,88100,1,0,0:0:0:0:
256,192,88195,1,0,0:0:0:0:
256,192,88385,1,8,0:0:0:0:
256,192,88575,1,4,0:0:0:0:
