osu file format v14

[General]
AudioFilename: audio.mp3
AudioLeadIn: 0
PreviewTime: 57246
Countdown: 0
SampleSet: Normal
StackLeniency: 0.7
Mode: 1
LetterboxInBreaks: 0
WidescreenStoryboard: 0

[Editor]
Bookmarks: 664,3701,15853,17372,18891,31043,42056,43195,49081,52309,52689,53828,55347,55727,56866,58385,59334,59524,59904,60853,61043,63512,63891,64271,65790,67309,69018,69208,69398,69588,70537,71486,71676,72056,73005,73195,75664,76043,76423,82689,85727,88575
DistanceSpacing: 1.7
BeatDivisor: 4
GridSize: 32
TimelineZoom: 1.9

[Metadata]
Title:PUNCH*MIND*HAPPINESS
TitleUnicode:PUNCH☆MIND☆HAPPINESS
Artist:Happy Clover
ArtistUnicode:Happy Clover
Creator:rew0825
Version:Inner Oni
Source:あんハピ♪
Tags:Anne Happy unhappy 花小泉杏 Hanakoizumi An 花守ゆみり Hanamori Yumiri 雲雀丘瑠璃 Hibarigaoka Ruri 白石晴香 Shiraishi Haruka 久米川牡丹 Kumegawa Botan 安野希世乃 Yasuno Kiyono 萩生響 Hagyuu Hibiki 山村響 Yamamura Hibiku 江古田蓮 Ekoda Ren 吉岡茉祐 Yoshioka Mayu op tv size PUNCHMINDHAPPINESS Volta
BeatmapID:1497996
BeatmapSetID:682197

[Difficulty]
HPDrainRate:6
CircleSize:2
OverallDifficulty:5.5
ApproachRate:10
SliderMultiplier:1.4
SliderTickRate:1

[Events]
//Background and Video events
0,0,"BG.jpg",0,110
//Break Periods
//Storyboard Layer 0 (Background)
//Storyboard Layer 1 (Fail)
//Storyboard Layer 2 (Pass)
//Storyboard Layer 3 (Foreground)
//Storyboard Sound Samples

[TimingPoints]
664,379.746835443038,4,1,0,70,1,0
43195,-100,4,1,0,50,0,0
52309,-100,4,1,0,70,0,0
58385,-100,4,1,0,80,0,1
82689,-100,4,1,0,70,0,0

[HitObjects]
256,192,664,5,4,0:0:0:0:
256,192,1043,1,8,0:0:0:0:
256,192,1423,1,0,0:0:0:0:
256,192,1613,1,8,0:0:0:0:
256,192,1708,1,0,0:0:0:0:
256,192,1898,1,0,0:0:0:0:
256,192,1993,1,8,0:0:0:0:
256,192,2182,1,0,0:0:0:0:
256,192,2372,1,8,0:0:0:0:
256,192,2562,1,0,0:0:0:0:
256,192,2752,1,8,0:0:0:0:
256,192,2942,1,0,0:0:0:0:
256,192,3132,1,8,0:0:0:0:
256,192,3227,1,0,0:0:0:0:
256,192,3417,1,0,0:0:0:0:
256,192,3512,1,8,0:0:0:0:
256,192,3701,1,4,0:0:0:0:
256,192,4081,1,8,0:0:0:0:
256,192,4461,1,0,0:0:0:0:
256,192,4651,1,8,0:0:0:0:
256,192,4746,1,0,0:0:0:0:
256,192,4936,1,0,0:0:0:0:
256,192,5031,1,8,0:0:0:0:
256,192,5220,1,0,0:0:0:0:
256,192,5410,1,0,0:0:0:0:
256,192,5505,1,0,0:0:0:0:
256,192,5600,1,8,0:0:0:0:
256,192,5790,1,8,0:0:0:0:
256,192,5980,1,0,0:0:0:0:
256,192,6075,1,0,0:0:0:0:
256,192,6170,1,8,0:0:0:0:
256,192,6265,1,0,0:0:0:0:
256,192,6360,1,8,0:0:0:0:
256,192,6455,1,8,0:0:0:0:
256,192,6550,1,0,0:0:0:0:
256,192,6739,1,8,0:0:0:0:
256,192,6834,1,0,0:0:0:0:
256,192,6929,1,8,0:0:0:0:
256,192,7024,1,0,0:0:0:0:
256,192,7119,1,8,0:0:0:0:
256,192,7309,1,0,0:0:0:0:
256,192,7499,1,8,0:0:0:0:
256,192,7689,1,0,0:0:0:0:
256,192,7784,1,0,0:0:0:0:
256,192,7879,1,8,0:0:0:0:
256,192,8069,1,8,0:0:0:0:
256,192,8258,1,0,0:0:0:0:
256,192,8448,1,8,0:0:0:0:
256,192,8543,1,8,0:0:0:0:
256,192,8638,1,0,0:0:0:0:
256,192,8828,1,8,0:0:0:0:
256,192,9018,1,0,0:0:0:0:
256,192,9113,1,0,0:0:0:0:
256,192,9208,1,8,0:0:0:0:
256,192,9398,1,0,0:0:0:0:
256,192,9777,1,8,0:0:0:0:
256,192,9872,1,0,0:0:0:0:
256,192,9967,1,8,0:0:0:0:
256,192,10062,1,0,0:0:0:0:
256,192,10157,1,8,0:0:0:0:
256,192,10347,1,0,0:0:0:0:
256,192,10537,1,8,0:0:0:0:
256,192,10727,1,0,0:0:0:0:
256,192,10822,1,0,0:0:0:0:
256,192,10917,1,8,0:0:0:0:
256,192,11107,1,8,0:0:0:0:
256,192,11296,1,0,0:0:0:0:
256,192,11486,1,8,0:0:0:0:
256,192,11581,1,0,0:0:0:0:
256,192,11676,1,8,0:0:0:0:
256,192,11866,1,8,0:0:0:0:
256,192,12056,1,0,0:0:0:0:
256,192,12151,1,8,0:0:0:0:
256,192,12246,1,0,0:0:0:0:
256,192,12436,1,8,0:0:0:0:
256,192,12815,1,8,0:0:0:0:
256,192,12910,1,0,0:0:0:0:
256,192,13005,1,8,0:0:0:0:
256,192,13100,1,0,0:0:0:0:
256,192,13195,1,8,0:0:0:0:
256,192,13385,1,0,0:0:0:0:
256,192,13575,1,8,0:0:0:0:
256,192,13765,1,0,0:0:0:0:
256,192,13860,1,0,0:0:0:0:
256,192,13955,1,8,0:0:0:0:
256,192,14145,1,8,0:0:0:0:
256,192,14334,1,0,0:0:0:0:
256,192,14524,1,8,0:0:0:0:
256,192,14619,1,8,0:0:0:0:
256,192,14714,1,0,0:0:0:0:
256,192,14904,1,8,0:0:0:0:
256,192,15094,1,0,0:0:0:0:
256,192,15189,1,0,0:0:0:0:
256,192,15284,1,8,0:0:0:0:
256,192,15379,1,8,0:0:0:0:
256,192,15474,1,0,0:0:0:0:
256,192,15569,1,0,0:0:0:0:
256,192,15664,1,8,0:0:0:0:
256,192,15853,1,4,0:0:0:0:
256,192,16233,1,8,0:0:0:0:
256,192,16613,1,0,0:0:0:0:
256,192,16803,1,8,0:0:0:0:
256,192,16898,1,0,0:0:0:0:
256,192,17088,1,0,0:0:0:0:
256,192,17182,1,8,0:0:0:0:
256,192,17372,1,4,0:0:0:0:
256,192,18132,1,0,0:0:0:0:
256,192,18322,1,8,0:0:0:0:
256,192,18512,1,0,0:0:0:0:
256,192,18607,1,0,0:0:0:0:
256,192,18701,1,8,0:0:0:0:
256,192,18891,1,4,0:0:0:0:
256,192,19081,1,0,0:0:0:0:
256,192,19271,1,8,0:0:0:0:
256,192,19461,1,0,0:0:0:0:
256,192,19651,1,8,0:0:0:0:
256,192,19841,1,8,0:0:0:0:
256,192,20031,1,0,0:0:0:0:
256,192,20220,1,8,0:0:0:0:
256,192,20410,1,0,0:0:0:0:
256,192,20600,1,0,0:0:0:0:
256,192,20790,1,8,0:0:0:0:
256,192,20980,1,0,0:0:0:0:
256,192,21170,1,8,0:0:0:0:
256,192,21360,1,8,0:0:0:0:
256,192,21550,1,0,0:0:0:0:
256,192,21739,1,8,0:0:0:0:
256,192,21929,1,0,0:0:0:0:
256,192,22309,1,8,0:0:0:0:
256,192,22689,1,0,0:0:0:0:
256,192,23069,1,8,0:0:0:0:
256,192,23258,1,8,0:0:0:0:
256,192,23448,1,0,0:0:0:0:
256,192,23828,1,8,0:0:0:0:
256,192,24018,1,0,0:0:0:0:
256,192,24208,1,8,0:0:0:0:
256,192,24303,1,0,0:0:0:0:
256,192,24398,1,0,0:0:0:0:
256,192,24493,1,0,0:0:0:0:
256,192,24588,1,8,0:0:0:0:
256,192,24777,1,8,0:0:0:0:
256,192,24872,1,8,0:0:0:0:
256,192,24967,1,0,0:0:0:0:
256,192,25157,1,0,0:0:0:0:
256,192,25347,1,8,0:0:0:0:
256,192,25537,1,0,0:0:0:0:
256,192,25727,1,8,0:0:0:0:
256,192,25917,1,8,0:0:0:0:
256,192,26107,1,0,0:0:0:0:
256,192,26296,1,8,0:0:0:0:
256,192,26486,1,0,0:0:0:0:
256,192,26676,1,0,0:0:0:0:
256,192,26866,1,8,0:0:0:0:
256,192,27056,1,8,0:0:0:0:
256,192,27246,1,0,0:0:0:0:
256,192,27436,1,8,0:0:0:0:
256,192,27626,1,8,0:0:0:0:
256,192,27815,1,8,0:0:0:0:
256,192,28005,1,0,0:0:0:0:
256,192,28385,1,8,0:0:0:0:
256,192,28765,1,8,0:0:0:0:
256,192,29145,1,0,0:0:0:0:
256,192,29334,1,8,0:0:0:0:
256,192,29524,1,0,0:0:0:0:
256,192,29904,1,8,0:0:0:0:
256,192,30094,1,0,0:0:0:0:
256,192,30284,1,8,0:0:0:0:
256,192,30379,1,8,0:0:0:0:
256,192,30474,1,0,0:0:0:0:
256,192,30569,1,0,0:0:0:0:
256,192,30664,1,8,0:0:0:0:
256,192,30758,1,0,0:0:0:0:
256,192,30853,1,8,0:0:0:0:
256,192,31043,1,4,0:0:0:0:
256,192,31233,1,0,0:0:0:0:
256,192,31423,1,8,0:0:0:0:
256,192,31613,1,8,0:0:0:0:
256,192,31803,1,0,0:0:0:0:
256,192,32182,1,8,0:0:0:0:
256,192,32372,1,0,0:0:0:0:
256,192,32562,1,8,0:0:0:0:
256,192,32752,1,8,0:0:0:0:
256,192,32847,1,8,0:0:0:0:
256,192,32942,1,0,0:0:0:0:
256,192,33132,1,0,0:0:0:0:
256,192,33322,1,8,0:0:0:0:
256,192,33512,1,0,0:0:0:0:
256,192,33607,1,0,0:0:0:0:
256,192,33701,1,8,0:0:0:0:
256,192,33891,1,8,0:0:0:0:
256,192,34081,1,0,0:0:0:0:
256,192,34271,1,0,0:0:0:0:
256,192,34461,1,8,0:0:0:0:
256,192,34651,1,8,0:0:0:0:
256,192,34841,1,0,0:0:0:0:
256,192,35220,1,8,0:0:0:0:
256,192,35410,1,0,0:0:0:0:
256,192,35600,1,8,0:0:0:0:
256,192,35790,1,8,0:0:0:0:
256,192,35885,1,8,0:0:0:0:
256,192,35980,1,0,0:0:0:0:
256,192,36170,1,0,0:0:0:0:
256,192,36360,1,8,0:0:0:0:
256,192,36455,1,8,0:0:0:0:
256,192,36550,1,0,0:0:0:0:
256,192,36645,1,0,0:0:0:0:
256,192,36739,1,8,0:0:0:0:
256,192,36929,1,8,0:0:0:0:
256,192,37024,1,8,0:0:0:0:
256,192,37119,1,0,0:0:0:0:
256,192,37309,1,8,0:0:0:0:
256,192,37499,1,0,0:0:0:0:
256,192,37689,1,8,0:0:0:0:
256,192,37879,1,0,0:0:0:0:
256,192,38069,1,8,0:0:0:0:
256,192,38258,1,0,0:0:0:0:
256,192,38448,1,8,0:0:0:0:
256,192,38638,1,0,0:0:0:0:
256,192,38828,1,0,0:0:0:0:
256,192,38923,1,0,0:0:0:0:
256,192,39018,1,8,0:0:0:0:
256,192,39208,1,8,0:0:0:0:
256,192,39398,1,0,0:0:0:0:
256,192,39588,1,8,0:0:0:0:
256,192,39682,1,8,0:0:0:0:
256,192,39777,1,0,0:0:0:0:
256,192,39967,1,8,0:0:0:0:
256,192,40157,1,0,0:0:0:0:
256,192,40537,1,0,0:0:0:0:
256,192,40917,1,8,0:0:0:0:
256,192,41107,1,0,0:0:0:0:
256,192,41201,1,8,0:0:0:0:
256,192,41391,1,8,0:0:0:0:
256,192,41486,1,0,0:0:0:0:
256,192,41676,1,8,0:0:0:0:
256,192,42056,1,4,0:0:0:0:
256,192,42436,1,8,0:0:0:0:
256,192,42626,1,0,0:0:0:0:
256,192,42720,1,8,0:0:0:0:
256,192,42815,1,8,0:0:0:0:
256,192,42910,1,0,0:0:0:0:
256,192,43005,1,8,0:0:0:0:
256,192,43195,1,4,0:0:0:0:
256,192,43385,1,0,0:0:0:0:
256,192,43575,1,8,0:0:0:0:
256,192,43765,1,8,0:0:0:0:
256,192,43955,1,0,0:0:0:0:
256,192,44145,1,0,0:0:0:0:
256,192,44334,1,8,0:0:0:0:
256,192,44524,1,8,0:0:0:0:
256,192,44714,1,0,0:0:0:0:
256,192,45094,1,8,0:0:0:0:
256,192,45284,1,0,0:0:0:0:
256,192,45664,1,0,0:0:0:0:
256,192,45853,1,8,0:0:0:0:
256,192,46043,1,0,0:0:0:0:
256,192,46423,1,0,0:0:0:0:
256,192,46613,1,8,0:0:0:0:
256,192,46803,1,8,0:0:0:0:
256,192,46993,1,0,0:0:0:0:
256,192,47182,1,0,0:0:0:0:
256,192,47372,1,8,0:0:0:0:
256,192,47562,1,8,0:0:0:0:
256,192,47752,1,0,0:0:0:0:
256,192,48132,1,8,0:0:0:0:
256,192,48322,1,0,0:0:0:0:
256,192,48701,1,0,0:0:0:0:
256,192,48891,1,8,0:0:0:0:
256,192,49081,1,4,0:0:0:0:
256,192,49461,1,0,0:0:0:0:
256,192,49651,1,8,0:0:0:0:
256,192,49841,1,8,0:0:0:0:
256,192,50031,1,0,0:0:0:0:
256,192,50220,1,8,0:0:0:0:
256,192,50410,1,0,0:0:0:0:
256,192,50600,1,8,0:0:0:0:
256,192,50790,1,0,0:0:0:0:
256,192,51170,1,8,0:0:0:0:
256,192,51360,1,0,0:0:0:0:
256,192,51455,1,8,0:0:0:0:
256,192,51550,1,0,0:0:0:0:
256,192,51739,1,0,0:0:0:0:
256,192,51929,1,8,0:0:0:0:
256,192,52024,1,0,0:0:0:0:
256,192,52119,1,8,0:0:0:0:
256,192,52309,1,4,0:0:0:0:
256,192,52689,1,8,0:0:0:0:
256,192,53069,1,0,0:0:0:0:
256,192,53258,1,8,0:0:0:0:
256,192,53353,1,0,0:0:0:0:
256,192,53543,1,0,0:0:0:0:
256,192,53638,1,8,0:0:0:0:
256,192,53828,1,4,0:0:0:0:
256,192,54018,1,8,0:0:0:0:
256,192,54208,1,0,0:0:0:0:
256,192,54398,1,8,0:0:0:0:
256,192,54588,1,0,0:0:0:0:
256,192,54777,1,8,0:0:0:0:
256,192,54872,1,0,0:0:0:0:
256,192,55062,1,0,0:0:0:0:
256,192,55157,1,8,0:0:0:0:
256,192,55347,1,4,0:0:0:0:
256,192,55727,1,8,0:0:0:0:
256,192,56107,1,0,0:0:0:0:
256,192,56296,1,8,0:0:0:0:
256,192,56391,1,0,0:0:0:0:
256,192,56581,1,0,0:0:0:0:
256,192,56676,1,8,0:0:0:0:
256,192,56866,1,4,0:0:0:0:
256,192,57246,1,8,0:0:0:0:
256,192,57626,1,0,0:0:0:0:
256,192,57815,1,8,0:0:0:0:
256,192,57910,1,0,0:0:0:0:
256,192,58005,1,8,0:0:0:0:
256,192,58100,1,0,0:0:0:0:
256,192,58195,1,8,0:0:0:0:
256,192,58385,1,4,0:0:0:0:
256,192,58575,1,8,0:0:0:0:
256,192,58670,1,8,0:0:0:0:
256,192,58765,1,0,0:0:0:0:
256,192,58860,1,0,0:0:0:0:
256,192,58955,1,8,0:0:0:0:
256,192,59145,1,8,0:0:0:0:
256,192,59334,1,4,0:0:0:0:
256,192,59524,1,4,0:0:0:0:
256,192,59714,1,8,0:0:0:0:
256,192,59904,1,4,0:0:0:0:
256,192,60094,1,8,0:0:0:0:
256,192,60189,1,8,0:0:0:0:
256,192,60284,1,0,0:0:0:0:
256,192,60379,1,0,0:0:0:0:
256,192,60474,1,8,0:0:0:0:
256,192,60664,1,8,0:0:0:0:
256,192,60853,1,4,0:0:0:0:
256,192,61043,1,4,0:0:0:0:
256,192,61233,1,8,0:0:0:0:
256,192,61423,1,0,0:0:0:0:
256,192,61613,1,0,0:0:0:0:
256,192,61708,1,0,0:0:0:0:
256,192,61803,1,8,0:0:0:0:
256,192,61993,1,0,0:0:0:0:
256,192,62182,1,8,0:0:0:0:
256,192,62372,1,0,0:0:0:0:
256,192,62467,1,0,0:0:0:0:
256,192,62562,1,8,0:0:0:0:
256,192,62752,1,8,0:0:0:0:
256,192,62942,1,0,0:0:0:0:
256,192,63132,1,0,0:0:0:0:
256,192,63227,1,8,0:0:0:0:
256,192,63322,1,8,0:0:0:0:
256,192,63512,1,4,0:0:0:0:
256,192,63891,1,4,0:0:0:0:
256,192,64081,1,0,0:0:0:0:
256,192,64271,1,12,0:0:0:0:
256,192,64651,1,0,0:0:0:0:
256,192,64841,1,8,0:0:0:0:
256,192,65031,1,0,0:0:0:0:
256,192,65126,1,0,0:0:0:0:
256,192,65220,1,8,0:0:0:0:
256,192,65410,1,0,0:0:0:0:
256,192,65505,1,8,0:0:0:0:
256,192,65790,1,4,0:0:0:0:
256,192,66170,1,0,0:0:0:0:
256,192,66360,1,8,0:0:0:0:
256,192,66550,1,0,0:0:0:0:
256,192,66645,1,0,0:0:0:0:
256,192,66739,1,8,0:0:0:0:
256,192,66929,1,0,0:0:0:0:
256,192,67024,1,8,0:0:0:0:
256,192,67309,1,4,0:0:0:0:
256,192,67689,1,0,0:0:0:0:
256,192,67879,1,8,0:0:0:0:
256,192,68069,1,0,0:0:0:0:
256,192,68258,1,8,0:0:0:0:
256,192,68353,1,8,0:0:0:0:
256,192,68448,1,0,0:0:0:0:
256,192,68543,1,0,0:0:0:0:
256,192,68638,1,8,0:0:0:0:
256,192,68828,1,8,0:0:0:0:
256,192,69018,1,4,0:0:0:0:
256,192,69208,1,4,0:0:0:0:
256,192,69398,1,12,0:0:0:0:
256,192,69588,1,12,0:0:0:0:
256,192,69967,1,0,0:0:0:0:
256,192,70157,1,8,0:0:0:0:
256,192,70252,1,8,0:0:0:0:
256,192,70347,1,8,0:0:0:0:
256,192,70537,1,4,0:0:0:0:
256,192,70727,1,8,0:0:0:0:
256,192,70822,1,0,0:0:0:0:
256,192,70917,1,8,0:0:0:0:
256,192,71012,1,8,0:0:0:0:
256,192,71107,1,0,0:0:0:0:
256,192,71296,1,8,0:0:0:0:
256,192,71486,1,4,0:0:0:0:
256,192,71676,1,4,0:0:0:0:
256,192,71866,1,8,0:0:0:0:
256,192,72056,1,4,0:0:0:0:
256,192,72246,1,8,0:0:0:0:
256,192,72341,1,0,0:0:0:0:
256,192,72436,1,8,0:0:0:0:
256,192,72531,1,8,0:0:0:0:
256,192,72626,1,0,0:0:0:0:
256,192,72815,1,8,0:0:0:0:
256,192,73005,1,4,0:0:0:0:
256,192,73195,1,4,0:0:0:0:
256,192,73385,1,8,0:0:0:0:
256,192,73575,1,0,0:0:0:0:
256,192,73765,1,0,0:0:0:0:
256,192,73860,1,8,0:0:0:0:
256,192,73955,1,0,0:0:0:0:
256,192,74145,1,8,0:0:0:0:
256,192,74334,1,8,0:0:0:0:
256,192,74524,1,0,0:0:0:0:
256,192,74619,1,8,0:0:0:0:
256,192,74714,1,0,0:0:0:0:
256,192,74904,1,8,0:0:0:0:
256,192,75094,1,0,0:0:0:0:
256,192,75284,1,8,0:0:0:0:
256,192,75379,1,0,0:0:0:0:
256,192,75474,1,8,0:0:0:0:
256,192,75664,1,4,0:0:0:0:
256,192,76043,1,4,0:0:0:0:
256,192,76233,1,0,0:0:0:0:
256,192,76423,1,12,0:0:0:0:
256,192,76803,1,0,0:0:0:0:
256,192,76993,1,8,0:0:0:0:
256,192,77182,1,8,0:0:0:0:
256,192,77372,1,0,0:0:0:0:
256,192,77467,1,0,0:0:0:0:
256,192,77562,1,8,0:0:0:0:
256,192,77657,1,8,0:0:0:0:
256,192,77752,1,0,0:0:0:0:
256,192,77942,1,8,0:0:0:0:
256,192,78132,1,0,0:0:0:0:
256,192,78322,1,0,0:0:0:0:
256,192,78512,1,8,0:0:0:0:
256,192,78701,1,0,0:0:0:0:
256,192,78891,1,8,0:0:0:0:
256,192,78986,1,8,0:0:0:0:
256,192,79081,1,0,0:0:0:0:
256,192,79176,1,0,0:0:0:0:
256,192,79271,1,8,0:0:0:0:
256,192,79366,1,0,0:0:0:0:
256,192,79461,1,8,0:0:0:0:
256,192,79651,1,0,0:0:0:0:
256,192,79841,1,8,0:0:0:0:
256,192,79936,1,0,0:0:0:0:
256,192,80031,1,0,0:0:0:0:
256,192,80126,1,0,0:0:0:0:
256,192,80220,1,8,0:0:0:0:
256,192,80410,1,0,0:0:0:0:
256,192,80600,1,8,0:0:0:0:
256,192,80695,1,8,0:0:0:0:
256,192,80790,1,0,0:0:0:0:
256,192,80885,1,0,0:0:0:0:
256,192,80980,1,8,0:0:0:0:
256,192,81170,1,0,0:0:0:0:
256,192,81360,1,8,0:0:0:0:
256,192,81455,1,8,0:0:0:0:
256,192,81550,1,0,0:0:0:0:
256,192,81739,1,8,0:0:0:0:
256,192,81929,1,0,0:0:0:0:
256,192,82024,1,0,0:0:0:0:
256,192,82119,1,8,0:0:0:0:
256,192,82309,1,8,0:0:0:0:
256,192,82404,1,0,0:0:0:0:
256,192,82499,1,8,0:0:0:0:
256,192,82689,1,4,0:0:0:0:
256,192,83069,1,8,0:0:0:0:
256,192,83448,1,0,0:0:0:0:
256,192,83638,1,8,0:0:0:0:
256,192,83733,1,0,0:0:0:0:
256,192,83923,1,0,0:0:0:0:
256,192,84018,1,8,0:0:0:0:
256,192,84208,1,0,0:0:0:0:
256,192,84398,1,8,0:0:0:0:
256,192,84588,1,0,0:0:0:0:
256,192,84777,1,8,0:0:0:0:
256,192,84967,1,0,0:0:0:0:
256,192,85157,1,8,0:0:0:0:
256,192,85252,1,0,0:0:0:0:
256,192,85442,1,0,0:0:0:0:
256,192,85537,1,8,0:0:0:0:
256,192,85727,1,4,0:0:0:0:
256,192,86107,1,8,0:0:0:0:
256,192,86486,1,0,0:0:0:0:
256,192,86676,1,8,0:0:0:0:
256,192,86771,1,0,0:0:0:0:
256,192,86961,1,0,0:0:0:0:
256,192,87056,1,8,0:0:0:0:
256,192,87246,1,0,0:0:0:0:
256,192,87436,1,0,0:0:0:0:
256,192,87531,1,0,0:0:0:0:
256,192,87626,1,8,0:0:0:0:
256,192,87815,1,0,0:0:0:0:
256,192,87910,1,0,0:0:0:0:
256,192,88005,1,8,0:0:0:0:
256,192,88100,1,8,0:0:0:0:
256,192,88195,1,0,0:0:0:0:
256,192,88290,1,0,0:0:0:0:
256,192,88385,1,8,0:0:0:0:
256,192,88575,1,4,0:0:0:0:
