osu file format v14

[General]
AudioFilename: audio.mp3
AudioLeadIn: 0
PreviewTime: 54335
Countdown: 1
SampleSet: Soft
StackLeniency: 0.7
Mode: 0
LetterboxInBreaks: 0
WidescreenStoryboard: 1

[Editor]
DistanceSpacing: 1.5
BeatDivisor: 4
GridSize: 8
TimelineZoom: 1.4

[Metadata]
Title:Ashita de Ii kara
TitleUnicode:明日でいいから
Artist:Happy Clover
ArtistUnicode:Happy Clover
Creator:dika312
Version:Hard
Source:あんハピ♪
Tags:anne happy unhappy go lucky tv size
BeatmapID:980345
BeatmapSetID:457453

[Difficulty]
HPDrainRate:4
CircleSize:3.5
OverallDifficulty:6.5
ApproachRate:7.5
SliderMultiplier:1.35
SliderTickRate:1

[Events]
//Background and Video events
0,0,"Ashita de li karaz.jpg",0,0
//Break Periods
//Storyboard Layer 0 (Background)
//Storyboard Layer 1 (Fail)
//Storyboard Layer 2 (Pass)
//Storyboard Layer 3 (Foreground)
//Storyboard Sound Samples

[TimingPoints]
738,461.538461538462,4,2,1,50,1,0
1431,461.538461538462,4,2,1,50,1,0
8123,-100,4,2,1,55,0,0
8354,-100,4,2,1,60,0,0
8584,-100,4,2,1,65,0,0
8815,-100,4,2,1,70,0,0
21738,-100,4,2,1,77,0,0
22084,-100,4,2,1,85,0,0
22431,-100,4,2,1,92,0,0
22892,-100,4,2,1,70,0,0
24507,-100,4,2,2,70,0,0
38123,-100,4,2,1,70,0,0
43892,-100,4,2,1,70,0,0
44354,-90.9090909090909,4,2,1,77,0,0
44815,-83.3333333333333,4,2,1,85,0,0
45277,-66.6666666666667,4,2,1,93,0,0
45738,-83.3333333333333,4,2,1,90,0,0
46431,-83.3333333333333,4,2,2,60,0,0
46892,-83.3333333333333,4,2,2,70,0,0
47354,-83.3333333333333,4,2,2,80,0,0
48046,-83.3333333333333,4,2,2,60,0,0
49200,-83.3333333333333,4,2,2,85,0,0
49892,-83.3333333333333,4,2,2,60,0,0
50354,-83.3333333333333,4,2,2,70,0,0
50815,-83.3333333333333,4,2,2,80,0,0
51277,-83.3333333333333,4,2,2,90,0,0
51738,-83.3333333333333,4,2,2,95,0,0
52661,-83.3333333333333,4,2,2,70,0,0
52777,-83.3333333333333,4,2,2,75,0,0
52892,-83.3333333333333,4,2,2,80,0,0
53007,-83.3333333333333,4,2,2,60,0,0
53123,-83.3333333333333,4,2,2,40,0,0
54335,500,4,2,1,80,1,0
54335,-200,4,2,1,95,0,0
54460,-200,4,2,1,20,0,0
55085,500,4,2,1,80,1,0
55085,-76.9230769230769,4,2,1,90,0,1
55210,-76.9230769230769,4,2,1,80,0,1
70585,-76.9230769230769,4,2,1,75,0,1
70710,-76.9230769230769,4,2,1,80,0,1
70835,-76.9230769230769,4,2,1,85,0,1
70960,-76.9230769230769,4,2,1,90,0,0
71085,-76.9230769230769,4,2,1,95,0,1
71210,-76.9230769230769,4,2,1,80,0,1
85085,-76.9230769230769,4,2,1,80,0,0
85585,-76.9230769230769,4,2,1,80,0,1
85710,-100,4,2,1,80,0,0

[Colours]
Combo1 : 251,206,243
Combo2 : 242,235,91
Combo3 : 50,0,198
Combo4 : 255,255,255
Combo5 : 187,23,0

[HitObjects]
168,128,738,5,0,0:0:0:0:
248,72,968,1,0,0:0:0:0:
320,144,1199,1,0,0:0:0:0:
232,96,1430,2,0,P|144:80|104:96,1,135,0|0,0:0|0:0,0:0:0:0:
184,280,2354,5,0,0:0:0:0:
296,176,2700,1,0,0:0:0:0:
112,224,3046,2,0,P|48:152|136:16,1,270,0|0,0:0|0:0,0:0:0:0:
248,176,4431,5,0,0:0:0:0:
336,120,4661,1,0,0:0:0:0:
240,144,4892,1,0,0:0:0:0:
256,48,5123,1,0,0:0:0:0:
288,248,5584,6,0,P|232:208|152:224,1,135,0|0,0:0|0:0,0:0:0:0:
304,152,6392,2,0,P|232:128|184:128,1,101.25,0|0,0:0|0:0,0:0:0:0:
232,224,6969,5,0,0:0:0:0:
320,272,7200,1,0,0:0:0:0:
376,184,7431,1,0,0:0:0:0:
464,224,7661,1,0,0:0:0:0:
272,200,8123,5,0,0:0:0:0:
320,112,8354,1,0,0:0:0:0:
424,112,8584,1,0,0:0:0:0:
344,248,8815,2,0,P|296:280|216:264,1,135,8|2,0:0|0:0,0:0:0:0:
128,88,9738,6,0,P|168:80|216:80,1,67.5,0|8,0:0|0:0,0:0:0:0:
296,80,10200,2,0,L|352:80,2,33.75,10|0|0,0:0|0:0|0:0,0:0:0:0:
240,200,10892,5,8,0:0:0:0:
336,320,11123,1,2,0:0:0:0:
328,216,11354,2,0,P|304:152|224:120,1,135,0|8,0:0|0:0,0:0:0:0:
232,224,12046,5,2,0:0:0:0:
152,160,12277,1,0,0:0:0:0:
200,72,12507,2,0,P|248:48|288:56,1,67.5,8|0,0:0|0:0,0:0:0:0:
360,56,12969,2,0,P|392:64|424:104,1,67.5,2|0,0:0|0:0,0:0:0:0:
232,160,13661,5,8,0:0:0:0:
288,72,13892,1,2,0:0:0:0:
344,152,14123,2,0,P|376:208|400:280,1,135,8|0,0:0|0:0,0:0:0:0:
304,240,14815,1,2,0:0:0:0:
400,160,15046,1,8,0:0:0:0:
312,64,15277,6,0,B|272:32|272:32|208:40,1,101.25,0|0,0:0|0:0,0:0:0:0:
192,48,15738,2,0,P|168:80|176:136,1,67.5,10|0,0:0|0:0,0:0:0:0:
336,112,16200,1,4,0:0:0:0:
152,272,16661,5,2,0:0:0:0:
208,112,17123,2,0,P|248:56|320:40,2,135,0|10|8,0:0|0:0|0:0,0:0:0:0:
360,248,18507,6,0,P|320:152|280:112,2,135,2|0|10,0:0|0:0|0:0,0:0:0:0:
160,256,19892,1,8,0:0:0:0:
80,72,20354,1,2,0:0:0:0:
152,152,20584,6,0,L|208:208,1,67.5,0|0,0:0|0:0,0:0:0:0:
280,264,21046,1,8,0:0:0:0:
288,160,21277,1,10,0:0:0:0:
368,224,21507,1,8,0:0:0:0:
264,288,21738,5,8,0:0:0:0:
368,144,22084,1,8,0:0:0:0:
184,152,22431,1,8,0:0:0:0:
288,328,22892,6,0,P|248:336|200:320,2,67.5,0|0|0,0:0|0:0|0:0,0:0:0:0:
376,272,23584,2,0,P|424:232|432:152,1,135,4|0,0:0|0:0,0:0:0:0:
240,200,24507,6,0,L|328:200,1,67.5,0|0,0:0|0:0,0:0:0:0:
272,168,24854,2,0,L|152:168,1,101.25,8|0,0:0|0:0,0:0:0:0:
272,48,25431,1,0,0:0:0:0:
408,112,25777,1,8,0:0:0:0:
312,232,26123,2,0,P|264:280|192:312,1,135,8|0,0:0|0:0,0:0:0:0:
216,208,26815,5,8,0:0:0:0:
288,136,27046,1,0,0:0:0:0:
136,184,27277,1,0,0:0:0:0:
296,64,27738,6,0,P|376:72|416:96,1,101.25,8|0,0:0|0:0,0:0:0:0:
344,104,28200,2,0,P|288:96|248:104,1,67.5,8|0,0:0|0:0,0:0:0:0:
304,136,28546,2,0,P|360:144|400:176,1,101.25,8|0,0:0|0:0,0:0:0:0:
320,232,29123,5,0,0:0:0:0:
240,168,29354,1,0,0:0:0:0:
240,272,29584,1,0,0:0:0:0:
160,216,29815,1,0,0:0:0:0:
232,120,30046,6,0,P|256:104|280:96,2,33.75,0|0|0,0:0|0:0|0:0,0:0:0:0:
160,184,30507,2,0,P|136:208|120:232,2,33.75,8|0|0,0:0|0:0|0:0,0:0:0:0:
256,208,30969,6,0,L|400:248,1,135,0|8,0:0|0:0,0:0:0:0:
184,280,31892,2,0,L|96:304,1,67.5,0|0,0:0|0:0,0:0:0:0:
152,256,32238,2,0,L|264:224,1,101.25,8|0,0:0|0:0,0:0:0:0:
144,160,32815,2,0,L|272:128,1,101.25,0|8,0:0|0:0,0:0:0:0:
272,128,33277,1,0,0:0:0:0:
224,232,33507,6,0,P|216:280|256:352,1,135,0|0,0:0|0:0,0:0:0:0:
312,272,34200,2,0,L|360:296,2,33.75,8|0|0,0:0|0:0|0:0,0:0:0:0:
224,232,34661,2,0,P|160:208|112:224,1,101.25,0|0,0:0|0:0,0:0:0:0:
160,256,35123,2,0,P|200:216|200:160,1,101.25,8|8,0:0|0:0,0:0:0:0:
192,144,35584,1,8,0:0:0:0:
248,56,35815,5,0,0:0:0:0:
352,72,36046,1,8,0:0:0:0:
280,200,36277,1,4,0:0:0:0:
448,272,36738,5,0,0:0:0:0:
368,160,36969,1,8,0:0:0:0:
448,48,37200,1,8,0:0:0:0:
232,112,38123,6,0,L|256:120,4,16.875,0|0|0|0|12,0:0|0:0|0:0|0:0|0:0,0:0:0:0:
216,104,38354,2,0,P|160:96|96:144,2,135,12|8|8,0:0|0:0|0:0,0:0:0:0:
376,224,39738,1,8,0:0:0:0:
176,248,40200,6,0,P|88:216|72:168,2,135,8|8|8,0:0|0:0|0:0,0:0:0:0:
272,232,41354,2,0,P|320:224|368:232,2,67.5,0|8|0,0:0|0:0|0:0,0:0:0:0:
176,248,42046,6,0,B|128:264|128:264|40:232,1,135,8|8,0:0|0:0,0:0:0:0:
128,176,42738,1,0,0:0:0:0:
232,192,42969,2,0,L|312:208,1,67.5,8|0,0:0|0:0,0:0:0:0:
248,112,43431,1,8,0:0:0:0:
328,48,43661,1,0,0:0:0:0:
400,160,43892,6,0,L|376:288,1,101.25,0|0,0:0|0:0,0:0:0:0:
344,272,44354,2,0,L|368:152,1,111.375003398895,0|0,0:0|0:0,0:0:0:0:
344,128,44815,2,0,L|312:256,1,121.499996292114,0|0,0:0|0:0,0:0:0:0:
272,272,45277,2,0,L|312:120,1,151.875005793572,0|0,0:0|0:0,0:0:0:0:
320,88,45738,5,12,0:0:0:0:
200,192,45969,1,8,0:0:0:0:
136,40,46200,1,8,0:0:0:0:
312,144,46431,5,0,0:0:0:0:
216,216,46661,1,8,0:0:0:0:
328,64,46892,5,0,0:0:0:0:
208,32,47123,1,8,0:0:0:0:
360,120,47354,5,0,0:0:0:0:
200,144,47584,2,0,P|144:160|88:248,1,161.999995056153,8|8,0:0|0:0,0:0:0:0:
216,224,48277,2,0,L|320:208,3,80.9999975280763,0|8|0|8,0:0|0:0|0:0|0:0,0:0:0:0:
416,192,49200,5,0,0:0:0:0:
336,80,49431,1,4,0:0:0:0:
224,216,49661,1,0,0:0:0:0:
368,136,49892,2,0,P|424:120|472:144,1,80.9999975280763,8|0,0:0|0:0,0:0:0:0:
368,272,50354,5,8,0:0:0:0:
320,144,50584,1,0,0:0:0:0:
208,296,50815,5,8,0:0:0:0:
216,160,51046,1,0,0:0:0:0:
96,248,51277,5,8,0:0:0:0:
72,112,51507,1,0,0:0:0:0:
216,208,51738,5,8,0:0:0:0:
360,80,51969,2,0,P|392:128|400:240,1,161.999995056153,4|0,0:0|0:0,0:0:0:0:
320,168,52661,1,0,0:0:0:0:
304,136,52777,1,0,0:0:0:0:
288,112,52892,1,0,0:0:0:0:
264,96,53007,1,0,0:0:0:0:
232,88,53123,1,0,0:0:0:0:
176,256,54335,6,0,L|256:256,1,67.5,6|0,0:0|0:0,0:0:0:0:
296,152,55085,2,0,P|208:120|128:160,1,175.499991966248,4|2,0:0|0:0,0:0:0:0:
312,64,55960,6,0,L|360:88,1,43.874997991562,0|8,0:0|0:0,0:0:0:0:
472,144,56335,1,0,0:0:0:0:
360,216,56585,1,2,0:0:0:0:
416,96,56835,5,0,0:0:0:0:
432,256,57085,2,0,P|400:312|280:352,1,175.499991966248,0|2,0:0|0:0,0:0:0:0:
328,264,57835,1,0,0:0:0:0:
288,240,57960,2,0,P|208:216|136:240,1,131.624993974686,8|0,0:0|0:0,0:0:0:0:
72,320,58585,5,2,0:0:0:0:
200,344,58835,1,0,0:0:0:0:
112,200,59085,2,0,P|104:96|160:32,1,175.499991966248,4|2,0:0|0:0,0:0:0:0:
184,128,59835,1,0,0:0:0:0:
272,32,60085,2,0,P|344:16|432:64,1,175.499991966248,0|2,0:0|0:0,0:0:0:0:
344,104,60835,5,0,0:0:0:0:
224,160,61085,1,8,0:0:0:0:
280,296,61335,5,0,0:0:0:0:
160,248,61585,1,2,0:0:0:0:
264,168,61835,5,0,0:0:0:0:
288,192,61960,2,0,P|344:224|440:248,1,131.624993974686,0|8,0:0|0:0,0:0:0:0:
368,120,62585,1,2,0:0:0:0:
464,64,62835,1,8,0:0:0:0:
320,48,63085,2,0,P|224:48|144:80,1,175.499991966248,4|2,0:0|0:0,0:0:0:0:
240,136,63835,5,8,0:0:0:0:
152,248,64085,2,0,P|136:312|216:368,1,175.499991966248,8|2,0:0|0:0,0:0:0:0:
280,256,64835,1,8,0:0:0:0:
392,336,65085,5,8,0:0:0:0:
384,152,65335,1,8,0:0:0:0:
448,216,65585,1,10,0:0:0:0:
192,176,65835,1,4,0:0:0:0:
320,72,66210,5,0,0:0:0:0:
320,72,66335,2,0,P|336:120|328:168,1,87.749995983124,8|2,0:0|0:0,0:0:0:0:
208,120,66835,1,8,0:0:0:0:
208,120,66960,1,0,0:0:0:0:
208,120,67085,1,8,0:0:0:0:
232,240,67335,5,0,0:0:0:0:
72,160,67585,2,0,P|64:96|96:64,1,87.749995983124,2|0,0:0|0:0,0:0:0:0:
200,32,68085,5,0,0:0:0:0:
256,152,68335,1,8,0:0:0:0:
360,72,68585,1,2,0:0:0:0:
384,160,68835,1,0,0:0:0:0:
232,96,69085,5,8,0:0:0:0:
216,264,69335,1,0,0:0:0:0:
400,192,69585,1,2,0:0:0:0:
256,96,69835,2,0,B|160:64|160:64|64:104,1,175.499991966248,0|0,0:0|0:0,0:0:0:0:
176,192,70585,5,0,0:0:0:0:
192,208,70710,1,0,0:0:0:0:
216,216,70835,1,0,0:0:0:0:
240,216,70960,1,0,0:0:0:0:
264,208,71085,2,0,P|328:168|360:128,1,87.749995983124,4|0,0:0|0:0,0:0:0:0:
216,96,71585,6,0,P|152:64|64:88,1,131.624993974686,2|0,0:0|0:0,0:0:0:0:
72,80,72085,1,8,0:0:0:0:
120,200,72335,1,0,0:0:0:0:
248,184,72585,1,2,0:0:0:0:
168,104,72835,5,0,0:0:0:0:
208,264,73085,2,0,P|248:320|352:368,1,175.499991966248,0|2,0:0|0:0,0:0:0:0:
320,240,73835,6,0,L|272:184,2,43.874997991562,0|8|0,0:0|0:0|0:0,0:0:0:0:
416,336,74335,1,8,0:0:0:0:
464,216,74585,1,2,0:0:0:0:
424,88,74835,1,0,0:0:0:0:
424,88,74960,1,0,0:0:0:0:
424,88,75085,2,0,B|336:48|224:72,1,175.499991966248,8|2,0:0|0:0,0:0:0:0:
312,216,75835,5,0,0:0:0:0:
312,216,76085,1,8,0:0:0:0:
120,112,76335,1,8,0:0:0:0:
168,304,76585,1,6,0:0:0:0:
48,208,76835,6,0,P|120:200|168:216,1,87.749995983124,0|8,0:0|0:0,0:0:0:0:
248,264,77335,1,0,0:0:0:0:
312,152,77585,1,2,0:0:0:0:
240,48,77835,5,0,0:0:0:0:
264,40,77960,2,0,P|336:32|400:88,1,131.624993974686,8|8,0:0|0:0,0:0:0:0:
456,176,78585,1,2,0:0:0:0:
368,272,78835,1,0,0:0:0:0:
472,352,79085,6,0,P|456:288|384:200,1,175.499991966248,8|2,0:0|0:0,0:0:0:0:
264,184,79835,1,8,0:0:0:0:
152,248,80085,1,8,0:0:0:0:
272,320,80335,5,8,0:0:0:0:
176,160,80585,1,2,0:0:0:0:
280,80,80835,1,8,0:0:0:0:
304,72,80960,2,0,P|360:56|448:88,1,131.624993974686,0|8,0:0|0:0,0:0:0:0:
352,184,81585,5,2,0:0:0:0:
232,128,81835,1,0,0:0:0:0:
192,256,82085,2,0,P|192:312|240:368,1,131.624993974686,8|0,0:0|0:0,0:0:0:0:
240,312,82585,2,0,P|184:312|128:344,1,87.749995983124,2|8,0:0|0:0,0:0:0:0:
136,328,82960,1,8,0:0:0:0:
112,336,83085,2,0,B|48:352|48:352|14:282|64:224,1,175.499991966248,8|2,0:0|0:0,0:0:0:0:
120,136,83835,6,0,P|160:104|224:88,2,87.749995983124,8|8|8,0:0|0:0|0:0,0:0:0:0:
232,208,84585,1,2,0:0:0:0:
336,112,84835,5,8,0:0:0:0:
368,280,85085,1,2,0:0:0:0:
368,280,85335,1,8,0:0:0:0:
128,176,85585,1,4,0:0:0:0:
256,80,86085,6,0,L|256:160,1,67.5,2|0,0:0|0:0,0:0:0:0:
232,136,86460,2,0,L|232:216,1,67.5,2|0,0:0|0:0,0:0:0:0:
256,224,86835,1,0,0:0:0:0:
256,192,87085,12,0,88335,0:0:0:0:
