osu file format v14

[General]
AudioFilename: audio.mp3
AudioLeadIn: 0
PreviewTime: 22303
Countdown: 0
SampleSet: Soft
StackLeniency: 0.7
Mode: 0
LetterboxInBreaks: 0
WidescreenStoryboard: 1
EpilepsyWarning: 1

[Editor]
DistanceSpacing: 1.1
BeatDivisor: 6
GridSize: 8
TimelineZoom: 1

[Metadata]
Title:Happy Birthday
TitleUnicode:Happy Birthday
Artist:Happy Birthday
ArtistUnicode:Happy Birthday
Creator:Stompy_
Version:Yahuri's Normal
Source:
Tags:bday birth day kids music hbd piano english pop female vocals enuhq yahuri respirte tachibana_ wiwit
BeatmapID:3626663
BeatmapSetID:1771583

[Difficulty]
HPDrainRate:3
CircleSize:4
OverallDifficulty:4
ApproachRate:5
SliderMultiplier:1.3
SliderTickRate:1

[Events]
//Background and Video events
0,0,"bgbirthday.jpg",0,0
//Break Periods
//Storyboard Layer 0 (Background)
//Storyboard Layer 1 (Fail)
//Storyboard Layer 2 (Pass)
//Storyboard Layer 3 (Foreground)
Sprite,Foreground,Centre,"sb\hl.png",0,0 M,0,860,,194,179 C,0,860,,164,164,255 F,0,860,1014,0,1 S,0,860,1478,0.25,0.5 P,0,0,0,860 F,0,1014,1478,0.8,0 M,0,1890,,379,227 C,0,1890,,164,164,255 F,0,1890,2044,0,1 S,0,1890,2508,0.25,0.5 P,0,0,0,1890 F,0,2044,2508,0.8,0 M,0,2715,,508,198 C,0,2715,,164,164,255 F,0,2715,2869,0,1 S,0,2715,3333,0.25,0.5 P,0,0,0,2715 F,0,2869,3333,0.8,0 M,0,3746,,576,406 C,0,3746,,164,164,255 F,0,3746,3900,0,1 S,0,3746,4364,0.25,0.5 P,0,0,0,3746 F,0,3900,4364,0.8,0 M,0,4571,,444,398 C,0,4571,,79,158,255 F,0,4571,4725,0,1 S,0,4571,5189,0.25,0.5 P,0,0,0,4571 F,0,4725,5189,0.8,0 M,0,5808,,181,347 C,0,5808,,79,158,255 F,0,5808,5962,0,1 S,0,5808,6426,0.25,0.5 P,0,0,0,5808 F,0,5962,6426,0.8,0 M,0,6427,,196,301 C,0,6427,,79,158,255 F,0,6427,6581,0,1 S,0,6427,7045,0.25,0.5 P,0,0,0,6427 F,0,6581,7045,0.8,0 M,0,7045,,71,290 C,0,7045,,79,158,255 F,0,7045,7200,0,1 S,0,7045,7664,0.3,0.6 P,0,0,0,7045 F,0,7200,7664,1,0 M,0,8076,,274,246 C,0,8076,,247,108,130 F,0,8076,8230,0,1 S,0,8076,8694,0.25,0.5 P,0,0,0,8076 F,0,8230,8694,0.8,0 M,0,8745,,364.0649,241.8422 C,0,8745,,247,108,130 F,0,8745,8900,0,1 S,0,8745,9364,0.3,0.6 P,0,0,0,8745 F,0,8900,9364,1,0 M,0,9519,,425,357 C,0,9519,,247,108,130 F,0,9519,9673,0,1 S,0,9519,10137,0.25,0.5 P,0,0,0,9519 F,0,9673,10137,0.8,0 M,0,10138,,498,233 C,0,10138,,247,108,130 F,0,10138,10292,0,1 S,0,10138,10756,0.25,0.5 P,0,0,0,10138 F,0,10292,10756,0.8,0 M,0,10807,,481.7699,103.8294 C,0,10807,,247,108,130 F,0,10807,10962,0,1 S,0,10807,11426,0.3,0.6 P,0,0,0,10807 F,0,10962,11426,1,0 M,0,11787,,393,162 C,0,11787,,255,219,108 F,0,11787,11941,0,1 S,0,11787,12405,0.25,0.5 P,0,0,0,11787 F,0,11941,12405,0.8,0 M,0,12406,,311.8901,180.2754 C,0,12406,,255,219,108 F,0,12406,12561,0,1 S,0,12406,13024,0.3,0.6 P,0,0,0,12406 F,0,12561,13024,1,0 M,0,13231,,193,127 C,0,13231,,255,219,108 F,0,13231,13385,0,1 S,0,13231,13849,0.25,0.5 P,0,0,0,13231 F,0,13385,13849,0.8,0 M,0,13900,,69.12502,162.6646 C,0,13900,,255,219,108 F,0,13900,14055,0,1 S,0,13900,14519,0.3,0.6 P,0,0,0,13900 F,0,14055,14519,1,0 M,0,15086,,170,375 C,0,15086,,164,164,255 F,0,15086,15240,0,1 S,0,15086,15704,0.25,0.5 P,0,0,0,15086 F,0,15240,15704,0.8,0 M,0,15705,,195,252 C,0,15705,,164,164,255 F,0,15705,15859,0,1 S,0,15705,16323,0.25,0.5 P,0,0,0,15705 F,0,15859,16323,0.8,0 M,0,16942,,228,57 C,0,16942,,164,164,255 F,0,16942,17096,0,1 S,0,16942,17560,0.25,0.5 P,0,0,0,16942 F,0,17096,17560,0.8,0 M,0,17561,,323,86 C,0,17561,,164,164,255 F,0,17561,17715,0,1 S,0,17561,18179,0.25,0.5 P,0,0,0,17561 F,0,17715,18179,0.8,0 M,0,18798,,566,148 C,0,18798,,79,158,255 F,0,18798,18952,0,1 S,0,18798,19416,0.25,0.5 P,0,0,0,18798 F,0,18952,19416,0.8,0 M,0,19467,,453.258,205.829 C,0,19467,,79,158,255 F,0,19467,19622,0,1 S,0,19467,20086,0.3,0.6 P,0,0,0,19467 F,0,19622,20086,1,0 M,0,20653,,354,427 C,0,20653,,79,158,255 F,0,20653,20807,0,1 S,0,20653,21271,0.25,0.5 P,0,0,0,20653 F,0,20807,21271,0.8,0 M,0,21272,,272,386 C,0,21272,,79,158,255 F,0,21272,21426,0,1 S,0,21272,21890,0.25,0.5 P,0,0,0,21272 F,0,21426,21890,0.8,0 M,0,22509,,77,282 C,0,22509,,247,108,130 F,0,22509,22663,0,1 S,0,22509,23127,0.25,0.5 P,0,0,0,22509 F,0,22663,23127,0.8,0 M,0,23128,,78,151 C,0,23128,,247,108,130 F,0,23128,23282,0,1 S,0,23128,23746,0.25,0.5 P,0,0,0,23128 F,0,23282,23746,0.8,0 M,0,24158,,292,126 C,0,24158,,247,108,130 F,0,24158,24312,0,1 S,0,24158,24776,0.25,0.5 P,0,0,0,24158 F,0,24312,24776,0.8,0 M,0,24983,,325,254 C,0,24983,,247,108,130 F,0,24983,25137,0,1 S,0,24983,25601,0.25,0.5 P,0,0,0,24983 F,0,25137,25601,0.8,0 M,0,25602,,449,296 C,0,25602,,247,108,130 F,0,25602,25756,0,1 S,0,25602,26220,0.25,0.5 P,0,0,0,25602 F,0,25756,26220,0.8,0 M,0,26271,,533.7831,169.2461 C,0,26271,,255,219,108 F,0,26271,26426,0,1 S,0,26271,26890,0.3,0.6 P,0,0,0,26271 F,0,26426,26890,1,0 M,0,26890,,437.8819,96.86896 C,0,26890,,255,219,108 F,0,26890,27045,0,1 S,0,26890,27509,0.3,0.6 P,0,0,0,26890 F,0,27045,27509,1,0 M,0,27870,,243,102 C,0,27870,,255,219,108 F,0,27870,28024,0,1 S,0,27870,28488,0.25,0.5 P,0,0,0,27870 F,0,28024,28488,0.8,0 M,0,28695,,193,221 C,0,28695,,255,219,108 F,0,28695,28849,0,1 S,0,28695,29313,0.25,0.5 P,0,0,0,28695 F,0,28849,29313,0.8,0 M,0,29725,,147,75 C,0,29725,,164,164,255 F,0,29725,29879,0,1 S,0,29725,30343,0.25,0.5 P,0,0,0,29725 F,0,29879,30343,0.8,0 M,0,30550,,273,112 C,0,30550,,164,164,255 F,0,30550,30704,0,1 S,0,30550,31168,0.25,0.5 P,0,0,0,30550 F,0,30704,31168,0.8,0 M,0,31787,,244,252 C,0,31787,,164,164,255 F,0,31787,31941,0,1 S,0,31787,32405,0.25,0.5 P,0,0,0,31787 F,0,31941,32405,0.8,0 M,0,32406,,210,343 C,0,32406,,164,164,255 F,0,32406,32560,0,1 S,0,32406,33024,0.25,0.5 P,0,0,0,32406 F,0,32560,33024,0.8,0 M,0,33437,,414,416 C,0,33437,,79,158,255 F,0,33437,33591,0,1 S,0,33437,34055,0.25,0.5 P,0,0,0,33437 F,0,33591,34055,0.8,0 M,0,34262,,464,298 C,0,34262,,79,158,255 F,0,34262,34416,0,1 S,0,34262,34880,0.25,0.5 P,0,0,0,34262 F,0,34416,34880,0.8,0 M,0,35292,,548,97 C,0,35292,,79,158,255 F,0,35292,35446,0,1 S,0,35292,35910,0.25,0.5 P,0,0,0,35292 F,0,35446,35910,0.8,0 M,0,35911,,464,62 C,0,35911,,79,158,255 F,0,35911,36065,0,1 S,0,35911,36529,0.25,0.5 P,0,0,0,35911 F,0,36065,36529,0.8,0 M,0,36580,,375.3807,81.63466 C,0,36580,,79,158,255 F,0,36580,36735,0,1 S,0,36580,37199,0.3,0.6 P,0,0,0,36580 F,0,36735,37199,1,0 M,0,37354,,230,171 C,0,37354,,247,108,130 F,0,37354,37508,0,1 S,0,37354,37972,0.25,0.5 P,0,0,0,37354 F,0,37508,37972,0.8,0 M,0,37973,,347,220 C,0,37973,,247,108,130 F,0,37973,38127,0,1 S,0,37973,38591,0.25,0.5 P,0,0,0,37973 F,0,38127,38591,0.8,0 M,0,39004,,230,415 C,0,39004,,247,108,130 F,0,39004,39158,0,1 S,0,39004,39622,0.25,0.5 P,0,0,0,39004 F,0,39158,39622,0.8,0 M,0,39829,,110,395 C,0,39829,,247,108,130 F,0,39829,39983,0,1 S,0,39829,40447,0.25,0.5 P,0,0,0,39829 F,0,39983,40447,0.8,0 M,0,41066,,97,164 C,0,41066,,255,219,108 F,0,41066,41220,0,1 S,0,41066,41684,0.25,0.5 P,0,0,0,41066 F,0,41220,41684,0.8,0 M,0,41735,,190.7111,78.62289 C,0,41735,,255,219,108 F,0,41735,41890,0,1 S,0,41735,42354,0.3,0.6 P,0,0,0,41735 F,0,41890,42354,1,0 M,0,42921,,423,153 C,0,42921,,255,219,108 F,0,42921,43075,0,1 S,0,42921,43539,0.25,0.5 P,0,0,0,42921 F,0,43075,43539,0.8,0 M,0,43540,,307,203 C,0,43540,,255,219,108 F,0,43540,43694,0,1 S,0,43540,44158,0.25,0.5 P,0,0,0,43540 F,0,43694,44158,0.8,0 M,0,44571,,105,278 C,0,44571,,255,219,108 F,0,44571,44725,0,1 S,0,44571,45189,0.25,0.5 P,0,0,0,44571 F,0,44725,45189,0.8,0 M,0,45396,,102,407 C,0,45396,,255,219,108 F,0,45396,45550,0,1 S,0,45396,46014,0.25,0.5 P,0,0,0,45396 F,0,45550,46014,0.8,0
Sprite,Foreground,Centre,"sb\hl.png",0,0 M,0,860,,194,179 C,0,860,,164,164,255 F,0,860,1014,0,1 S,0,860,1478,0.3,0.6 P,0,0,0,860 F,0,1014,1478,1,0 M,0,2097,,379,227 C,0,2097,,164,164,255 F,0,2097,2251,0,1 S,0,2097,2715,0.25,0.5 P,0,0,0,2097 F,0,2251,2715,0.8,0 M,0,2766,,504.8878,208.3675 C,0,2766,,164,164,255 F,0,2766,2921,0,1 S,0,2766,3385,0.3,0.6 P,0,0,0,2766 F,0,2921,3385,1,0 M,0,3952,,576,406 C,0,3952,,164,164,255 F,0,3952,4106,0,1 S,0,3952,4570,0.25,0.5 P,0,0,0,3952 F,0,4106,4570,0.8,0 M,0,4571,,444,398 C,0,4571,,79,158,255 F,0,4571,4725,0,1 S,0,4571,5189,0.3,0.6 P,0,0,0,4571 F,0,4725,5189,1,0 M,0,5808,,181,347 C,0,5808,,79,158,255 F,0,5808,5962,0,1 S,0,5808,6426,0.3,0.6 P,0,0,0,5808 F,0,5962,6426,1,0 M,0,6427,,196,301 C,0,6427,,79,158,255 F,0,6427,6581,0,1 S,0,6427,7045,0.3,0.6 P,0,0,0,6427 F,0,6581,7045,1,0 M,0,7097,,80.96391,287.0706 C,0,7097,,79,158,255 F,0,7097,7251,0,1 S,0,7097,7715,0.3,0.6 P,0,0,0,7097 F,0,7251,7715,1,0 M,0,8282,,274,246 C,0,8282,,247,108,130 F,0,8282,8436,0,1 S,0,8282,8900,0.25,0.5 P,0,0,0,8282 F,0,8436,8900,0.8,0 M,0,9313,,425,357 C,0,9313,,247,108,130 F,0,9313,9467,0,1 S,0,9313,9931,0.25,0.5 P,0,0,0,9313 F,0,9467,9931,0.8,0 M,0,10138,,498,233 C,0,10138,,247,108,130 F,0,10138,10292,0,1 S,0,10138,10756,0.3,0.6 P,0,0,0,10138 F,0,10292,10756,1,0 M,0,10859,,492.5398,102.6587 C,0,10859,,247,108,130 F,0,10859,11013,0,1 S,0,10859,11477,0.3,0.6 P,0,0,0,10859 F,0,11013,11477,1,0 M,0,11994,,393,162 C,0,11994,,255,219,108 F,0,11994,12148,0,1 S,0,11994,12612,0.25,0.5 P,0,0,0,11994 F,0,12148,12612,0.8,0 M,0,13024,,193,127 C,0,13024,,255,219,108 F,0,13024,13178,0,1 S,0,13024,13642,0.25,0.5 P,0,0,0,13024 F,0,13178,13642,0.8,0 M,0,13849,,74,153 C,0,13849,,255,219,108 F,0,13849,14003,0,1 S,0,13849,14467,0.25,0.5 P,0,0,0,13849 F,0,14003,14467,0.8,0 M,0,15086,,170,375 C,0,15086,,164,164,255 F,0,15086,15240,0,1 S,0,15086,15704,0.3,0.6 P,0,0,0,15086 F,0,15240,15704,1,0 M,0,15705,,195,252 C,0,15705,,164,164,255 F,0,15705,15859,0,1 S,0,15705,16323,0.3,0.6 P,0,0,0,15705 F,0,15859,16323,1,0 M,0,17354,,323,86 C,0,17354,,164,164,255 F,0,17354,17508,0,1 S,0,17354,17972,0.25,0.5 P,0,0,0,17354 F,0,17508,17972,0.8,0 M,0,17973,,408.3005,70.67256 C,0,17973,,164,164,255 F,0,17973,18128,0,1 S,0,17973,18591,0.3,0.6 P,0,0,0,17973 F,0,18128,18591,1,0 M,0,18798,,566,148 C,0,18798,,79,158,255 F,0,18798,18952,0,1 S,0,18798,19416,0.3,0.6 P,0,0,0,18798 F,0,18952,19416,1,0 M,0,19519,,457.9756,215.5665 C,0,19519,,79,158,255 F,0,19519,19673,0,1 S,0,19519,20137,0.3,0.6 P,0,0,0,19519 F,0,19673,20137,1,0 M,0,21066,,272,386 C,0,21066,,79,158,255 F,0,21066,21220,0,1 S,0,21066,21684,0.25,0.5 P,0,0,0,21066 F,0,21220,21684,0.8,0 M,0,21735,,176.41,391.6226 C,0,21735,,79,158,255 F,0,21735,21890,0,1 S,0,21735,22354,0.3,0.6 P,0,0,0,21735 F,0,21890,22354,1,0 M,0,22509,,77,282 C,0,22509,,247,108,130 F,0,22509,22663,0,1 S,0,22509,23127,0.3,0.6 P,0,0,0,22509 F,0,22663,23127,1,0 M,0,23128,,78,151 C,0,23128,,247,108,130 F,0,23128,23282,0,1 S,0,23128,23746,0.3,0.6 P,0,0,0,23128 F,0,23282,23746,1,0 M,0,24365,,292,126 C,0,24365,,247,108,130 F,0,24365,24519,0,1 S,0,24365,24983,0.25,0.5 P,0,0,0,24365 F,0,24519,24983,0.8,0 M,0,25034,,335.8165,253.5463 C,0,25034,,247,108,130 F,0,25034,25189,0,1 S,0,25034,25653,0.3,0.6 P,0,0,0,25034 F,0,25189,25653,1,0 M,0,26220,,533,180 C,0,26220,,255,219,108 F,0,26220,26374,0,1 S,0,26220,26838,0.25,0.5 P,0,0,0,26220 F,0,26374,26838,0.8,0 M,0,26839,,448,93 C,0,26839,,255,219,108 F,0,26839,26993,0,1 S,0,26839,27457,0.25,0.5 P,0,0,0,26839 F,0,26993,27457,0.8,0 M,0,28076,,243,102 C,0,28076,,255,219,108 F,0,28076,28230,0,1 S,0,28076,28694,0.25,0.5 P,0,0,0,28076 F,0,28230,28694,0.8,0 M,0,28695,,193,221 C,0,28695,,255,219,108 F,0,28695,28849,0,1 S,0,28695,29313,0.3,0.6 P,0,0,0,28695 F,0,28849,29313,1,0 M,0,29932,,147,75 C,0,29932,,164,164,255 F,0,29932,30086,0,1 S,0,29932,30550,0.25,0.5 P,0,0,0,29932 F,0,30086,30550,0.8,0 M,0,30601,,283.5865,109.8958 C,0,30601,,164,164,255 F,0,30601,30756,0,1 S,0,30601,31220,0.3,0.6 P,0,0,0,30601 F,0,30756,31220,1,0 M,0,32199,,210,343 C,0,32199,,164,164,255 F,0,32199,32353,0,1 S,0,32199,32817,0.25,0.5 P,0,0,0,32199 F,0,32353,32817,0.8,0 M,0,32818,,294.3318,341.1222 C,0,32818,,164,164,255 F,0,32818,32973,0,1 S,0,32818,33436,0.3,0.6 P,0,0,0,32818 F,0,32973,33436,1,0 M,0,33643,,414,416 C,0,33643,,79,158,255 F,0,33643,33797,0,1 S,0,33643,34261,0.25,0.5 P,0,0,0,33643 F,0,33797,34261,0.8,0 M,0,34262,,464,298 C,0,34262,,79,158,255 F,0,34262,34416,0,1 S,0,34262,34880,0.3,0.6 P,0,0,0,34262 F,0,34416,34880,1,0 M,0,35498,,548,97 C,0,35498,,79,158,255 F,0,35498,35652,0,1 S,0,35498,36116,0.25,0.5 P,0,0,0,35498 F,0,35652,36116,0.8,0 M,0,36117,,464,62 C,0,36117,,79,158,255 F,0,36117,36271,0,1 S,0,36117,36735,0.25,0.5 P,0,0,0,36117 F,0,36271,36735,0.8,0 M,0,37354,,230,171 C,0,37354,,247,108,130 F,0,37354,37508,0,1 S,0,37354,37972,0.3,0.6 P,0,0,0,37354 F,0,37508,37972,1,0 M,0,37973,,347,220 C,0,37973,,247,108,130 F,0,37973,38127,0,1 S,0,37973,38591,0.3,0.6 P,0,0,0,37973 F,0,38127,38591,1,0 M,0,39210,,230,415 C,0,39210,,247,108,130 F,0,39210,39364,0,1 S,0,39210,39828,0.25,0.5 P,0,0,0,39210 F,0,39364,39828,0.8,0 M,0,39829,,110,395 C,0,39829,,247,108,130 F,0,39829,39983,0,1 S,0,39829,40447,0.3,0.6 P,0,0,0,39829 F,0,39983,40447,1,0 M,0,41066,,97,164 C,0,41066,,255,219,108 F,0,41066,41220,0,1 S,0,41066,41684,0.3,0.6 P,0,0,0,41066 F,0,41220,41684,1,0 M,0,41787,,201.4222,80.24578 C,0,41787,,255,219,108 F,0,41787,41941,0,1 S,0,41787,42405,0.3,0.6 P,0,0,0,41787 F,0,41941,42405,1,0 M,0,42921,,423,153 C,0,42921,,255,219,108 F,0,42921,43075,0,1 S,0,42921,43539,0.3,0.6 P,0,0,0,42921 F,0,43075,43539,1,0 M,0,43540,,307,203 C,0,43540,,255,219,108 F,0,43540,43694,0,1 S,0,43540,44158,0.3,0.6 P,0,0,0,43540 F,0,43694,44158,1,0 M,0,44777,,105,278 C,0,44777,,255,219,108 F,0,44777,44931,0,1 S,0,44777,45395,0.25,0.5 P,0,0,0,44777 F,0,44931,45395,0.8,0
Sprite,Foreground,Centre,"sb\hl.png",0,0 M,0,911,,200.0353,170.0496 C,0,911,,164,164,255 F,0,911,1066,0,1 S,0,911,1530,0.3,0.6 P,0,0,0,911 F,0,1066,1530,1,0 M,0,2097,,379,227 C,0,2097,,164,164,255 F,0,2097,2251,0,1 S,0,2097,2715,0.3,0.6 P,0,0,0,2097 F,0,2251,2715,1,0 M,0,2818,,502.4756,218.9159 C,0,2818,,164,164,255 F,0,2818,2972,0,1 S,0,2818,3436,0.3,0.6 P,0,0,0,2818 F,0,2972,3436,1,0 M,0,3952,,576,406 C,0,3952,,164,164,255 F,0,3952,4106,0,1 S,0,3952,4570,0.3,0.6 P,0,0,0,3952 F,0,4106,4570,1,0 M,0,4622,,433.1967,398.8062 C,0,4622,,79,158,255 F,0,4622,4777,0,1 S,0,4622,5241,0.3,0.6 P,0,0,0,4622 F,0,4777,5241,1,0 M,0,5859,,177.9685,357.3641 C,0,5859,,79,158,255 F,0,5859,6014,0,1 S,0,5859,6478,0.3,0.6 P,0,0,0,5859 F,0,6014,6478,1,0 M,0,6478,,185.3952,303.1928 C,0,6478,,79,158,255 F,0,6478,6633,0,1 S,0,6478,7097,0.3,0.6 P,0,0,0,6478 F,0,6633,7097,1,0 M,0,7148,,91.58644,284.9724 C,0,7148,,79,158,255 F,0,7148,7303,0,1 S,0,7148,7767,0.3,0.6 P,0,0,0,7148 F,0,7303,7767,1,0 M,0,8282,,274,246 C,0,8282,,247,108,130 F,0,8282,8436,0,1 S,0,8282,8900,0.3,0.6 P,0,0,0,8282 F,0,8436,8900,1,0 M,0,10189,,500.7863,222.5507 C,0,10189,,247,108,130 F,0,10189,10344,0,1 S,0,10189,10808,0.3,0.6 P,0,0,0,10189 F,0,10344,10808,1,0 M,0,10910,,503.3097,101.4881 C,0,10910,,247,108,130 F,0,10910,11065,0,1 S,0,10910,11529,0.3,0.6 P,0,0,0,10910 F,0,11065,11529,1,0 M,0,11994,,393,162 C,0,11994,,255,219,108 F,0,11994,12148,0,1 S,0,11994,12612,0.3,0.6 P,0,0,0,11994 F,0,12148,12612,1,0 M,0,13231,,193,127 C,0,13231,,255,219,108 F,0,13231,13385,0,1 S,0,13231,13849,0.3,0.6 P,0,0,0,13231 F,0,13385,13849,1,0 M,0,13952,,64.90758,172.6296 C,0,13952,,255,219,108 F,0,13952,14106,0,1 S,0,13952,14570,0.3,0.6 P,0,0,0,13952 F,0,14106,14570,1,0 M,0,15137,,165.6926,365.0598 C,0,15137,,164,164,255 F,0,15137,15292,0,1 S,0,15137,15756,0.3,0.6 P,0,0,0,15137 F,0,15292,15756,1,0 M,0,15756,,205.6009,254.0369 C,0,15756,,164,164,255 F,0,15756,15911,0,1 S,0,15756,16375,0.3,0.6 P,0,0,0,15756 F,0,15911,16375,1,0 M,0,17561,,323,86 C,0,17561,,164,164,255 F,0,17561,17715,0,1 S,0,17561,18179,0.3,0.6 P,0,0,0,17561 F,0,17715,18179,1,0 M,0,18849,,555.3107,149.7606 C,0,18849,,79,158,255 F,0,18849,19004,0,1 S,0,18849,19468,0.3,0.6 P,0,0,0,18849 F,0,19004,19468,1,0 M,0,19570,,460.9839,225.9604 C,0,19570,,79,158,255 F,0,19570,19725,0,1 S,0,19570,20189,0.3,0.6 P,0,0,0,19570 F,0,19725,20189,1,0 M,0,21272,,272,386 C,0,21272,,79,158,255 F,0,21272,21426,0,1 S,0,21272,21890,0.3,0.6 P,0,0,0,21272 F,0,21426,21890,1,0 M,0,22560,,81.09803,271.979 C,0,22560,,247,108,130 F,0,22560,22715,0,1 S,0,22560,23179,0.3,0.6 P,0,0,0,22560 F,0,22715,23179,1,0 M,0,23179,,88.8266,151.1187 C,0,23179,,247,108,130 F,0,23179,23334,0,1 S,0,23179,23798,0.3,0.6 P,0,0,0,23179 F,0,23334,23798,1,0 M,0,24365,,292,126 C,0,24365,,247,108,130 F,0,24365,24519,0,1 S,0,24365,24983,0.3,0.6 P,0,0,0,24365 F,0,24519,24983,1,0 M,0,25086,,346.6366,253.7714 C,0,25086,,247,108,130 F,0,25086,25240,0,1 S,0,25086,25704,0.3,0.6 P,0,0,0,25086 F,0,25240,25704,1,0 M,0,26220,,533,180 C,0,26220,,255,219,108 F,0,26220,26374,0,1 S,0,26220,26838,0.3,0.6 P,0,0,0,26220 F,0,26374,26838,1,0 M,0,26839,,448,93 C,0,26839,,255,219,108 F,0,26839,26993,0,1 S,0,26839,27457,0.3,0.6 P,0,0,0,26839 F,0,26993,27457,1,0 M,0,28076,,243,102 C,0,28076,,255,219,108 F,0,28076,28230,0,1 S,0,28076,28694,0.3,0.6 P,0,0,0,28076 F,0,28230,28694,1,0 M,0,28746,,182.3991,223.0369 C,0,28746,,255,219,108 F,0,28746,28901,0,1 S,0,28746,29365,0.3,0.6 P,0,0,0,28746 F,0,28901,29365,1,0 M,0,29932,,147,75 C,0,29932,,164,164,255 F,0,29932,30086,0,1 S,0,29932,30550,0.3,0.6 P,0,0,0,29932 F,0,30086,30550,1,0 M,0,30653,,294.347,109.3113 C,0,30653,,164,164,255 F,0,30653,30807,0,1 S,0,30653,31271,0.3,0.6 P,0,0,0,30653 F,0,30807,31271,1,0 M,0,32406,,210,343 C,0,32406,,164,164,255 F,0,32406,32560,0,1 S,0,32406,33024,0.3,0.6 P,0,0,0,32406 F,0,32560,33024,1,0 M,0,33643,,414,416 C,0,33643,,79,158,255 F,0,33643,33797,0,1 S,0,33643,34261,0.3,0.6 P,0,0,0,33643 F,0,33797,34261,1,0 M,0,34313,,465.9159,287.3374 C,0,34313,,79,158,255 F,0,34313,34468,0,1 S,0,34313,34932,0.3,0.6 P,0,0,0,34313 F,0,34468,34932,1,0 M,0,36117,,464,62 C,0,36117,,79,158,255 F,0,36117,36271,0,1 S,0,36117,36735,0.3,0.6 P,0,0,0,36117 F,0,36271,36735,1,0 M,0,37405,,240.7958,170.2108 C,0,37405,,247,108,130 F,0,37405,37560,0,1 S,0,37405,38024,0.3,0.6 P,0,0,0,37405 F,0,37560,38024,1,0 M,0,38024,,338.3521,226.5123 C,0,38024,,247,108,130 F,0,38024,38179,0,1 S,0,38024,38643,0.3,0.6 P,0,0,0,38024 F,0,38179,38643,1,0 M,0,39210,,230,415 C,0,39210,,247,108,130 F,0,39210,39364,0,1 S,0,39210,39828,0.3,0.6 P,0,0,0,39210 F,0,39364,39828,1,0 M,0,39880,,118.354,388.1121 C,0,39880,,247,108,130 F,0,39880,40035,0,1 S,0,39880,40499,0.3,0.6 P,0,0,0,39880 F,0,40035,40499,1,0 M,0,41117,,96.21684,153.2461 C,0,41117,,255,219,108 F,0,41117,41272,0,1 S,0,41117,41736,0.3,0.6 P,0,0,0,41117 F,0,41272,41736,1,0 M,0,41838,,212.1333,81.86868 C,0,41838,,255,219,108 F,0,41838,41993,0,1 S,0,41838,42457,0.3,0.6 P,0,0,0,41838 F,0,41993,42457,1,0 M,0,42972,,412.2042,152.2108 C,0,42972,,255,219,108 F,0,42972,43127,0,1 S,0,42972,43591,0.3,0.6 P,0,0,0,42972 F,0,43127,43591,1,0 M,0,43591,,297.6374,208.4339 C,0,43591,,255,219,108 F,0,43591,43746,0,1 S,0,43591,44210,0.3,0.6 P,0,0,0,43591 F,0,43746,44210,1,0 M,0,44777,,105,278 C,0,44777,,255,219,108 F,0,44777,44931,0,1 S,0,44777,45395,0.3,0.6 P,0,0,0,44777 F,0,44931,45395,1,0
Sprite,Foreground,Centre,"sb\hl.png",0,0 M,0,963,,207.2433,162.0358 C,0,963,,164,164,255 F,0,963,1117,0,1 S,0,963,1581,0.3,0.6 P,0,0,0,963 F,0,1117,1581,1,0 M,0,2148,,389.7745,225.8724 C,0,2148,,164,164,255 F,0,2148,2303,0,1 S,0,2148,2767,0.3,0.6 P,0,0,0,2148 F,0,2303,2767,1,0 M,0,2869,,500.5679,229.5738 C,0,2869,,164,164,255 F,0,2869,3024,0,1 S,0,2869,3488,0.3,0.6 P,0,0,0,2869 F,0,3024,3488,1,0 M,0,4003,,565.2122,406.992 C,0,4003,,164,164,255 F,0,4003,4158,0,1 S,0,4003,4622,0.3,0.6 P,0,0,0,4003 F,0,4158,4622,1,0 M,0,4674,,422.3934,399.6124 C,0,4674,,79,158,255 F,0,4674,4828,0,1 S,0,4674,5292,0.3,0.6 P,0,0,0,4674 F,0,4828,5292,1,0 M,0,5911,,176.375,368.0275 C,0,5911,,79,158,255 F,0,5911,6065,0,1 S,0,5911,6529,0.3,0.6 P,0,0,0,5911 F,0,6065,6529,1,0 M,0,6530,,174.6199,304.2325 C,0,6530,,79,158,255 F,0,6530,6684,0,1 S,0,6530,7148,0.3,0.6 P,0,0,0,6530 F,0,6684,7148,1,0 M,0,7200,,102.3833,284.2256 C,0,7200,,79,158,255 F,0,7200,7354,0,1 S,0,7200,7818,0.3,0.6 P,0,0,0,7200 F,0,7354,7818,1,0 M,0,8333,,282.7442,239.6714 C,0,8333,,247,108,130 F,0,8333,8488,0,1 S,0,8333,8952,0.3,0.6 P,0,0,0,8333 F,0,8488,8952,1,0 M,0,10241,,502.5007,211.8824 C,0,10241,,247,108,130 F,0,10241,10395,0,1 S,0,10241,10859,0.3,0.6 P,0,0,0,10241 F,0,10395,10859,1,0 M,0,10962,,514.0796,100.3174 C,0,10962,,247,108,130 F,0,10962,11116,0,1 S,0,10962,11580,0.3,0.6 P,0,0,0,10962 F,0,11116,11580,1,0 M,0,12045,,384.8145,169.0814 C,0,12045,,255,219,108 F,0,12045,12200,0,1 S,0,12045,12664,0.3,0.6 P,0,0,0,12045 F,0,12200,12664,1,0 M,0,13282,,182.2255,125.8724 C,0,13282,,255,219,108 F,0,13282,13437,0,1 S,0,13282,13901,0.3,0.6 P,0,0,0,13282 F,0,13437,13901,1,0 M,0,14003,,61.16788,182.7906 C,0,14003,,255,219,108 F,0,14003,14158,0,1 S,0,14003,14622,0.3,0.6 P,0,0,0,14003 F,0,14158,14622,1,0 M,0,15189,,161.3852,355.1196 C,0,15189,,164,164,255 F,0,15189,15343,0,1 S,0,15189,15807,0.3,0.6 P,0,0,0,15189 F,0,15343,15807,1,0 M,0,15808,,216.3654,254.5728 C,0,15808,,164,164,255 F,0,15808,15962,0,1 S,0,15808,16426,0.3,0.6 P,0,0,0,15808 F,0,15962,16426,1,0 M,0,17612,,333.6626,84.08407 C,0,17612,,164,164,255 F,0,17612,17767,0,1 S,0,17612,18231,0.3,0.6 P,0,0,0,17612 F,0,17767,18231,1,0 M,0,18901,,544.6213,151.5212 C,0,18901,,79,158,255 F,0,18901,19055,0,1 S,0,18901,19519,0.3,0.6 P,0,0,0,18901 F,0,19055,19519,1,0 M,0,19622,,462.2967,236.7034 C,0,19622,,79,158,255 F,0,19622,19776,0,1 S,0,19622,20240,0.3,0.6 P,0,0,0,19622 F,0,19776,20240,1,0 M,0,21323,,261.4328,383.654 C,0,21323,,79,158,255 F,0,21323,21478,0,1 S,0,21323,21942,0.3,0.6 P,0,0,0,21323 F,0,21478,21942,1,0 M,0,22612,,84.58044,261.7313 C,0,22612,,247,108,130 F,0,22612,22766,0,1 S,0,22612,23230,0.3,0.6 P,0,0,0,22612 F,0,22766,23230,1,0 M,0,23231,,99.63937,150.6193 C,0,23231,,247,108,130 F,0,23231,23385,0,1 S,0,23231,23849,0.3,0.6 P,0,0,0,23231 F,0,23385,23849,1,0 M,0,24416,,296.1693,135.991 C,0,24416,,247,108,130 F,0,24416,24571,0,1 S,0,24416,25035,0.3,0.6 P,0,0,0,24416 F,0,24571,25035,1,0 M,0,25137,,357.419,254.6739 C,0,25137,,247,108,130 F,0,25137,25292,0,1 S,0,25137,25756,0.3,0.6 P,0,0,0,25137 F,0,25292,25756,1,0 M,0,26323,,532.7684,158.5368 C,0,26323,,255,219,108 F,0,26323,26477,0,1 S,0,26323,26941,0.3,0.6 P,0,0,0,26323 F,0,26477,26941,1,0 M,0,26942,,427.6073,100.3001 C,0,26942,,255,219,108 F,0,26942,27096,0,1 S,0,26942,27560,0.3,0.6 P,0,0,0,26942 F,0,27096,27560,1,0 M,0,28127,,240.996,112.6464 C,0,28127,,255,219,108 F,0,28127,28282,0,1 S,0,28127,28746,0.3,0.6 P,0,0,0,28127 F,0,28282,28746,1,0 M,0,28798,,171.6346,223.5728 C,0,28798,,255,219,108 F,0,28798,28952,0,1 S,0,28798,29416,0.3,0.6 P,0,0,0,28798 F,0,28952,29416,1,0 M,0,29983,,157.021,79.09803 C,0,29983,,164,164,255 F,0,29983,30138,0,1 S,0,29983,30602,0.3,0.6 P,0,0,0,29983 F,0,30138,30602,1,0 M,0,30704,,305.1379,109.8354 C,0,30704,,164,164,255 F,0,30704,30859,0,1 S,0,30704,31323,0.3,0.6 P,0,0,0,30704 F,0,30859,31323,1,0 M,0,32457,,220.098,346.9112 C,0,32457,,164,164,255 F,0,32457,32612,0,1 S,0,32457,33076,0.3,0.6 P,0,0,0,32457 F,0,32612,33076,1,0 M,0,33694,,416.004,405.3536 C,0,33694,,79,158,255 F,0,33694,33849,0,1 S,0,33694,34313,0.3,0.6 P,0,0,0,33694 F,0,33849,34313,1,0 M,0,34365,,467.8318,276.6749 C,0,34365,,79,158,255 F,0,34365,34519,0,1 S,0,34365,34983,0.3,0.6 P,0,0,0,34365 F,0,34519,34983,1,0 M,0,36168,,453.3947,64.19677 C,0,36168,,79,158,255 F,0,36168,36323,0,1 S,0,36168,36787,0.3,0.6 P,0,0,0,36168 F,0,36323,36787,1,0 M,0,37457,,251.6161,170.1601 C,0,37457,,247,108,130 F,0,37457,37611,0,1 S,0,37457,38075,0.3,0.6 P,0,0,0,37457 F,0,37611,38075,1,0 M,0,38076,,330.1419,233.5626 C,0,38076,,247,108,130 F,0,38076,38230,0,1 S,0,38076,38694,0.3,0.6 P,0,0,0,38076 F,0,38230,38694,1,0 M,0,39261,,219.8594,418.7954 C,0,39261,,247,108,130 F,0,39261,39416,0,1 S,0,39261,39880,0.3,0.6 P,0,0,0,39261 F,0,39416,39880,1,0 M,0,39932,,126.3054,380.7673 C,0,39932,,247,108,130 F,0,39932,40086,0,1 S,0,39932,40550,0.3,0.6 P,0,0,0,39932 F,0,40086,40550,1,0 M,0,41169,,97.23155,142.5368 C,0,41169,,255,219,108 F,0,41169,41323,0,1 S,0,41169,41787,0.3,0.6 P,0,0,0,41169 F,0,41323,41787,1,0 M,0,41890,,222.8443,83.49156 C,0,41890,,255,219,108 F,0,41890,42044,0,1 S,0,41890,42508,0.3,0.6 P,0,0,0,41890 F,0,42044,42508,1,0 M,0,43024,,401.3839,152.1601 C,0,43024,,255,219,108 F,0,43024,43178,0,1 S,0,43024,43642,0.3,0.6 P,0,0,0,43024 F,0,43178,43642,1,0 M,0,43643,,287.9481,213.2531 C,0,43643,,255,219,108 F,0,43643,43797,0,1 S,0,43643,44261,0.3,0.6 P,0,0,0,43643 F,0,43797,44261,1,0 M,0,44828,,107.004,288.6464 C,0,44828,,255,219,108 F,0,44828,44983,0,1 S,0,44828,45447,0.3,0.6 P,0,0,0,44828 F,0,44983,45447,1,0
Sprite,Foreground,Centre,"sb\hl.png",0,0 M,0,1014,,215.2338,154.7596 C,0,1014,,164,164,255 F,0,1014,1169,0,1 S,0,1014,1633,0.3,0.6 P,0,0,0,1014 F,0,1169,1633,1,0 M,0,2200,,400.549,224.7449 C,0,2200,,164,164,255 F,0,2200,2354,0,1 S,0,2200,2818,0.3,0.6 P,0,0,0,2200 F,0,2354,2818,1,0 M,0,2921,,499.7278,240.3654 C,0,2921,,164,164,255 F,0,2921,3075,0,1 S,0,2921,3539,0.3,0.6 P,0,0,0,2921 F,0,3075,3539,1,0 M,0,4055,,554.4243,407.984 C,0,4055,,164,164,255 F,0,4055,4209,0,1 S,0,4055,4673,0.3,0.6 P,0,0,0,4055 F,0,4209,4673,1,0 M,0,4725,,411.5901,400.4186 C,0,4725,,79,158,255 F,0,4725,4880,0,1 S,0,4725,5344,0.3,0.6 P,0,0,0,4725 F,0,4880,5344,1,0 M,0,5962,,176.2453,378.7978 C,0,5962,,79,158,255 F,0,5962,6117,0,1 S,0,5962,6581,0.3,0.6 P,0,0,0,5962 F,0,6117,6581,1,0 M,0,6581,,163.8115,303.7216 C,0,6581,,79,158,255 F,0,6581,6736,0,1 S,0,6581,7200,0.3,0.6 P,0,0,0,6581 F,0,6736,7200,1,0 M,0,7251,,113.1506,285.2672 C,0,7251,,79,158,255 F,0,7251,7406,0,1 S,0,7251,7870,0.3,0.6 P,0,0,0,7251 F,0,7406,7870,1,0 M,0,8385,,292.2776,234.6462 C,0,8385,,247,108,130 F,0,8385,8539,0,1 S,0,8385,9003,0.3,0.6 P,0,0,0,8385 F,0,8539,9003,1,0 M,0,10292,,503.1275,201.1017 C,0,10292,,247,108,130 F,0,10292,10447,0,1 S,0,10292,10911,0.3,0.6 P,0,0,0,10292 F,0,10447,10911,1,0 M,0,11013,,503.3097,101.4881 C,0,11013,,247,108,130 F,0,11013,11168,0,1 S,0,11013,11632,0.3,0.6 P,0,0,0,11013 F,0,11168,11632,1,0 M,0,12097,,375.6335,174.8094 C,0,12097,,255,219,108 F,0,12097,12251,0,1 S,0,12097,12715,0.3,0.6 P,0,0,0,12097 F,0,12251,12715,1,0 M,0,13334,,171.451,124.7449 C,0,13334,,255,219,108 F,0,13334,13488,0,1 S,0,13334,13952,0.3,0.6 P,0,0,0,13334 F,0,13488,13952,1,0 M,0,14055,,58.45594,193.2696 C,0,14055,,255,219,108 F,0,14055,14209,0,1 S,0,14055,14673,0.3,0.6 P,0,0,0,14055 F,0,14209,14673,1,0 M,0,15240,,157.0778,345.1794 C,0,15240,,164,164,255 F,0,15240,15395,0,1 S,0,15240,15859,0.3,0.6 P,0,0,0,15240 F,0,15395,15859,1,0 M,0,15859,,227.0906,253.6005 C,0,15859,,164,164,255 F,0,15859,16014,0,1 S,0,15859,16478,0.3,0.6 P,0,0,0,15859 F,0,16014,16478,1,0 M,0,17664,,344.3251,82.16814 C,0,17664,,164,164,255 F,0,17664,17818,0,1 S,0,17664,18282,0.3,0.6 P,0,0,0,17664 F,0,17818,18282,1,0 M,0,18952,,533.9321,153.2818 C,0,18952,,79,158,255 F,0,18952,19107,0,1 S,0,18952,19571,0.3,0.6 P,0,0,0,18952 F,0,19107,19571,1,0 M,0,19673,,462.0837,247.5269 C,0,19673,,79,158,255 F,0,19673,19828,0,1 S,0,19673,20292,0.3,0.6 P,0,0,0,19673 F,0,19828,20292,1,0 M,0,21375,,250.7358,382.0236 C,0,21375,,79,158,255 F,0,21375,21529,0,1 S,0,21375,21993,0.3,0.6 P,0,0,0,21375 F,0,21529,21993,1,0 M,0,22663,,87.43504,251.2935 C,0,22663,,247,108,130 F,0,22663,22818,0,1 S,0,22663,23282,0.3,0.6 P,0,0,0,22663 F,0,22818,23282,1,0 M,0,23282,,110.4041,149.5035 C,0,23282,,247,108,130 F,0,23282,23437,0,1 S,0,23282,23901,0.3,0.6 P,0,0,0,23282 F,0,23437,23901,1,0 M,0,24468,,299.7031,146.2202 C,0,24468,,247,108,130 F,0,24468,24622,0,1 S,0,24468,25086,0.3,0.6 P,0,0,0,24468 F,0,24622,25086,1,0 M,0,25189,,368.1602,256.0383 C,0,25189,,247,108,130 F,0,25189,25343,0,1 S,0,25189,25807,0.3,0.6 P,0,0,0,25189 F,0,25343,25807,1,0 M,0,26374,,529.9894,148.1627 C,0,26374,,255,219,108 F,0,26374,26529,0,1 S,0,26374,26993,0.3,0.6 P,0,0,0,26374 F,0,26529,26993,1,0 M,0,26993,,417.187,103.2594 C,0,26993,,255,219,108 F,0,26993,27148,0,1 S,0,26993,27612,0.3,0.6 P,0,0,0,26993 F,0,27148,27612,1,0 M,0,28179,,238.992,123.2927 C,0,28179,,255,219,108 F,0,28179,28333,0,1 S,0,28179,28797,0.3,0.6 P,0,0,0,28179 F,0,28333,28797,1,0 M,0,28849,,160.9094,222.6005 C,0,28849,,255,219,108 F,0,28849,29004,0,1 S,0,28849,29468,0.3,0.6 P,0,0,0,28849 F,0,29004,29468,1,0 M,0,30035,,167.2688,82.58044 C,0,30035,,164,164,255 F,0,30035,30189,0,1 S,0,30035,30653,0.3,0.6 P,0,0,0,30035 F,0,30189,30653,1,0 M,0,30756,,315.5708,112.5941 C,0,30756,,164,164,255 F,0,30756,30910,0,1 S,0,30756,31374,0.3,0.6 P,0,0,0,30756 F,0,30910,31374,1,0 M,0,32509,,230.5585,349.6981 C,0,32509,,164,164,255 F,0,32509,32663,0,1 S,0,32509,33127,0.3,0.6 P,0,0,0,32509 F,0,32663,33127,1,0 M,0,33746,,418.0081,394.7073 C,0,33746,,79,158,255 F,0,33746,33900,0,1 S,0,33746,34364,0.3,0.6 P,0,0,0,33746 F,0,33900,34364,1,0 M,0,34416,,469.7478,266.0123 C,0,34416,,79,158,255 F,0,34416,34571,0,1 S,0,34416,35035,0.3,0.6 P,0,0,0,34416 F,0,34571,35035,1,0 M,0,36220,,443.018,67.29505 C,0,36220,,79,158,255 F,0,36220,36374,0,1 S,0,36220,36838,0.3,0.6 P,0,0,0,36220 F,0,36374,36838,1,0 M,0,37508,,262.4119,170.8478 C,0,37508,,247,108,130 F,0,37508,37663,0,1 S,0,37508,38127,0.3,0.6 P,0,0,0,37508 F,0,37663,38127,1,0 M,0,38127,,322.4019,241.1226 C,0,38127,,247,108,130 F,0,38127,38282,0,1 S,0,38127,38746,0.3,0.6 P,0,0,0,38127 F,0,38282,38746,1,0 M,0,39313,,209.5264,422.0215 C,0,39313,,247,108,130 F,0,39313,39467,0,1 S,0,39313,39931,0.3,0.6 P,0,0,0,39313 F,0,39467,39931,1,0 M,0,39983,,133.8301,372.9884 C,0,39983,,247,108,130 F,0,39983,40138,0,1 S,0,39983,40602,0.3,0.6 P,0,0,0,39983 F,0,40138,40602,1,0 M,0,41220,,100.0106,132.1627 C,0,41220,,255,219,108 F,0,41220,41375,0,1 S,0,41220,41839,0.3,0.6 P,0,0,0,41220 F,0,41375,41839,1,0 M,0,41941,,233.5554,85.11446 C,0,41941,,255,219,108 F,0,41941,42096,0,1 S,0,41941,42560,0.3,0.6 P,0,0,0,41941 F,0,42096,42560,1,0 M,0,43075,,390.5881,152.8478 C,0,43075,,255,219,108 F,0,43075,43230,0,1 S,0,43075,43694,0.3,0.6 P,0,0,0,43075 F,0,43230,43694,1,0 M,0,43694,,277.9707,217.4387 C,0,43694,,255,219,108 F,0,43694,43849,0,1 S,0,43694,44313,0.3,0.6 P,0,0,0,43694 F,0,43849,44313,1,0 M,0,44880,,109.008,299.2927 C,0,44880,,255,219,108 F,0,44880,45034,0,1 S,0,44880,45498,0.3,0.6 P,0,0,0,44880 F,0,45034,45498,1,0
Sprite,Foreground,Centre,"sb\hl.png",0,0 M,0,1066,,224.5378,149.2876 C,0,1066,,164,164,255 F,0,1066,1220,0,1 S,0,1066,1684,0.3,0.6 P,0,0,0,1066 F,0,1220,1684,1,0 M,0,2251,,411.3235,223.6173 C,0,2251,,164,164,255 F,0,2251,2406,0,1 S,0,2251,2870,0.3,0.6 P,0,0,0,2251 F,0,2406,2870,1,0 M,0,2972,,499.61,251.1853 C,0,2972,,164,164,255 F,0,2972,3127,0,1 S,0,2972,3591,0.3,0.6 P,0,0,0,2972 F,0,3127,3591,1,0 M,0,4106,,543.6365,408.976 C,0,4106,,164,164,255 F,0,4106,4261,0,1 S,0,4106,4725,0.3,0.6 P,0,0,0,4106 F,0,4261,4725,1,0 M,0,4777,,400.7868,401.2249 C,0,4777,,79,158,255 F,0,4777,4931,0,1 S,0,4777,5395,0.3,0.6 P,0,0,0,4777 F,0,4931,5395,1,0 M,0,6014,,177,389 C,0,6014,,79,158,255 F,0,6014,6168,0,1 S,0,6014,6632,0.3,0.6 P,0,0,0,6014 F,0,6168,6632,1,0 M,0,6633,,153.2493,301.3796 C,0,6633,,79,158,255 F,0,6633,6787,0,1 S,0,6633,7251,0.3,0.6 P,0,0,0,6633 F,0,6787,7251,1,0 M,0,7303,,123.5482,288.2587 C,0,7303,,79,158,255 F,0,7303,7457,0,1 S,0,7303,7921,0.3,0.6 P,0,0,0,7303 F,0,7457,7921,1,0 M,0,8436,,302.2941,230.5847 C,0,8436,,247,108,130 F,0,8436,8591,0,1 S,0,8436,9055,0.3,0.6 P,0,0,0,8436 F,0,8591,9055,1,0 M,0,10344,,502.6611,190.316 C,0,10344,,247,108,130 F,0,10344,10498,0,1 S,0,10344,10962,0.3,0.6 P,0,0,0,10344 F,0,10498,10962,1,0 M,0,11065,,492.5398,102.6587 C,0,11065,,247,108,130 F,0,11065,11219,0,1 S,0,11065,11683,0.3,0.6 P,0,0,0,11065 F,0,11219,11683,1,0 M,0,12148,,365.6372,178.9521 C,0,12148,,255,219,108 F,0,12148,12303,0,1 S,0,12148,12767,0.3,0.6 P,0,0,0,12148 F,0,12303,12767,1,0 M,0,13385,,160.6765,123.6173 C,0,13385,,255,219,108 F,0,13385,13540,0,1 S,0,13385,14004,0.3,0.6 P,0,0,0,13385 F,0,13540,14004,1,0 M,0,14106,,56.45029,203.9026 C,0,14106,,255,219,108 F,0,14106,14261,0,1 S,0,14106,14725,0.3,0.6 P,0,0,0,14106 F,0,14261,14725,1,0 M,0,15292,,158.937,334.5401 C,0,15292,,164,164,255 F,0,15292,15446,0,1 S,0,15292,15910,0.3,0.6 P,0,0,0,15292 F,0,15446,15910,1,0 M,0,15911,,237.6027,251.3006 C,0,15911,,164,164,255 F,0,15911,16065,0,1 S,0,15911,16529,0.3,0.6 P,0,0,0,15911 F,0,16065,16529,1,0 M,0,17715,,354.9877,80.25221 C,0,17715,,164,164,255 F,0,17715,17870,0,1 S,0,17715,18334,0.3,0.6 P,0,0,0,17715 F,0,17870,18334,1,0 M,0,19004,,523.2427,155.0424 C,0,19004,,79,158,255 F,0,19004,19158,0,1 S,0,19004,19622,0.3,0.6 P,0,0,0,19004 F,0,19158,19622,1,0 M,0,19725,,460.6572,258.2626 C,0,19725,,79,158,255 F,0,19725,19879,0,1 S,0,19725,20343,0.3,0.6 P,0,0,0,19725 F,0,19879,20343,1,0 M,0,21426,,239.9555,381.1157 C,0,21426,,79,158,255 F,0,21426,21581,0,1 S,0,21426,22045,0.3,0.6 P,0,0,0,21426 F,0,21581,22045,1,0 M,0,22715,,89.65181,240.7033 C,0,22715,,247,108,130 F,0,22715,22869,0,1 S,0,22715,23333,0.3,0.6 P,0,0,0,22715 F,0,22869,23333,1,0 M,0,23334,,121.1232,147.9681 C,0,23334,,247,108,130 F,0,23334,23488,0,1 S,0,23334,23952,0.3,0.6 P,0,0,0,23334 F,0,23488,23952,1,0 M,0,24519,,302.5882,156.6486 C,0,24519,,247,108,130 F,0,24519,24674,0,1 S,0,24519,25138,0.3,0.6 P,0,0,0,24519 F,0,24674,25138,1,0 M,0,25240,,378.726,258.3958 C,0,25240,,247,108,130 F,0,25240,25395,0,1 S,0,25240,25859,0.3,0.6 P,0,0,0,25240 F,0,25395,25859,1,0 M,0,26426,,525.5253,138.4052 C,0,26426,,255,219,108 F,0,26426,26580,0,1 S,0,26426,27044,0.3,0.6 P,0,0,0,26426 F,0,26580,27044,1,0 M,0,27045,,406.6364,105.7131 C,0,27045,,255,219,108 F,0,27045,27199,0,1 S,0,27045,27663,0.3,0.6 P,0,0,0,27045 F,0,27199,27663,1,0 M,0,28230,,236.9879,133.9391 C,0,28230,,255,219,108 F,0,28230,28385,0,1 S,0,28230,28849,0.3,0.6 P,0,0,0,28230 F,0,28385,28849,1,0 M,0,28901,,150.3973,220.3006 C,0,28901,,255,219,108 F,0,28901,29055,0,1 S,0,28901,29519,0.3,0.6 P,0,0,0,28901 F,0,29055,29519,1,0 M,0,30086,,177.7064,85.43504 C,0,30086,,164,164,255 F,0,30086,30241,0,1 S,0,30086,30705,0.3,0.6 P,0,0,0,30086 F,0,30241,30705,1,0 M,0,30807,,325.4935,116.7945 C,0,30807,,164,164,255 F,0,30807,30962,0,1 S,0,30807,31426,0.3,0.6 P,0,0,0,30807 F,0,30962,31426,1,0 M,0,32560,,241.3103,350.9162 C,0,32560,,164,164,255 F,0,32560,32715,0,1 S,0,32560,33179,0.3,0.6 P,0,0,0,32560 F,0,32715,33179,1,0 M,0,33797,,420.0121,384.0609 C,0,33797,,79,158,255 F,0,33797,33952,0,1 S,0,33797,34416,0.3,0.6 P,0,0,0,33797 F,0,33952,34416,1,0 M,0,34468,,471.6637,255.3497 C,0,34468,,79,158,255 F,0,34468,34622,0,1 S,0,34468,35086,0.3,0.6 P,0,0,0,34468 F,0,34622,35086,1,0 M,0,36271,,432.9977,71.39934 C,0,36271,,79,158,255 F,0,36271,36426,0,1 S,0,36271,36890,0.3,0.6 P,0,0,0,36271 F,0,36426,36890,1,0 M,0,37560,,273.1726,172.0389 C,0,37560,,247,108,130 F,0,37560,37714,0,1 S,0,37560,38178,0.3,0.6 P,0,0,0,37560 F,0,37714,38178,1,0 M,0,38179,,314.9984,249.0225 C,0,38179,,247,108,130 F,0,38179,38333,0,1 S,0,38179,38797,0.3,0.6 P,0,0,0,38179 F,0,38333,38797,1,0 M,0,39364,,199.0321,424.6685 C,0,39364,,247,108,130 F,0,39364,39519,0,1 S,0,39364,39983,0.3,0.6 P,0,0,0,39364 F,0,39519,39983,1,0 M,0,40035,,141.049,364.9178 C,0,40035,,247,108,130 F,0,40035,40189,0,1 S,0,40035,40653,0.3,0.6 P,0,0,0,40035 F,0,40189,40653,1,0 M,0,41272,,104.4747,122.4052 C,0,41272,,255,219,108 F,0,41272,41426,0,1 S,0,41272,41890,0.3,0.6 P,0,0,0,41272 F,0,41426,41890,1,0 M,0,41993,,244.2665,86.73735 C,0,41993,,255,219,108 F,0,41993,42147,0,1 S,0,41993,42611,0.3,0.6 P,0,0,0,41993 F,0,42147,42611,1,0 M,0,43127,,379.8274,154.0389 C,0,43127,,255,219,108 F,0,43127,43281,0,1 S,0,43127,43745,0.3,0.6 P,0,0,0,43127 F,0,43281,43745,1,0 M,0,43746,,267.7711,221.0436 C,0,43746,,255,219,108 F,0,43746,43900,0,1 S,0,43746,44364,0.3,0.6 P,0,0,0,43746 F,0,43900,44364,1,0 M,0,44931,,111.0121,309.9391 C,0,44931,,255,219,108 F,0,44931,45086,0,1 S,0,44931,45550,0.3,0.6 P,0,0,0,44931 F,0,45086,45550,1,0
Sprite,Foreground,Centre,"sb\hl.png",0,0 M,0,1117,,234.4962,145.166 C,0,1117,,164,164,255 F,0,1117,1272,0,1 S,0,1117,1736,0.3,0.6 P,0,0,0,1117 F,0,1272,1736,1,0 M,0,2303,,422.098,222.4897 C,0,2303,,164,164,255 F,0,2303,2457,0,1 S,0,2303,2921,0.3,0.6 P,0,0,0,2303 F,0,2457,2921,1,0 M,0,3024,,500.017,262.0041 C,0,3024,,164,164,255 F,0,3024,3178,0,1 S,0,3024,3642,0.3,0.6 P,0,0,0,3024 F,0,3178,3642,1,0 M,0,4158,,532.8488,409.9679 C,0,4158,,164,164,255 F,0,4158,4312,0,1 S,0,4158,4776,0.3,0.6 P,0,0,0,4158 F,0,4312,4776,1,0 M,0,4828,,389.9836,402.0311 C,0,4828,,79,158,255 F,0,4828,4983,0,1 S,0,4828,5447,0.3,0.6 P,0,0,0,4828 F,0,4983,5447,1,0 M,0,6065,,176.2453,378.7978 C,0,6065,,79,158,255 F,0,6065,6220,0,1 S,0,6065,6684,0.3,0.6 P,0,0,0,6065 F,0,6220,6684,1,0 M,0,6684,,143.1741,297.4199 C,0,6684,,79,158,255 F,0,6684,6839,0,1 S,0,6684,7303,0.3,0.6 P,0,0,0,6684 F,0,6839,7303,1,0 M,0,7354,,133.4403,292.6654 C,0,7354,,79,158,255 F,0,7354,7509,0,1 S,0,7354,7973,0.3,0.6 P,0,0,0,7354 F,0,7509,7973,1,0 M,0,8488,,312.9248,228.7167 C,0,8488,,247,108,130 F,0,8488,8642,0,1 S,0,8488,9106,0.3,0.6 P,0,0,0,8488 F,0,8642,9106,1,0 M,0,10395,,501.3035,179.6046 C,0,10395,,247,108,130 F,0,10395,10550,0,1 S,0,10395,11014,0.3,0.6 P,0,0,0,10395 F,0,10550,11014,1,0 M,0,11116,,481.7699,103.8294 C,0,11116,,247,108,130 F,0,11116,11271,0,1 S,0,11116,11735,0.3,0.6 P,0,0,0,11116 F,0,11271,11735,1,0 M,0,12200,,355.1028,181.431 C,0,12200,,255,219,108 F,0,12200,12354,0,1 S,0,12200,12818,0.3,0.6 P,0,0,0,12200 F,0,12354,12818,1,0 M,0,13437,,149.902,122.4897 C,0,13437,,255,219,108 F,0,13437,13591,0,1 S,0,13437,14055,0.3,0.6 P,0,0,0,13437 F,0,13591,14055,1,0 M,0,14158,,54.96152,214.6262 C,0,14158,,255,219,108 F,0,14158,14312,0,1 S,0,14158,14776,0.3,0.6 P,0,0,0,14158 F,0,14312,14776,1,0 M,0,15343,,160.9097,323.8878 C,0,15343,,164,164,255 F,0,15343,15498,0,1 S,0,15343,15962,0.3,0.6 P,0,0,0,15343 F,0,15498,15962,1,0 M,0,15962,,247.5368,247.1195 C,0,15962,,164,164,255 F,0,15962,16117,0,1 S,0,15962,16581,0.3,0.6 P,0,0,0,15962 F,0,16117,16581,1,0 M,0,17767,,365.6503,78.33628 C,0,17767,,164,164,255 F,0,17767,17921,0,1 S,0,17767,18385,0.3,0.6 P,0,0,0,17767 F,0,17921,18385,1,0 M,0,19055,,512.5535,156.803 C,0,19055,,79,158,255 F,0,19055,19210,0,1 S,0,19055,19674,0.3,0.6 P,0,0,0,19055 F,0,19210,19674,1,0 M,0,19776,,459.0343,268.9737 C,0,19776,,79,158,255 F,0,19776,19931,0,1 S,0,19776,20395,0.3,0.6 P,0,0,0,19776 F,0,19931,20395,1,0 M,0,21478,,229.1418,380.8466 C,0,21478,,79,158,255 F,0,21478,21632,0,1 S,0,21478,22096,0.3,0.6 P,0,0,0,21478 F,0,21632,22096,1,0 M,0,22766,,91.35068,230.0166 C,0,22766,,247,108,130 F,0,22766,22921,0,1 S,0,22766,23385,0.3,0.6 P,0,0,0,22766 F,0,22921,23385,1,0 M,0,23385,,131.6719,145.5295 C,0,23385,,247,108,130 F,0,23385,23540,0,1 S,0,23385,24004,0.3,0.6 P,0,0,0,23385 F,0,23540,24004,1,0 M,0,24571,,305.0257,167.1981 C,0,24571,,247,108,130 F,0,24571,24725,0,1 S,0,24571,25189,0.3,0.6 P,0,0,0,24571 F,0,24725,25189,1,0 M,0,25292,,389.1201,261.4098 C,0,25292,,247,108,130 F,0,25292,25446,0,1 S,0,25292,25910,0.3,0.6 P,0,0,0,25292 F,0,25446,25910,1,0 M,0,26477,,519.8201,129.3 C,0,26477,,255,219,108 F,0,26477,26632,0,1 S,0,26477,27096,0.3,0.6 P,0,0,0,26477 F,0,26632,27096,1,0 M,0,27096,,395.975,107.6288 C,0,27096,,255,219,108 F,0,27096,27251,0,1 S,0,27096,27715,0.3,0.6 P,0,0,0,27096 F,0,27251,27715,1,0 M,0,28282,,234.9839,144.5854 C,0,28282,,255,219,108 F,0,28282,28436,0,1 S,0,28282,28900,0.3,0.6 P,0,0,0,28282 F,0,28436,28900,1,0 M,0,28952,,140.4632,216.1195 C,0,28952,,255,219,108 F,0,28952,29107,0,1 S,0,28952,29571,0.3,0.6 P,0,0,0,28952 F,0,29107,29571,1,0 M,0,30138,,188.2967,87.65181 C,0,30138,,164,164,255 F,0,30138,30292,0,1 S,0,30138,30756,0.3,0.6 P,0,0,0,30138 F,0,30292,30756,1,0 M,0,30859,,334.9377,122.0279 C,0,30859,,164,164,255 F,0,30859,31013,0,1 S,0,30859,31477,0.3,0.6 P,0,0,0,30859 F,0,31013,31477,1,0 M,0,32612,,252.1097,350.2725 C,0,32612,,164,164,255 F,0,32612,32766,0,1 S,0,32612,33230,0.3,0.6 P,0,0,0,32612 F,0,32766,33230,1,0 M,0,33849,,422.0161,373.4146 C,0,33849,,79,158,255 F,0,33849,34003,0,1 S,0,33849,34467,0.3,0.6 P,0,0,0,33849 F,0,34003,34467,1,0 M,0,34519,,473.5797,244.6872 C,0,34519,,79,158,255 F,0,34519,34674,0,1 S,0,34519,35138,0.3,0.6 P,0,0,0,34519 F,0,34674,35138,1,0 M,0,36323,,423.4946,76.58748 C,0,36323,,79,158,255 F,0,36323,36477,0,1 S,0,36323,36941,0.3,0.6 P,0,0,0,36323 F,0,36477,36941,1,0 M,0,37611,,283.7551,174.3138 C,0,37611,,247,108,130 F,0,37611,37766,0,1 S,0,37611,38230,0.3,0.6 P,0,0,0,37611 F,0,37766,38230,1,0 M,0,38230,,308.3777,257.587 C,0,38230,,247,108,130 F,0,38230,38385,0,1 S,0,38230,38849,0.3,0.6 P,0,0,0,38230 F,0,38385,38849,1,0 M,0,39416,,188.4081,426.7289 C,0,39416,,247,108,130 F,0,39416,39570,0,1 S,0,39416,40034,0.3,0.6 P,0,0,0,39416 F,0,39570,40034,1,0 M,0,40086,,147.5728,356.277 C,0,40086,,247,108,130 F,0,40086,40241,0,1 S,0,40086,40705,0.3,0.6 P,0,0,0,40086 F,0,40241,40705,1,0 M,0,41323,,110.1799,113.3 C,0,41323,,255,219,108 F,0,41323,41478,0,1 S,0,41323,41942,0.3,0.6 P,0,0,0,41323 F,0,41478,41942,1,0 M,0,42044,,255.0065,88.12721 C,0,42044,,255,219,108 F,0,42044,42199,0,1 S,0,42044,42663,0.3,0.6 P,0,0,0,42044 F,0,42199,42663,1,0 M,0,43178,,369.2449,156.3138 C,0,43178,,255,219,108 F,0,43178,43333,0,1 S,0,43178,43797,0.3,0.6 P,0,0,0,43178 F,0,43333,43797,1,0 M,0,43797,,257.3014,223.7811 C,0,43797,,255,219,108 F,0,43797,43952,0,1 S,0,43797,44416,0.3,0.6 P,0,0,0,43797 F,0,43952,44416,1,0 M,0,44983,,113.0161,320.5854 C,0,44983,,255,219,108 F,0,44983,45137,0,1 S,0,44983,45601,0.3,0.6 P,0,0,0,44983 F,0,45137,45601,1,0
Sprite,Foreground,Centre,"sb\hl.png",0,0 M,0,1169,,244.8449,142.0661 C,0,1169,,164,164,255 F,0,1169,1323,0,1 S,0,1169,1787,0.3,0.6 P,0,0,0,1169 F,0,1323,1787,1,0 M,0,2354,,432.8725,221.3622 C,0,2354,,164,164,255 F,0,2354,2509,0,1 S,0,2354,2973,0.3,0.6 P,0,0,0,2354 F,0,2509,2973,1,0 M,0,3075,,501.4871,272.7278 C,0,3075,,164,164,255 F,0,3075,3230,0,1 S,0,3075,3694,0.3,0.6 P,0,0,0,3075 F,0,3230,3694,1,0 M,0,4209,,522.0609,410.9599 C,0,4209,,164,164,255 F,0,4209,4364,0,1 S,0,4209,4828,0.3,0.6 P,0,0,0,4209 F,0,4364,4828,1,0 M,0,4880,,379.1802,402.8373 C,0,4880,,79,158,255 F,0,4880,5034,0,1 S,0,4880,5498,0.3,0.6 P,0,0,0,4880 F,0,5034,5498,1,0 M,0,6117,,176.375,368.0275 C,0,6117,,79,158,255 F,0,6117,6271,0,1 S,0,6117,6735,0.3,0.6 P,0,0,0,6117 F,0,6271,6735,1,0 M,0,6736,,133.4403,292.6654 C,0,6736,,79,158,255 F,0,6736,6890,0,1 S,0,6736,7354,0.3,0.6 P,0,0,0,6736 F,0,6890,7354,1,0 M,0,7406,,143.1741,297.4199 C,0,7406,,79,158,255 F,0,7406,7561,0,1 S,0,7406,8024,0.3,0.6 P,0,0,0,7406 F,0,7561,8024,1,0 M,0,8539,,323.6955,228.3658 C,0,8539,,247,108,130 F,0,8539,8694,0,1 S,0,8539,9158,0.3,0.6 P,0,0,0,8539 F,0,8694,9158,1,0 M,0,10447,,498.5009,169.1687 C,0,10447,,247,108,130 F,0,10447,10601,0,1 S,0,10447,11065,0.3,0.6 P,0,0,0,10447 F,0,10601,11065,1,0 M,0,11375,,434,74 C,0,11375,,247,108,130 F,0,11375,11529,0,1 S,0,11375,11993,0.25,0.5 P,0,0,0,11375 F,0,11529,11993,0.8,0 M,0,12251,,344.3159,182.3344 C,0,12251,,255,219,108 F,0,12251,12406,0,1 S,0,12251,12870,0.3,0.6 P,0,0,0,12251 F,0,12406,12870,1,0 M,0,13488,,139.1275,121.3622 C,0,13488,,255,219,108 F,0,13488,13643,0,1 S,0,13488,14107,0.3,0.6 P,0,0,0,13488 F,0,13643,14107,1,0 M,0,14209,,54.53614,225.4418 C,0,14209,,255,219,108 F,0,14209,14364,0,1 S,0,14209,14828,0.3,0.6 P,0,0,0,14209 F,0,14364,14828,1,0 M,0,15395,,162.8823,313.2356 C,0,15395,,164,164,255 F,0,15395,15549,0,1 S,0,15395,16013,0.3,0.6 P,0,0,0,15395 F,0,15549,16013,1,0 M,0,16014,,256.7818,241.5961 C,0,16014,,164,164,255 F,0,16014,16168,0,1 S,0,16014,16632,0.3,0.6 P,0,0,0,16014 F,0,16168,16632,1,0 M,0,17818,,376.3128,76.42035 C,0,17818,,164,164,255 F,0,17818,17973,0,1 S,0,17818,18437,0.3,0.6 P,0,0,0,17818 F,0,17973,18437,1,0 M,0,19107,,501.8641,158.5636 C,0,19107,,79,158,255 F,0,19107,19261,0,1 S,0,19107,19725,0.3,0.6 P,0,0,0,19107 F,0,19261,19725,1,0 M,0,19828,,457.4114,279.6848 C,0,19828,,79,158,255 F,0,19828,19983,0,1 S,0,19828,20446,0.3,0.6 P,0,0,0,19828 F,0,19983,20446,1,0 M,0,21529,,218.343,381.535 C,0,21529,,79,158,255 F,0,21529,21684,0,1 S,0,21529,22148,0.3,0.6 P,0,0,0,21529 F,0,21684,22148,1,0 M,0,22818,,92.16431,219.2235 C,0,22818,,247,108,130 F,0,22818,22972,0,1 S,0,22818,23436,0.3,0.6 P,0,0,0,22818 F,0,22972,23436,1,0 M,0,23437,,142.0615,142.4934 C,0,23437,,247,108,130 F,0,23437,23591,0,1 S,0,23437,24055,0.3,0.6 P,0,0,0,23437 F,0,23591,24055,1,0 M,0,24622,,306.4709,177.9269 C,0,24622,,247,108,130 F,0,24622,24777,0,1 S,0,24622,25241,0.3,0.6 P,0,0,0,24622 F,0,24777,25241,1,0 M,0,25343,,399.3026,265.0686 C,0,25343,,247,108,130 F,0,25343,25498,0,1 S,0,25343,25962,0.3,0.6 P,0,0,0,25343 F,0,25498,25962,1,0 M,0,26529,,512.1737,121.726 C,0,26529,,255,219,108 F,0,26529,26683,0,1 S,0,26529,27147,0.3,0.6 P,0,0,0,26529 F,0,26683,27147,1,0 M,0,27148,,385.2274,108.9777 C,0,27148,,255,219,108 F,0,27148,27302,0,1 S,0,27148,27766,0.3,0.6 P,0,0,0,27148 F,0,27302,27766,1,0 M,0,28333,,232.9799,155.2318 C,0,28333,,255,219,108 F,0,28333,28488,0,1 S,0,28333,28952,0.3,0.6 P,0,0,0,28333 F,0,28488,28952,1,0 M,0,29004,,131.2182,210.5961 C,0,29004,,255,219,108 F,0,29004,29158,0,1 S,0,29004,29622,0.3,0.6 P,0,0,0,29004 F,0,29158,29622,1,0 M,0,30189,,198.9834,89.35068 C,0,30189,,164,164,255 F,0,30189,30344,0,1 S,0,30189,30808,0.3,0.6 P,0,0,0,30189 F,0,30344,30808,1,0 M,0,30910,,343.0974,129.0871 C,0,30910,,164,164,255 F,0,30910,31065,0,1 S,0,30910,31529,0.3,0.6 P,0,0,0,30910 F,0,31065,31529,1,0 M,0,32663,,262.6854,347.9583 C,0,32663,,164,164,255 F,0,32663,32818,0,1 S,0,32663,33282,0.3,0.6 P,0,0,0,32663 F,0,32818,33282,1,0 M,0,33900,,424.0201,362.7682 C,0,33900,,79,158,255 F,0,33900,34055,0,1 S,0,33900,34519,0.3,0.6 P,0,0,0,33900 F,0,34055,34519,1,0 M,0,34571,,475.4956,234.0246 C,0,34571,,79,158,255 F,0,34571,34725,0,1 S,0,34571,35189,0.3,0.6 P,0,0,0,34571 F,0,34725,35189,1,0 M,0,36374,,414.6905,82.88783 C,0,36374,,79,158,255 F,0,36374,36529,0,1 S,0,36374,36993,0.3,0.6 P,0,0,0,36374 F,0,36529,36993,1,0 M,0,37663,,294.1537,177.3045 C,0,37663,,247,108,130 F,0,37663,37817,0,1 S,0,37663,38281,0.3,0.6 P,0,0,0,37663 F,0,37817,38281,1,0 M,0,38282,,302.321,266.5549 C,0,38282,,247,108,130 F,0,38282,38436,0,1 S,0,38282,38900,0.3,0.6 P,0,0,0,38282 F,0,38436,38900,1,0 M,0,39467,,177.7008,428.3035 C,0,39467,,247,108,130 F,0,39467,39622,0,1 S,0,39467,40086,0.3,0.6 P,0,0,0,39467 F,0,39622,40086,1,0 M,0,40138,,153.5991,347.2855 C,0,40138,,247,108,130 F,0,40138,40292,0,1 S,0,40138,40756,0.3,0.6 P,0,0,0,40138 F,0,40292,40756,1,0 M,0,41375,,117.8263,105.726 C,0,41375,,255,219,108 F,0,41375,41529,0,1 S,0,41375,41993,0.3,0.6 P,0,0,0,41375 F,0,41529,41993,1,0 M,0,42096,,265.831,88.2684 C,0,42096,,255,219,108 F,0,42096,42251,0,1 S,0,42096,42714,0.3,0.6 P,0,0,0,42096 F,0,42251,42714,1,0 M,0,43230,,358.8463,159.3045 C,0,43230,,255,219,108 F,0,43230,43384,0,1 S,0,43230,43848,0.3,0.6 P,0,0,0,43230 F,0,43384,43848,1,0 M,0,43849,,246.6792,225.8396 C,0,43849,,255,219,108 F,0,43849,44003,0,1 S,0,43849,44467,0.3,0.6 P,0,0,0,43849 F,0,44003,44467,1,0 M,0,45034,,115.0201,331.2318 C,0,45034,,255,219,108 F,0,45034,45189,0,1 S,0,45034,45653,0.3,0.6 P,0,0,0,45034 F,0,45189,45653,1,0
Sprite,Foreground,Centre,"sb\hl.png",0,0 M,0,1220,,255.5978,141.1414 C,0,1220,,164,164,255 F,0,1220,1375,0,1 S,0,1220,1839,0.3,0.6 P,0,0,0,1220 F,0,1375,1839,1,0 M,0,2406,,443.647,220.2346 C,0,2406,,164,164,255 F,0,2406,2560,0,1 S,0,2406,3024,0.3,0.6 P,0,0,0,2406 F,0,2560,3024,1,0 M,0,3127,,503.669,283.3259 C,0,3127,,164,164,255 F,0,3127,3282,0,1 S,0,3127,3745,0.3,0.6 P,0,0,0,3127 F,0,3282,3745,1,0 M,0,4261,,511.2731,411.9519 C,0,4261,,164,164,255 F,0,4261,4415,0,1 S,0,4261,4879,0.3,0.6 P,0,0,0,4261 F,0,4415,4879,1,0 M,0,4931,,368.363,403.342 C,0,4931,,79,158,255 F,0,4931,5086,0,1 S,0,4931,5550,0.3,0.6 P,0,0,0,4931 F,0,5086,5550,1,0 M,0,6168,,177.9685,357.3641 C,0,6168,,79,158,255 F,0,6168,6323,0,1 S,0,6168,6787,0.3,0.6 P,0,0,0,6168 F,0,6323,6787,1,0 M,0,6787,,123.5482,288.2587 C,0,6787,,79,158,255 F,0,6787,6942,0,1 S,0,6787,7406,0.3,0.6 P,0,0,0,6787 F,0,6942,7406,1,0 M,0,7457,,153.2493,301.3796 C,0,7457,,79,158,255 F,0,7457,7612,0,1 S,0,7457,8076,0.3,0.6 P,0,0,0,7457 F,0,7612,8076,1,0 M,0,8591,,334.4776,229.1 C,0,8591,,247,108,130 F,0,8591,8745,0,1 S,0,8591,9209,0.3,0.6 P,0,0,0,8591 F,0,8745,9209,1,0 M,0,10498,,494.6599,159.0756 C,0,10498,,247,108,130 F,0,10498,10653,0,1 S,0,10498,11117,0.3,0.6 P,0,0,0,10498 F,0,10653,11117,1,0 M,0,12303,,333.4967,181.8878 C,0,12303,,255,219,108 F,0,12303,12457,0,1 S,0,12303,12921,0.3,0.6 P,0,0,0,12303 F,0,12457,12921,1,0 M,0,13540,,128.353,120.2346 C,0,13540,,255,219,108 F,0,13540,13694,0,1 S,0,13540,14158,0.3,0.6 P,0,0,0,13540 F,0,13694,14158,1,0 M,0,14261,,54.83366,236.2581 C,0,14261,,255,219,108 F,0,14261,14416,0,1 S,0,14261,14879,0.3,0.6 P,0,0,0,14261 F,0,14416,14879,1,0 M,0,15446,,164.8549,302.5834 C,0,15446,,164,164,255 F,0,15446,15601,0,1 S,0,15446,16065,0.3,0.6 P,0,0,0,15446 F,0,15601,16065,1,0 M,0,16065,,265.2646,234.974 C,0,16065,,164,164,255 F,0,16065,16220,0,1 S,0,16065,16684,0.3,0.6 P,0,0,0,16065 F,0,16220,16684,1,0 M,0,17870,,386.9754,74.50443 C,0,17870,,164,164,255 F,0,17870,18024,0,1 S,0,17870,18488,0.3,0.6 P,0,0,0,17870 F,0,18024,18488,1,0 M,0,19158,,491.1748,160.3242 C,0,19158,,79,158,255 F,0,19158,19313,0,1 S,0,19158,19777,0.3,0.6 P,0,0,0,19158 F,0,19313,19777,1,0 M,0,19879,,455.7885,290.3959 C,0,19879,,79,158,255 F,0,19879,20034,0,1 S,0,19879,20498,0.3,0.6 P,0,0,0,19879 F,0,20034,20498,1,0 M,0,21581,,207.617,382.947 C,0,21581,,79,158,255 F,0,21581,21735,0,1 S,0,21581,22199,0.3,0.6 P,0,0,0,21581 F,0,21735,22199,1,0 M,0,22869,,92.3226,208.4034 C,0,22869,,247,108,130 F,0,22869,23024,0,1 S,0,22869,23488,0.3,0.6 P,0,0,0,22869 F,0,23024,23488,1,0 M,0,23488,,152.259,138.8696 C,0,23488,,247,108,130 F,0,23488,23643,0,1 S,0,23488,24107,0.3,0.6 P,0,0,0,23488 F,0,23643,24107,1,0 M,0,24674,,307.2405,188.7217 C,0,24674,,247,108,130 F,0,24674,24828,0,1 S,0,24674,25292,0.3,0.6 P,0,0,0,24674 F,0,24828,25292,1,0 M,0,26580,,503.389,115.5417 C,0,26580,,255,219,108 F,0,26580,26735,0,1 S,0,26580,27199,0.3,0.6 P,0,0,0,26580 F,0,26735,27199,1,0 M,0,27199,,375.5192,104.2517 C,0,27199,,255,219,108 F,0,27199,27354,0,1 S,0,27199,27818,0.3,0.6 P,0,0,0,27199 F,0,27354,27818,1,0 M,0,28385,,230.9759,165.8782 C,0,28385,,255,219,108 F,0,28385,28539,0,1 S,0,28385,29003,0.3,0.6 P,0,0,0,28385 F,0,28539,29003,1,0 M,0,29055,,122.7353,203.974 C,0,29055,,255,219,108 F,0,29055,29210,0,1 S,0,29055,29674,0.3,0.6 P,0,0,0,29055 F,0,29210,29674,1,0 M,0,30241,,209.7765,90.16431 C,0,30241,,164,164,255 F,0,30241,30395,0,1 S,0,30241,30859,0.3,0.6 P,0,0,0,30241 F,0,30395,30859,1,0 M,0,30962,,350.1662,137.218 C,0,30962,,164,164,255 F,0,30962,31117,0,1 S,0,30962,31580,0.3,0.6 P,0,0,0,30962 F,0,31117,31580,1,0 M,0,32715,,273.0685,344.8689 C,0,32715,,164,164,255 F,0,32715,32869,0,1 S,0,32715,33333,0.3,0.6 P,0,0,0,32715 F,0,32869,33333,1,0 M,0,33952,,426.0241,352.1218 C,0,33952,,79,158,255 F,0,33952,34106,0,1 S,0,33952,34570,0.3,0.6 P,0,0,0,33952 F,0,34106,34570,1,0 M,0,34622,,477.4115,223.362 C,0,34622,,79,158,255 F,0,34622,34777,0,1 S,0,34622,35241,0.3,0.6 P,0,0,0,34622 F,0,34777,35241,1,0 M,0,36426,,406.6786,89.85776 C,0,36426,,79,158,255 F,0,36426,36580,0,1 S,0,36426,37044,0.3,0.6 P,0,0,0,36426 F,0,36580,37044,1,0 M,0,37714,,304.3215,180.9969 C,0,37714,,247,108,130 F,0,37714,37869,0,1 S,0,37714,38333,0.3,0.6 P,0,0,0,37714 F,0,37869,38333,1,0 M,0,38333,,296.8524,275.8905 C,0,38333,,247,108,130 F,0,38333,38488,0,1 S,0,38333,38952,0.3,0.6 P,0,0,0,38333 F,0,38488,38952,1,0 M,0,39519,,166.9034,429.0751 C,0,39519,,247,108,130 F,0,39519,39673,0,1 S,0,39519,40137,0.3,0.6 P,0,0,0,39519 F,0,39673,40137,1,0 M,0,40189,,159.1095,337.9708 C,0,40189,,247,108,130 F,0,40189,40344,0,1 S,0,40189,40808,0.3,0.6 P,0,0,0,40189 F,0,40344,40808,1,0 M,0,41426,,126.611,99.54166 C,0,41426,,255,219,108 F,0,41426,41581,0,1 S,0,41426,42045,0.3,0.6 P,0,0,0,41426 F,0,41581,42045,1,0 M,0,42147,,276.5636,86.87547 C,0,42147,,255,219,108 F,0,42147,42302,0,1 S,0,42147,42766,0.3,0.6 P,0,0,0,42147 F,0,42302,42766,1,0 M,0,43281,,348.6785,162.9969 C,0,43281,,255,219,108 F,0,43281,43436,0,1 S,0,43281,43900,0.3,0.6 P,0,0,0,43281 F,0,43436,43900,1,0 M,0,43900,,235.9583,227.2873 C,0,43900,,255,219,108 F,0,43900,44055,0,1 S,0,43900,44519,0.3,0.6 P,0,0,0,43900 F,0,44055,44519,1,0 M,0,45086,,117.0241,341.8782 C,0,45086,,255,219,108 F,0,45086,45240,0,1 S,0,45086,45704,0.3,0.6 P,0,0,0,45086 F,0,45240,45704,1,0
Sprite,Foreground,Centre,"sb\hl.png",0,0 M,0,1272,,266.3594,141.7173 C,0,1272,,164,164,255 F,0,1272,1427,0,1 S,0,1272,1890,0.3,0.6 P,0,0,0,1272 F,0,1427,1890,1,0 M,0,2457,,454.4214,219.1071 C,0,2457,,164,164,255 F,0,2457,2612,0,1 S,0,2457,3076,0.3,0.6 P,0,0,0,2457 F,0,2612,3076,1,0 M,0,3178,,506.3716,293.8087 C,0,3178,,164,164,255 F,0,3178,3333,0,1 S,0,3178,3797,0.3,0.6 P,0,0,0,3178 F,0,3333,3797,1,0 M,0,4312,,500.4853,412.9439 C,0,4312,,164,164,255 F,0,4312,4467,0,1 S,0,4312,4931,0.3,0.6 P,0,0,0,4312 F,0,4467,4931,1,0 M,0,4983,,357.5685,402.5322 C,0,4983,,79,158,255 F,0,4983,5138,0,1 S,0,4983,5601,0.3,0.6 P,0,0,0,4983 F,0,5138,5601,1,0 M,0,6839,,113.1506,285.2672 C,0,6839,,79,158,255 F,0,6839,6994,0,1 S,0,6839,7457,0.3,0.6 P,0,0,0,6839 F,0,6994,7457,1,0 M,0,7509,,163.8115,303.7216 C,0,7509,,79,158,255 F,0,7509,7664,0,1 S,0,7509,8128,0.3,0.6 P,0,0,0,7509 F,0,7664,8128,1,0 M,0,8642,,344.8545,232.0681 C,0,8642,,247,108,130 F,0,8642,8797,0,1 S,0,8642,9261,0.3,0.6 P,0,0,0,8642 F,0,8797,9261,1,0 M,0,10756,,471,105 C,0,10756,,247,108,130 F,0,10756,10910,0,1 S,0,10756,11374,0.25,0.5 P,0,0,0,10756 F,0,10910,11374,0.8,0 M,0,12354,,322.6935,181.0816 C,0,12354,,255,219,108 F,0,12354,12509,0,1 S,0,12354,12973,0.3,0.6 P,0,0,0,12354 F,0,12509,12973,1,0 M,0,13591,,117.5785,119.1071 C,0,13591,,255,219,108 F,0,13591,13746,0,1 S,0,13591,14210,0.3,0.6 P,0,0,0,13591 F,0,13746,14210,1,0 M,0,14312,,55.66382,247.0518 C,0,14312,,255,219,108 F,0,14312,14467,0,1 S,0,14312,14931,0.3,0.6 P,0,0,0,14312 F,0,14467,14931,1,0 M,0,16117,,272.4065,226.9012 C,0,16117,,164,164,255 F,0,16117,16272,0,1 S,0,16117,16735,0.3,0.6 P,0,0,0,16117 F,0,16272,16735,1,0 M,0,17921,,397.638,72.58849 C,0,17921,,164,164,255 F,0,17921,18076,0,1 S,0,17921,18540,0.3,0.6 P,0,0,0,17921 F,0,18076,18540,1,0 M,0,19416,,447,197 C,0,19416,,79,158,255 F,0,19416,19570,0,1 S,0,19416,20034,0.25,0.5 P,0,0,0,19416 F,0,19570,20034,0.8,0 M,0,21632,,196.9921,384.9799 C,0,21632,,79,158,255 F,0,21632,21787,0,1 S,0,21632,22251,0.3,0.6 P,0,0,0,21632 F,0,21787,22251,1,0 M,0,23746,,196,102 C,0,23746,,247,108,130 F,0,23746,23900,0,1 S,0,23746,24364,0.25,0.5 P,0,0,0,23746 F,0,23900,24364,0.8,0 M,0,24725,,307.3322,199.5413 C,0,24725,,247,108,130 F,0,24725,24880,0,1 S,0,24725,25344,0.3,0.6 P,0,0,0,24725 F,0,24880,25344,1,0 M,0,27251,,366.1302,98.85035 C,0,27251,,255,219,108 F,0,27251,27406,0,1 S,0,27251,27869,0.3,0.6 P,0,0,0,27251 F,0,27406,27869,1,0 M,0,28436,,228.9718,176.5245 C,0,28436,,255,219,108 F,0,28436,28591,0,1 S,0,28436,29055,0.3,0.6 P,0,0,0,28436 F,0,28591,29055,1,0 M,0,29107,,115.5935,195.9012 C,0,29107,,255,219,108 F,0,29107,29262,0,1 S,0,29107,29725,0.3,0.6 P,0,0,0,29107 F,0,29262,29725,1,0 M,0,30292,,220.5966,90.3226 C,0,30292,,164,164,255 F,0,30292,30447,0,1 S,0,30292,30911,0.3,0.6 P,0,0,0,30292 F,0,30447,30911,1,0 M,0,31013,,356.3241,146.0799 C,0,31013,,164,164,255 F,0,31013,31168,0,1 S,0,31013,31632,0.3,0.6 P,0,0,0,31013 F,0,31168,31632,1,0 M,0,32766,,283.5702,342.2291 C,0,32766,,164,164,255 F,0,32766,32921,0,1 S,0,32766,33385,0.3,0.6 P,0,0,0,32766 F,0,32921,33385,1,0 M,0,34003,,428.0281,341.4755 C,0,34003,,79,158,255 F,0,34003,34158,0,1 S,0,34003,34622,0.3,0.6 P,0,0,0,34003 F,0,34158,34622,1,0 M,0,34674,,479.3275,212.6995 C,0,34674,,79,158,255 F,0,34674,34829,0,1 S,0,34674,35292,0.3,0.6 P,0,0,0,34674 F,0,34829,35292,1,0 M,0,36477,,396.5616,85.9986 C,0,36477,,79,158,255 F,0,36477,36632,0,1 S,0,36477,37096,0.3,0.6 P,0,0,0,36477 F,0,36632,37096,1,0 M,0,38591,,280,332 C,0,38591,,247,108,130 F,0,38591,38745,0,1 S,0,38591,39209,0.25,0.5 P,0,0,0,38591 F,0,38745,39209,0.8,0 M,0,39570,,156.0816,429.2462 C,0,39570,,247,108,130 F,0,39570,39725,0,1 S,0,39570,40189,0.3,0.6 P,0,0,0,39570 F,0,39725,40189,1,0 M,0,40447,,177,283 C,0,40447,,247,108,130 F,0,40447,40601,0,1 S,0,40447,41065,0.25,0.5 P,0,0,0,40447 F,0,40601,41065,0.8,0 M,0,41684,,180,77 C,0,41684,,255,219,108 F,0,41684,41838,0,1 S,0,41684,42302,0.25,0.5 P,0,0,0,41684 F,0,41838,42302,0.8,0 M,0,43952,,225.1501,227.8277 C,0,43952,,255,219,108 F,0,43952,44107,0,1 S,0,43952,44570,0.3,0.6 P,0,0,0,43952 F,0,44107,44570,1,0 M,0,45137,,119.0281,352.5245 C,0,45137,,255,219,108 F,0,45137,45292,0,1 S,0,45137,45756,0.3,0.6 P,0,0,0,45137 F,0,45292,45756,1,0
Sprite,Foreground,Centre,"sb\hl.png",0,0 M,0,1323,,277.0264,143.4012 C,0,1323,,164,164,255 F,0,1323,1478,0,1 S,0,1323,1942,0.3,0.6 P,0,0,0,1323 F,0,1478,1942,1,0 M,0,2715,,508,198 C,0,2715,,164,164,255 F,0,2715,2869,0,1 S,0,2715,3333,0.3,0.6 P,0,0,0,2715 F,0,2869,3333,1,0 M,0,5034,,347.0104,400.1558 C,0,5034,,79,158,255 F,0,5034,5189,0,1 S,0,5034,5653,0.3,0.6 P,0,0,0,5034 F,0,5189,5653,1,0 M,0,6890,,102.3833,284.2256 C,0,6890,,79,158,255 F,0,6890,7045,0,1 S,0,6890,7509,0.3,0.6 P,0,0,0,6890 F,0,7045,7509,1,0 M,0,7561,,174.6199,304.2325 C,0,7561,,79,158,255 F,0,7561,7715,0,1 S,0,7561,8179,0.3,0.6 P,0,0,0,7561 F,0,7715,8179,1,0 M,0,8694,,354.6942,236.462 C,0,8694,,247,108,130 F,0,8694,8849,0,1 S,0,8694,9312,0.3,0.6 P,0,0,0,8694 F,0,8849,9312,1,0 M,0,10756,,471,105 C,0,10756,,247,108,130 F,0,10756,10910,0,1 S,0,10756,11374,0.3,0.6 P,0,0,0,10756 F,0,10910,11374,1,0 M,0,12457,,301.0869,179.4692 C,0,12457,,255,219,108 F,0,12457,12612,0,1 S,0,12457,13076,0.3,0.6 P,0,0,0,12457 F,0,12612,13076,1,0 M,0,13849,,74,153 C,0,13849,,255,219,108 F,0,13849,14003,0,1 S,0,13849,14467,0.3,0.6 P,0,0,0,13849 F,0,14003,14467,1,0 M,0,16168,,278.3456,217.9175 C,0,16168,,164,164,255 F,0,16168,16323,0,1 S,0,16168,16787,0.3,0.6 P,0,0,0,16168 F,0,16323,16787,1,0 M,0,18024,,418.9631,68.75663 C,0,18024,,164,164,255 F,0,18024,18179,0,1 S,0,18024,18643,0.3,0.6 P,0,0,0,18024 F,0,18179,18643,1,0 M,0,19416,,447,197 C,0,19416,,79,158,255 F,0,19416,19570,0,1 S,0,19416,20034,0.3,0.6 P,0,0,0,19416 F,0,19570,20034,1,0 M,0,21684,,186.5883,387.9556 C,0,21684,,79,158,255 F,0,21684,21839,0,1 S,0,21684,22302,0.3,0.6 P,0,0,0,21684 F,0,21839,22302,1,0 M,0,24983,,325,254 C,0,24983,,247,108,130 F,0,24983,25137,0,1 S,0,24983,25601,0.3,0.6 P,0,0,0,24983 F,0,25137,25601,1,0 M,0,27302,,357.0518,92.94142 C,0,27302,,255,219,108 F,0,27302,27457,0,1 S,0,27302,27921,0.3,0.6 P,0,0,0,27302 F,0,27457,27921,1,0 M,0,29158,,109.6544,186.9175 C,0,29158,,255,219,108 F,0,29158,29313,0,1 S,0,29158,29777,0.3,0.6 P,0,0,0,29158 F,0,29313,29777,1,0 M,0,30550,,273,112 C,0,30550,,164,164,255 F,0,30550,30704,0,1 S,0,30550,31168,0.3,0.6 P,0,0,0,30550 F,0,30704,31168,1,0 M,0,32869,,305.1155,341.986 C,0,32869,,164,164,255 F,0,32869,33024,0,1 S,0,32869,33488,0.3,0.6 P,0,0,0,32869 F,0,33024,33488,1,0 M,0,34725,,481.2434,202.0369 C,0,34725,,79,158,255 F,0,34725,34880,0,1 S,0,34725,35344,0.3,0.6 P,0,0,0,34725 F,0,34880,35344,1,0 M,0,36529,,386.0873,83.25354 C,0,36529,,79,158,255 F,0,36529,36684,0,1 S,0,36529,37147,0.3,0.6 P,0,0,0,36529 F,0,36684,37147,1,0 M,0,41684,,180,77 C,0,41684,,255,219,108 F,0,41684,41838,0,1 S,0,41684,42302,0.3,0.6 P,0,0,0,41684 F,0,41838,42302,1,0 M,0,44003,,214.3314,227.672 C,0,44003,,255,219,108 F,0,44003,44158,0,1 S,0,44003,44622,0.3,0.6 P,0,0,0,44003 F,0,44158,44622,1,0
Sprite,Foreground,Centre,"sb\hl.png",0,0 M,0,1375,,287.1257,147.2036 C,0,1375,,164,164,255 F,0,1375,1530,0,1 S,0,1375,1994,0.3,0.6 P,0,0,0,1375 F,0,1530,1994,1,0 M,0,3230,,510.0847,303.9756 C,0,3230,,164,164,255 F,0,3230,3385,0,1 S,0,3230,3849,0.3,0.6 P,0,0,0,3230 F,0,3385,3849,1,0 M,0,5086,,336.9713,396.1177 C,0,5086,,79,158,255 F,0,5086,5241,0,1 S,0,5086,5705,0.3,0.6 P,0,0,0,5086 F,0,5241,5705,1,0 M,0,6942,,91.58644,284.9724 C,0,6942,,79,158,255 F,0,6942,7097,0,1 S,0,6942,7561,0.3,0.6 P,0,0,0,6942 F,0,7097,7561,1,0 M,0,7612,,185.3952,303.1928 C,0,7612,,79,158,255 F,0,7612,7767,0,1 S,0,7612,8231,0.3,0.6 P,0,0,0,7612 F,0,7767,8231,1,0 M,0,8797,,372.0991,249.0484 C,0,8797,,247,108,130 F,0,8797,8952,0,1 S,0,8797,9416,0.3,0.6 P,0,0,0,8797 F,0,8952,9416,1,0 M,0,12509,,290.2836,178.663 C,0,12509,,255,219,108 F,0,12509,12664,0,1 S,0,12509,13128,0.3,0.6 P,0,0,0,12509 F,0,12664,13128,1,0 M,0,14364,,57.54431,257.711 C,0,14364,,255,219,108 F,0,14364,14519,0,1 S,0,14364,14983,0.3,0.6 P,0,0,0,14364 F,0,14519,14983,1,0 M,0,16220,,283.1287,208.2762 C,0,16220,,164,164,255 F,0,16220,16375,0,1 S,0,16220,16839,0.3,0.6 P,0,0,0,16220 F,0,16375,16839,1,0 M,0,18076,,429.6257,66.8407 C,0,18076,,164,164,255 F,0,18076,18231,0,1 S,0,18076,18695,0.3,0.6 P,0,0,0,18076 F,0,18231,18695,1,0 M,0,19931,,454.1656,301.1069 C,0,19931,,79,158,255 F,0,19931,20086,0,1 S,0,19931,20550,0.3,0.6 P,0,0,0,19931 F,0,20086,20550,1,0 M,0,21787,,166.4584,395.8654 C,0,21787,,79,158,255 F,0,21787,21942,0,1 S,0,21787,22406,0.3,0.6 P,0,0,0,21787 F,0,21942,22406,1,0 M,0,27354,,348.289,86.57349 C,0,27354,,255,219,108 F,0,27354,27509,0,1 S,0,27354,27973,0.3,0.6 P,0,0,0,27354 F,0,27509,27973,1,0 M,0,29210,,104.8713,177.2762 C,0,29210,,255,219,108 F,0,29210,29365,0,1 S,0,29210,29829,0.3,0.6 P,0,0,0,29210 F,0,29365,29829,1,0 M,0,31065,,360.5535,156.0038 C,0,31065,,164,164,255 F,0,31065,31220,0,1 S,0,31065,31684,0.3,0.6 P,0,0,0,31065 F,0,31220,31684,1,0 M,0,32921,,315.6188,344.5991 C,0,32921,,164,164,255 F,0,32921,33076,0,1 S,0,32921,33540,0.3,0.6 P,0,0,0,32921 F,0,33076,33540,1,0 M,0,34777,,483.1593,191.3743 C,0,34777,,79,158,255 F,0,34777,34932,0,1 S,0,34777,35396,0.3,0.6 P,0,0,0,34777 F,0,34932,35396,1,0 M,0,36632,,364.5647,81.10612 C,0,36632,,79,158,255 F,0,36632,36787,0,1 S,0,36632,37251,0.3,0.6 P,0,0,0,36632 F,0,36787,37251,1,0 M,0,42199,,286.9326,83.78259 C,0,42199,,255,219,108 F,0,42199,42354,0,1 S,0,42199,42818,0.3,0.6 P,0,0,0,42199 F,0,42354,42818,1,0 M,0,44055,,203.5405,226.9017 C,0,44055,,255,219,108 F,0,44055,44210,0,1 S,0,44055,44674,0.3,0.6 P,0,0,0,44055 F,0,44210,44674,1,0
Sprite,Foreground,Centre,"sb\hl.png",0,0 M,0,1427,,296.5862,152.3638 C,0,1427,,164,164,255 F,0,1427,1581,0,1 S,0,1427,2045,0.3,0.6 P,0,0,0,1427 F,0,1581,2045,1,0 M,0,3282,,514.4669,313.8687 C,0,3282,,164,164,255 F,0,3282,3436,0,1 S,0,3282,3900,0.3,0.6 P,0,0,0,3282 F,0,3436,3900,1,0 M,0,5138,,327.7327,390.4832 C,0,5138,,79,158,255 F,0,5138,5292,0,1 S,0,5138,5756,0.3,0.6 P,0,0,0,5138 F,0,5292,5756,1,0 M,0,6994,,80.96391,287.0706 C,0,6994,,79,158,255 F,0,6994,7148,0,1 S,0,6994,7612,0.3,0.6 P,0,0,0,6994 F,0,7148,7612,1,0 M,0,8849,,379.0269,257.3022 C,0,8849,,247,108,130 F,0,8849,9003,0,1 S,0,8849,9467,0.3,0.6 P,0,0,0,8849 F,0,9003,9467,1,0 M,0,12561,,279.4803,177.8567 C,0,12561,,255,219,108 F,0,12561,12715,0,1 S,0,12561,13179,0.3,0.6 P,0,0,0,12561 F,0,12715,13179,1,0 M,0,14416,,60.13134,268.2174 C,0,14416,,255,219,108 F,0,14416,14570,0,1 S,0,14416,15034,0.3,0.6 P,0,0,0,14416 F,0,14570,15034,1,0 M,0,16272,,286.0676,197.9059 C,0,16272,,164,164,255 F,0,16272,16426,0,1 S,0,16272,16890,0.3,0.6 P,0,0,0,16272 F,0,16426,16890,1,0 M,0,18128,,440.2882,64.92477 C,0,18128,,164,164,255 F,0,18128,18282,0,1 S,0,18128,18746,0.3,0.6 P,0,0,0,18128 F,0,18282,18746,1,0 M,0,19983,,452.5427,311.818 C,0,19983,,79,158,255 F,0,19983,20137,0,1 S,0,19983,20601,0.3,0.6 P,0,0,0,19983 F,0,20137,20601,1,0 M,0,21839,,156.9283,400.9914 C,0,21839,,79,158,255 F,0,21839,21993,0,1 S,0,21839,22457,0.3,0.6 P,0,0,0,21839 F,0,21993,22457,1,0 M,0,27406,,339.8408,79.7935 C,0,27406,,255,219,108 F,0,27406,27560,0,1 S,0,27406,28024,0.3,0.6 P,0,0,0,27406 F,0,27560,28024,1,0 M,0,29262,,101.9324,166.9059 C,0,29262,,255,219,108 F,0,29262,29416,0,1 S,0,29262,29880,0.3,0.6 P,0,0,0,29262 F,0,29416,29880,1,0 M,0,31117,,363.3326,166.4121 C,0,31117,,164,164,255 F,0,31117,31271,0,1 S,0,31117,31735,0.3,0.6 P,0,0,0,31117 F,0,31271,31735,1,0 M,0,32973,,325.7296,348.4741 C,0,32973,,164,164,255 F,0,32973,33127,0,1 S,0,32973,33591,0.3,0.6 P,0,0,0,32973 F,0,33127,33591,1,0 M,0,34829,,485.0752,180.7118 C,0,34829,,79,158,255 F,0,34829,34983,0,1 S,0,34829,35447,0.3,0.6 P,0,0,0,34829 F,0,34983,35447,1,0 M,0,36684,,353.7461,81.5938 C,0,36684,,79,158,255 F,0,36684,36838,0,1 S,0,36684,37302,0.3,0.6 P,0,0,0,36684 F,0,36838,37302,1,0 M,0,42251,,296.6303,78.98328 C,0,42251,,255,219,108 F,0,42251,42405,0,1 S,0,42251,42869,0.3,0.6 P,0,0,0,42251 F,0,42405,42869,1,0 M,0,44107,,192.8499,225.222 C,0,44107,,255,219,108 F,0,44107,44261,0,1 S,0,44107,44725,0.3,0.6 P,0,0,0,44107 F,0,44261,44725,1,0
//Storyboard Layer 4 (Overlay)
//Storyboard Sound Samples

[TimingPoints]
860,618.556701030928,3,2,1,40,1,0
15705,-100,3,2,2,40,0,0
16323,-100,3,2,1,40,0,0
16942,-100,3,2,3,40,0,0
17561,-100,3,2,1,40,0,0
19416,-100,3,2,2,40,0,0
20034,-100,3,2,1,40,0,0
20653,-100,3,2,4,40,0,0
21272,-100,3,2,2,40,0,0
22509,-100,3,2,1,40,0,0
23128,-100,3,2,5,40,0,0
23540,-100,3,2,1,40,0,0
23746,-100,3,2,6,40,0,0
24365,-100,3,2,3,40,0,0
24983,-100,3,2,7,40,0,0
25395,-100,3,2,1,40,0,0
25602,-100,3,2,2,40,0,0
26220,-100,3,2,8,40,0,0
26632,-100,3,2,6,40,0,0
27457,-100,3,2,3,40,0,0
28076,-100,3,2,4,40,0,0
28488,-100,3,2,2,40,0,0
29932,-100,3,2,1,40,0,0
30550,-100,3,2,2,40,0,0
31168,-100,3,2,1,40,0,0
31787,-100,3,2,3,40,0,0
32406,-100,3,2,1,40,0,0
34262,-100,3,2,2,40,0,0
34880,-100,3,2,1,40,0,0
35498,-100,3,2,4,40,0,0
35911,-100,3,2,2,40,0,0
37354,-100,3,2,1,40,0,0
37973,-100,3,2,5,40,0,0
38385,-100,3,2,1,40,0,0
38591,-100,3,2,6,40,0,0
39210,-100,3,2,3,40,0,0
39829,-100,3,2,7,40,0,0
40241,-100,3,2,1,40,0,0
40447,-100,3,2,2,40,0,0
41066,-100,3,2,8,40,0,0
41478,-100,3,2,6,40,0,0
42302,-100,3,2,3,40,0,0
42921,-100,3,2,4,40,0,0
43333,-100,3,2,2,40,0,0
44777,-100,3,2,1,40,0,0

[Colours]
Combo1 : 255,219,108
Combo2 : 164,164,255
Combo3 : 79,158,255
Combo4 : 247,108,130

[HitObjects]
130,123,860,6,1,P|181:86|241:102,1,130,0|0,1:1|0:0,0:0:0:0:
315,171,1890,1,1,0:0:0:0:
315,171,2097,2,1,L|401:162,1,86.6666666666667,8|0,2:2|0:0,0:0:0:0:
444,142,2715,2,1,P|436:206|455:267,1,130,0|0,1:1|0:0,0:0:0:0:
512,350,3746,1,1,0:0:0:0:
512,350,3952,2,1,L|425:358,1,86.6666666666667,8|0,2:2|0:0,0:0:0:0:
380,342,4571,6,1,B|313:347|313:347|278:350|255:327,1,130,0|0,1:1|0:0,0:0:0:0:
117,291,5808,2,1,P|112:312|113:333,2,43.3333333333333,8|0|0,2:2|0:0|0:0,0:0:0:0:
132,245,6427,2,1,B|69:261|73:212|7:234,2,130,0|0|8,1:1|0:0|2:2,0:0:0:0:
210,190,8076,5,1,0:0:0:0:
210,190,8282,2,1,P|270:173|321:210,1,130,0|0,1:1|0:0,0:0:0:0:
361,301,9313,1,0,1:1:0:0:
361,301,9519,1,8,2:2:0:0:
434,177,10138,2,1,P|439:134|426:93,1,86.6666666666667,0|0,1:1|0:0,0:0:0:0:
407,49,10756,2,1,L|453:44,2,43.3333333333333,0|0|0,0:0|0:0|0:0,0:0:0:0:
370,18,11375,1,8,2:2:0:0:
329,106,11787,5,1,0:0:0:0:
329,106,11994,2,1,B|306:129|271:126|271:126|204:121,1,130,0|0,1:1|0:0,0:0:0:0:
129,71,13024,1,1,0:0:0:0:
129,71,13231,2,1,L|43:62,1,86.6666666666667,8|0,2:2|1:1,0:0:0:0:
10,97,13849,2,1,P|-9:158|-1:222,1,130,0|0,1:1|0:0,0:0:0:0:
106,319,15086,6,1,B|93:289|93:289|103:235,1,86.6666666666667,14|0,2:2|0:0,0:0:0:0:
131,196,15705,2,1,P|193:186|224:131,1,130,2|2,1:2|2:2,0:0:0:0:
164,1,16942,1,10,2:2:0:0:
259,30,17354,1,0,1:1:0:0:
259,30,17561,2,1,L|387:7,1,130,10|0,2:1|0:0,0:0:0:0:
502,92,18798,6,1,L|417:106,1,86.6666666666667,10|0,2:2|0:0,0:0:0:0:
383,141,19416,2,1,B|403:165|397:200|397:200|387:266,1,130,2|2,1:2|2:2,0:0:0:0:
290,371,20653,1,10,2:2:0:0:
208,330,21066,1,1,0:0:0:0:
208,330,21272,2,1,P|142:327|83:351,1,130,2|0,1:1|0:0,0:0:0:0:
13,226,22509,6,1,P|26:184|28:141,1,86.6666666666667,10|0,2:2|0:0,0:0:0:0:
14,95,23128,2,1,P|57:92|98:79,1,86.6666666666667,2|0,1:2|0:0,0:0:0:0:
132,46,23746,1,2,1:2:0:0:
228,70,24158,1,1,0:0:0:0:
228,70,24365,2,1,P|241:111|243:154,1,86.6666666666667,10|0,2:2|0:0,0:0:0:0:
261,198,24983,2,1,P|304:200|345:213,1,86.6666666666667,2|0,1:2|0:0,0:0:0:0:
385,240,25602,1,2,1:2:0:0:
469,124,26220,6,1,P|462:82|429:54,1,86.6666666666667,10|0,2:2|1:1,0:0:0:0:
384,37,26839,2,1,B|352:50|321:53|321:53|293:40|267:16,1,130,2|2,1:2|1:2,0:0:0:0:
179,46,27870,1,1,0:0:0:0:
179,46,28076,2,1,L|163:131,1,86.6666666666667,10|0,2:2|1:1,0:0:0:0:
129,165,28695,2,1,P|67:155|36:100,1,130,2|0,1:1|0:0,0:0:0:0:
83,19,29725,5,0,1:1:0:0:
83,19,29932,2,1,P|125:32|168:34,1,86.6666666666667,10|0,2:2|0:0,0:0:0:0:
209,56,30550,2,1,P|271:66|301:120,1,130,2|2,1:2|1:2,0:0:0:0:
180,196,31787,1,10,2:2:0:0:
146,287,32199,1,0,1:1:0:0:
146,287,32406,2,1,B|205:313|209:264|271:297,1,130,2|0,1:1|0:0,0:0:0:0:
350,360,33437,5,1,0:0:0:0:
350,360,33643,2,1,L|366:275,1,86.6666666666667,10|0,2:2|1:1,0:0:0:0:
400,242,34262,2,1,L|423:114,1,130,2|2,1:2|1:2,0:0:0:0:
484,41,35292,1,1,0:0:0:0:
484,41,35498,1,10,2:2:0:0:
400,6,35911,1,0,1:1:0:0:
400,6,36117,2,1,B|364:12|343:34|343:34|314:21|279:27,1,130,2|0,1:1|0:0,0:0:0:0:
166,115,37354,6,1,P|209:116|250:129,1,86.6666666666667,10|0,2:2|1:1,0:0:0:0:
283,164,37973,2,1,P|251:193|228:229,1,86.6666666666667,2|0,1:2|0:0,0:0:0:0:
216,276,38591,1,2,2:2:0:0:
166,359,39004,1,0,1:1:0:0:
166,359,39210,2,1,P|124:371|81:373,1,86.6666666666667,10|0,2:2|1:1,0:0:0:0:
46,339,39829,2,1,P|77:309|100:273,1,86.6666666666667,2|0,1:2|0:0,0:0:0:0:
113,227,40447,1,2,2:2:0:0:
33,108,41066,6,1,P|40:66|73:38,1,86.6666666666667,10|0,2:2|1:1,0:0:0:0:
116,21,41684,2,1,B|182:31|182:31|217:37|241:17,1,130,2|6,1:2|2:2,0:0:0:0:
359,97,42921,2,1,P|316:98|275:111,1,86.6666666666667,10|0,2:2|1:1,0:0:0:0:
243,147,43540,2,1,P|183:170|118:167,1,130,2|0,1:1|0:0,0:0:0:0:
41,222,44571,1,0,1:1:0:0:
41,222,44777,2,1,L|57:307,1,86.6666666666667,8|0,2:2|0:0,0:0:0:0:
38,351,45396,1,0,1:1:0:0:
