osu file format v14

[General]
AudioFilename: audio.mp3
AudioLeadIn: 0
PreviewTime: 22303
Countdown: 0
SampleSet: Soft
StackLeniency: 0.7
Mode: 0
LetterboxInBreaks: 0
WidescreenStoryboard: 1
EpilepsyWarning: 1

[Editor]
Bookmarks: 22509
DistanceSpacing: 1.4
BeatDivisor: 3
GridSize: 32
TimelineZoom: 1

[Metadata]
Title:Happy Birthday
TitleUnicode:Happy Birthday
Artist:Happy Birthday
ArtistUnicode:Happy Birthday
Creator:Stompy_
Version:Happy Birthday
Source:
Tags:bday birth day kids music hbd piano english pop female vocals enuhq yahuri respirte tachibana_ wiwit
BeatmapID:3626661
BeatmapSetID:1771583

[Difficulty]
HPDrainRate:4.7
CircleSize:6
OverallDifficulty:7.5
ApproachRate:8
SliderMultiplier:2.1
SliderTickRate:1

[Events]
//Background and Video events
0,0,"bgbirthday.jpg",0,0
//Break Periods
//Storyboard Layer 0 (Background)
//Storyboard Layer 1 (Fail)
//Storyboard Layer 2 (Pass)
//Storyboard Layer 3 (Foreground)
Sprite,Foreground,Centre,"sb\hl.png",0,0 M,0,860,,115,91 C,0,860,,164,164,255 F,0,860,1014,0,1 S,0,860,1478,0.25,0.5 P,0,0,0,0 F,0,1014,1478,0.8,0 M,0,1890,,263,199 C,0,1890,,164,164,255 F,0,1890,2044,0,1 S,0,1890,2508,0.25,0.5 P,0,0,0,0 F,0,2044,2508,0.8,0 M,0,2509,,134,288 C,0,2509,,164,164,255 F,0,2509,2663,0,1 S,0,2509,3127,0.25,0.5 P,0,0,0,0 F,0,2663,3127,0.8,0 M,0,3178,,234.2612,357.3297 C,0,3178,,79,158,255 F,0,3178,3333,0,1 S,0,3178,3797,0.3,0.6 P,0,0,0,0 F,0,3333,3797,1,0 M,0,3952,,368,410 C,0,3952,,79,158,255 F,0,3952,4106,0,1 S,0,3952,4570,0.25,0.5 P,0,0,0,0 F,0,4106,4570,0.8,0 M,0,4571,,389,219 C,0,4571,,247,108,130 F,0,4571,4725,0,1 S,0,4571,5189,0.25,0.5 P,0,0,0,0 F,0,4725,5189,0.8,0 M,0,5808,,187,316 C,0,5808,,247,108,130 F,0,5808,5962,0,1 S,0,5808,6426,0.25,0.5 P,0,0,0,0 F,0,5962,6426,0.8,0 M,0,6427,,364,135 C,0,6427,,255,219,108 F,0,6427,6581,0,1 S,0,6427,7045,0.25,0.5 P,0,0,0,0 F,0,6581,7045,0.8,0 M,0,7664,,108,363 C,0,7664,,255,219,108 F,0,7664,7818,0,1 S,0,7664,8282,0.25,0.5 P,0,0,0,0 F,0,7818,8282,0.8,0 M,0,8333,,79.76756,196.5341 C,0,8333,,164,164,255 F,0,8333,8488,0,1 S,0,8333,8952,0.3,0.6 P,0,0,0,0 F,0,8488,8952,1,0 M,0,9313,,392,295 C,0,9313,,164,164,255 F,0,9313,9467,0,1 S,0,9313,9931,0.25,0.5 P,0,0,0,0 F,0,9467,9931,0.8,0 M,0,10138,,219,396 C,0,10138,,79,158,255 F,0,10138,10292,0,1 S,0,10138,10756,0.25,0.5 P,0,0,0,0 F,0,10292,10756,0.8,0 M,0,10963,,227,176 C,0,10963,,247,108,130 F,0,10963,11117,0,1 S,0,10963,11581,0.25,0.5 P,0,0,0,0 F,0,11117,11581,0.8,0 M,0,11632,,394.4644,94.06523 C,0,11632,,255,219,108 F,0,11632,11787,0,1 S,0,11632,12251,0.3,0.6 P,0,0,0,0 F,0,11787,12251,1,0 M,0,12251,,474.083,166.489 C,0,12251,,255,219,108 F,0,12251,12406,0,1 S,0,12251,12870,0.3,0.6 P,0,0,0,0 F,0,12406,12870,1,0 M,0,12921,,540.118,247.6955 C,0,12921,,255,219,108 F,0,12921,13075,0,1 S,0,12921,13539,0.3,0.6 P,0,0,0,0 F,0,13075,13539,1,0 M,0,13540,,386.6523,280.2379 C,0,13540,,164,164,255 F,0,13540,13694,0,1 S,0,13540,14158,0.3,0.6 P,0,0,0,0 F,0,13694,14158,1,0 M,0,14209,,287.9447,313.4449 C,0,14209,,164,164,255 F,0,14209,14364,0,1 S,0,14209,14828,0.3,0.6 P,0,0,0,0 F,0,14364,14828,1,0 M,0,14880,,243,121 C,0,14880,,79,158,255 F,0,14880,15034,0,1 S,0,14880,15498,0.25,0.5 P,0,0,0,0 F,0,15034,15498,0.8,0 M,0,15705,,175,266 C,0,15705,,247,108,130 F,0,15705,15859,0,1 S,0,15705,16323,0.25,0.5 P,0,0,0,0 F,0,15859,16323,0.8,0 M,0,16374,,200.0654,176.5691 C,0,16374,,247,108,130 F,0,16374,16529,0,1 S,0,16374,16993,0.3,0.6 P,0,0,0,0 F,0,16529,16993,1,0 M,0,16993,,368.3649,177.4201 C,0,16993,,255,219,108 F,0,16993,17148,0,1 S,0,16993,17612,0.3,0.6 P,0,0,0,0 F,0,17148,17612,1,0 M,0,17612,,457.7608,77.46692 C,0,17612,,255,219,108 F,0,17612,17767,0,1 S,0,17612,18231,0.3,0.6 P,0,0,0,0 F,0,17767,18231,1,0 M,0,18591,,483,416 C,0,18591,,255,219,108 F,0,18591,18745,0,1 S,0,18591,19209,0.25,0.5 P,0,0,0,0 F,0,18745,19209,0.8,0 M,0,19416,,422,247 C,0,19416,,164,164,255 F,0,19416,19570,0,1 S,0,19416,20034,0.25,0.5 P,0,0,0,0 F,0,19570,20034,0.8,0 M,0,20035,,223,407 C,0,20035,,164,164,255 F,0,20035,20189,0,1 S,0,20035,20653,0.25,0.5 P,0,0,0,0 F,0,20189,20653,0.8,0 M,0,20704,,132.0654,207.5691 C,0,20704,,79,158,255 F,0,20704,20859,0,1 S,0,20704,21323,0.3,0.6 P,0,0,0,0 F,0,20859,21323,1,0 M,0,21323,,298.0573,209.4487 C,0,21323,,79,158,255 F,0,21323,21478,0,1 S,0,21323,21942,0.3,0.6 P,0,0,0,0 F,0,21478,21942,1,0 M,0,22303,,523,97 C,0,22303,,79,158,255 F,0,22303,22457,0,1 S,0,22303,22921,0.25,0.5 P,0,0,0,0 F,0,22457,22921,0.8,0 M,0,23128,,447,258 C,0,23128,,247,108,130 F,0,23128,23282,0,1 S,0,23128,23746,0.25,0.5 P,0,0,0,0 F,0,23282,23746,0.8,0 M,0,23797,,430.3445,191.7585 C,0,23797,,247,108,130 F,0,23797,23952,0,1 S,0,23797,24416,0.3,0.6 P,0,0,0,0 F,0,23952,24416,1,0 M,0,24416,,191.6556,85.7585 C,0,24416,,255,219,108 F,0,24416,24571,0,1 S,0,24416,25035,0.3,0.6 P,0,0,0,0 F,0,24571,25035,1,0 M,0,25086,,348.2148,140.5307 C,0,25086,,255,219,108 F,0,25086,25240,0,1 S,0,25086,25704,0.3,0.6 P,0,0,0,0 F,0,25240,25704,1,0 M,0,25705,,231.3821,301.1533 C,0,25705,,255,219,108 F,0,25705,25859,0,1 S,0,25705,26323,0.3,0.6 P,0,0,0,0 F,0,25859,26323,1,0 M,0,26374,,118.5276,166.1823 C,0,26374,,164,164,255 F,0,26374,26529,0,1 S,0,26374,26993,0.3,0.6 P,0,0,0,0 F,0,26529,26993,1,0 M,0,26993,,98.09007,306.3541 C,0,26993,,164,164,255 F,0,26993,27148,0,1 S,0,26993,27612,0.3,0.6 P,0,0,0,0 F,0,27148,27612,1,0 M,0,27870,,407,397 C,0,27870,,164,164,255 F,0,27870,28024,0,1 S,0,27870,28488,0.25,0.5 P,0,0,0,0 F,0,28024,28488,0.8,0 M,0,28695,,284,332 C,0,28695,,79,158,255 F,0,28695,28849,0,1 S,0,28695,29313,0.25,0.5 P,0,0,0,0 F,0,28849,29313,0.8,0 M,0,29519,,456,183 C,0,29519,,79,158,255 F,0,29519,29673,0,1 S,0,29519,30137,0.25,0.5 P,0,0,0,0 F,0,29673,30137,0.8,0 M,0,30138,,320.2126,81.01791 C,0,30138,,247,108,130 F,0,30138,30292,0,1 S,0,30138,30756,0.3,0.6 P,0,0,0,0 F,0,30292,30756,1,0 M,0,30807,,324.7346,225.6456 C,0,30807,,247,108,130 F,0,30807,30962,0,1 S,0,30807,31426,0.3,0.6 P,0,0,0,0 F,0,30962,31426,1,0 M,0,31426,,371.3178,332.9611 C,0,31426,,247,108,130 F,0,31426,31581,0,1 S,0,31426,32045,0.3,0.6 P,0,0,0,0 F,0,31581,32045,1,0 M,0,32096,,178.7811,395.6297 C,0,32096,,255,219,108 F,0,32096,32250,0,1 S,0,32096,32714,0.3,0.6 P,0,0,0,0 F,0,32250,32714,1,0 M,0,32715,,146.2932,273.5753 C,0,32715,,255,219,108 F,0,32715,32869,0,1 S,0,32715,33333,0.3,0.6 P,0,0,0,0 F,0,32869,33333,1,0 M,0,33437,,197,175 C,0,33437,,255,219,108 F,0,33437,33591,0,1 S,0,33437,34055,0.25,0.5 P,0,0,0,0 F,0,33591,34055,0.8,0 M,0,34262,,462,73 C,0,34262,,164,164,255 F,0,34262,34416,0,1 S,0,34262,34880,0.25,0.5 P,0,0,0,0 F,0,34416,34880,0.8,0 M,0,34931,,518.4447,223.6313 C,0,34931,,164,164,255 F,0,34931,35086,0,1 S,0,34931,35550,0.3,0.6 P,0,0,0,0 F,0,35086,35550,1,0 M,0,35550,,420.1438,228.4331 C,0,35550,,79,158,255 F,0,35550,35705,0,1 S,0,35550,36169,0.3,0.6 P,0,0,0,0 F,0,35705,36169,1,0 M,0,36220,,492.3897,383.4976 C,0,36220,,79,158,255 F,0,36220,36374,0,1 S,0,36220,36838,0.3,0.6 P,0,0,0,0 F,0,36374,36838,1,0 M,0,36942,,348,412 C,0,36942,,79,158,255 F,0,36942,37096,0,1 S,0,36942,37560,0.25,0.5 P,0,0,0,0 F,0,37096,37560,0.8,0 M,0,37611,,310.0661,283.0863 C,0,37611,,247,108,130 F,0,37611,37766,0,1 S,0,37611,38230,0.3,0.6 P,0,0,0,0 F,0,37766,38230,1,0 M,0,38230,,195.5701,268.9442 C,0,38230,,247,108,130 F,0,38230,38385,0,1 S,0,38230,38849,0.3,0.6 P,0,0,0,0 F,0,38385,38849,1,0 M,0,38900,,253.6696,190.9904 C,0,38900,,247,108,130 F,0,38900,39054,0,1 S,0,38900,39518,0.3,0.6 P,0,0,0,0 F,0,39054,39518,1,0 M,0,39622,,426,134 C,0,39622,,247,108,130 F,0,39622,39776,0,1 S,0,39622,40240,0.25,0.5 P,0,0,0,0 F,0,39776,40240,0.8,0 M,0,40447,,372,247 C,0,40447,,255,219,108 F,0,40447,40601,0,1 S,0,40447,41065,0.25,0.5 P,0,0,0,0 F,0,40601,41065,0.8,0 M,0,41066,,308,434 C,0,41066,,164,164,255 F,0,41066,41220,0,1 S,0,41066,41684,0.25,0.5 P,0,0,0,0 F,0,41220,41684,0.8,0 M,0,41735,,252.8436,301.2833 C,0,41735,,164,164,255 F,0,41735,41890,0,1 S,0,41735,42354,0.3,0.6 P,0,0,0,0 F,0,41890,42354,1,0 M,0,42354,,112.5271,394.3397 C,0,42354,,164,164,255 F,0,42354,42509,0,1 S,0,42354,42973,0.3,0.6 P,0,0,0,0 F,0,42509,42973,1,0 M,0,43128,,72,163 C,0,43128,,164,164,255 F,0,43128,43282,0,1 S,0,43128,43746,0.25,0.5 P,0,0,0,0 F,0,43282,43746,0.8,0 M,0,43797,,255.5546,119.4094 C,0,43797,,79,158,255 F,0,43797,43952,0,1 S,0,43797,44416,0.3,0.6 P,0,0,0,0 F,0,43952,44416,1,0 M,0,44571,,404,76 C,0,44571,,79,158,255 F,0,44571,44725,0,1 S,0,44571,45189,0.25,0.5 P,0,0,0,0 F,0,44725,45189,0.8,0 M,0,45396,,311,309 C,0,45396,,247,108,130 F,0,45396,45550,0,1 S,0,45396,46014,0.25,0.5 P,0,0,0,0 F,0,45550,46014,0.8,0
Sprite,Foreground,Centre,"sb\hl.png",0,0 M,0,860,,115,91 C,0,860,,164,164,255 F,0,860,1014,0,1 S,0,860,1478,0.3,0.6 P,0,0,0,0 F,0,1014,1478,1,0 M,0,2097,,263,199 C,0,2097,,164,164,255 F,0,2097,2251,0,1 S,0,2097,2715,0.25,0.5 P,0,0,0,0 F,0,2251,2715,0.8,0 M,0,2766,,147.6132,291.2602 C,0,2766,,79,158,255 F,0,2766,2921,0,1 S,0,2766,3385,0.3,0.6 P,0,0,0,0 F,0,2921,3385,1,0 M,0,3746,,368,410 C,0,3746,,79,158,255 F,0,3746,3900,0,1 S,0,3746,4364,0.25,0.5 P,0,0,0,0 F,0,3900,4364,0.8,0 M,0,4365,,389,219 C,0,4365,,79,158,255 F,0,4365,4519,0,1 S,0,4365,4983,0.25,0.5 P,0,0,0,0 F,0,4519,4983,0.8,0 M,0,5034,,379.8436,312.8089 C,0,5034,,247,108,130 F,0,5034,5189,0,1 S,0,5034,5653,0.3,0.6 P,0,0,0,0 F,0,5189,5653,1,0 M,0,5808,,187,316 C,0,5808,,247,108,130 F,0,5808,5962,0,1 S,0,5808,6426,0.3,0.6 P,0,0,0,0 F,0,5962,6426,1,0 M,0,6427,,364,135 C,0,6427,,255,219,108 F,0,6427,6581,0,1 S,0,6427,7045,0.3,0.6 P,0,0,0,0 F,0,6581,7045,1,0 M,0,7664,,108,363 C,0,7664,,255,219,108 F,0,7664,7818,0,1 S,0,7664,8282,0.3,0.6 P,0,0,0,0 F,0,7818,8282,1,0 M,0,8385,,92.47964,190.8788 C,0,8385,,164,164,255 F,0,8385,8539,0,1 S,0,8385,9003,0.3,0.6 P,0,0,0,0 F,0,8539,9003,1,0 M,0,9519,,392,295 C,0,9519,,79,158,255 F,0,9519,9673,0,1 S,0,9519,10137,0.25,0.5 P,0,0,0,0 F,0,9673,10137,0.8,0 M,0,10138,,219,396 C,0,10138,,79,158,255 F,0,10138,10292,0,1 S,0,10138,10756,0.3,0.6 P,0,0,0,0 F,0,10292,10756,1,0 M,0,11169,,205,100 C,0,11169,,247,108,130 F,0,11169,11323,0,1 S,0,11169,11787,0.25,0.5 P,0,0,0,0 F,0,11323,11787,0.8,0 M,0,11994,,491,100 C,0,11994,,255,219,108 F,0,11994,12148,0,1 S,0,11994,12612,0.25,0.5 P,0,0,0,0 F,0,12148,12612,0.8,0 M,0,12663,,580.3432,265.8483 C,0,12663,,255,219,108 F,0,12663,12818,0,1 S,0,12663,13282,0.3,0.6 P,0,0,0,0 F,0,12818,13282,1,0 M,0,13282,,443.4139,318.2753 C,0,13282,,164,164,255 F,0,13282,13437,0,1 S,0,13282,13901,0.3,0.6 P,0,0,0,0 F,0,13437,13901,1,0 M,0,13952,,225.8418,342.259 C,0,13952,,164,164,255 F,0,13952,14106,0,1 S,0,13952,14570,0.3,0.6 P,0,0,0,0 F,0,14106,14570,1,0 M,0,14674,,275,181 C,0,14674,,79,158,255 F,0,14674,14828,0,1 S,0,14674,15292,0.25,0.5 P,0,0,0,0 F,0,14828,15292,0.8,0 M,0,15343,,109.6562,165.0869 C,0,15343,,247,108,130 F,0,15343,15498,0,1 S,0,15343,15962,0.3,0.6 P,0,0,0,0 F,0,15498,15962,1,0 M,0,15962,,157.3326,342.7426 C,0,15962,,247,108,130 F,0,15962,16117,0,1 S,0,15962,16581,0.3,0.6 P,0,0,0,0 F,0,16117,16581,1,0 M,0,16632,,261.2302,224.4175 C,0,16632,,247,108,130 F,0,16632,16786,0,1 S,0,16632,17250,0.3,0.6 P,0,0,0,0 F,0,16786,17250,1,0 M,0,17251,,392.6189,120.1013 C,0,17251,,255,219,108 F,0,17251,17405,0,1 S,0,17251,17869,0.3,0.6 P,0,0,0,0 F,0,17405,17869,1,0 M,0,17870,,524.4325,118.7451 C,0,17870,,255,219,108 F,0,17870,18024,0,1 S,0,17870,18488,0.3,0.6 P,0,0,0,0 F,0,18024,18488,1,0 M,0,18798,,483,416 C,0,18798,,164,164,255 F,0,18798,18952,0,1 S,0,18798,19416,0.25,0.5 P,0,0,0,0 F,0,18952,19416,0.8,0 M,0,19467,,406.3481,247.1405 C,0,19467,,164,164,255 F,0,19467,19622,0,1 S,0,19467,20086,0.3,0.6 P,0,0,0,0 F,0,19622,20086,1,0 M,0,20086,,237.9856,402.421 C,0,20086,,164,164,255 F,0,20086,20241,0,1 S,0,20086,20705,0.3,0.6 P,0,0,0,0 F,0,20241,20705,1,0 M,0,20756,,146.3588,214.1305 C,0,20756,,79,158,255 F,0,20756,20910,0,1 S,0,20756,21374,0.3,0.6 P,0,0,0,0 F,0,20910,21374,1,0 M,0,21375,,305.2155,196.1299 C,0,21375,,79,158,255 F,0,21375,21529,0,1 S,0,21375,21993,0.3,0.6 P,0,0,0,0 F,0,21529,21993,1,0 M,0,22509,,523,97 C,0,22509,,247,108,130 F,0,22509,22663,0,1 S,0,22509,23127,0.25,0.5 P,0,0,0,0 F,0,22663,23127,0.8,0 M,0,23128,,447,258 C,0,23128,,247,108,130 F,0,23128,23282,0,1 S,0,23128,23746,0.3,0.6 P,0,0,0,0 F,0,23282,23746,1,0 M,0,23849,,416.3234,198.9072 C,0,23849,,247,108,130 F,0,23849,24003,0,1 S,0,23849,24467,0.3,0.6 P,0,0,0,0 F,0,24003,24467,1,0 M,0,24468,,205.6767,92.90715 C,0,24468,,255,219,108 F,0,24468,24622,0,1 S,0,24468,25086,0.3,0.6 P,0,0,0,0 F,0,24622,25086,1,0 M,0,25137,,349.6664,156.0199 C,0,25137,,255,219,108 F,0,25137,25292,0,1 S,0,25137,25756,0.3,0.6 P,0,0,0,0 F,0,25292,25756,1,0 M,0,25756,,234.5731,285.7299 C,0,25756,,255,219,108 F,0,25756,25911,0,1 S,0,25756,26375,0.3,0.6 P,0,0,0,0 F,0,25911,26375,1,0 M,0,26426,,123.5567,180.2076 C,0,26426,,164,164,255 F,0,26426,26580,0,1 S,0,26426,27044,0.3,0.6 P,0,0,0,0 F,0,26580,27044,1,0 M,0,27045,,112.6239,300.5198 C,0,27045,,164,164,255 F,0,27045,27199,0,1 S,0,27045,27663,0.3,0.6 P,0,0,0,0 F,0,27199,27663,1,0 M,0,28076,,407,397 C,0,28076,,79,158,255 F,0,28076,28230,0,1 S,0,28076,28694,0.25,0.5 P,0,0,0,0 F,0,28230,28694,0.8,0 M,0,28695,,284,332 C,0,28695,,79,158,255 F,0,28695,28849,0,1 S,0,28695,29313,0.3,0.6 P,0,0,0,0 F,0,28849,29313,1,0 M,0,29725,,472,114 C,0,29725,,79,158,255 F,0,29725,29879,0,1 S,0,29725,30343,0.25,0.5 P,0,0,0,0 F,0,29879,30343,0.8,0 M,0,30550,,285,191 C,0,30550,,247,108,130 F,0,30550,30704,0,1 S,0,30550,31168,0.25,0.5 P,0,0,0,0 F,0,30704,31168,0.8,0 M,0,31169,,388,256 C,0,31169,,247,108,130 F,0,31169,31323,0,1 S,0,31169,31787,0.25,0.5 P,0,0,0,0 F,0,31323,31787,0.8,0 M,0,31838,,239.7036,348.7289 C,0,31838,,255,219,108 F,0,31838,31993,0,1 S,0,31838,32457,0.3,0.6 P,0,0,0,0 F,0,31993,32457,1,0 M,0,32457,,126.5244,328.6972 C,0,32457,,255,219,108 F,0,32457,32612,0,1 S,0,32457,33076,0.3,0.6 P,0,0,0,0 F,0,32612,33076,1,0 M,0,33231,,223,240 C,0,33231,,255,219,108 F,0,33231,33385,0,1 S,0,33231,33849,0.25,0.5 P,0,0,0,0 F,0,33385,33849,0.8,0 M,0,33900,,320.8065,129.4835 C,0,33900,,164,164,255 F,0,33900,34055,0,1 S,0,33900,34519,0.3,0.6 P,0,0,0,0 F,0,34055,34519,1,0 M,0,34519,,428.2126,123.2836 C,0,34519,,164,164,255 F,0,34519,34674,0,1 S,0,34519,35138,0.3,0.6 P,0,0,0,0 F,0,34674,35138,1,0 M,0,35189,,528.1804,147.688 C,0,35189,,164,164,255 F,0,35189,35343,0,1 S,0,35189,35807,0.3,0.6 P,0,0,0,0 F,0,35343,35807,1,0 M,0,35808,,443.1486,300.905 C,0,35808,,79,158,255 F,0,35808,35962,0,1 S,0,35808,36426,0.3,0.6 P,0,0,0,0 F,0,35962,36426,1,0 M,0,36477,,420.0188,387.6088 C,0,36477,,79,158,255 F,0,36477,36632,0,1 S,0,36477,37096,0.3,0.6 P,0,0,0,0 F,0,36632,37096,1,0 M,0,37148,,285,381 C,0,37148,,79,158,255 F,0,37148,37302,0,1 S,0,37148,37766,0.25,0.5 P,0,0,0,0 F,0,37302,37766,0.8,0 M,0,37973,,213,344 C,0,37973,,247,108,130 F,0,37973,38127,0,1 S,0,37973,38591,0.25,0.5 P,0,0,0,0 F,0,38127,38591,0.8,0 M,0,38642,,304.4711,159.7872 C,0,38642,,247,108,130 F,0,38642,38797,0,1 S,0,38642,39261,0.3,0.6 P,0,0,0,0 F,0,38797,39261,1,0 M,0,39416,,356,109 C,0,39416,,247,108,130 F,0,39416,39570,0,1 S,0,39416,40034,0.25,0.5 P,0,0,0,0 F,0,39570,40034,0.8,0 M,0,40035,,532.3239,173.4152 C,0,40035,,255,219,108 F,0,40035,40189,0,1 S,0,40035,40653,0.3,0.6 P,0,0,0,0 F,0,40189,40653,1,0 M,0,40704,,432.2991,251.8236 C,0,40704,,255,219,108 F,0,40704,40859,0,1 S,0,40704,41323,0.3,0.6 P,0,0,0,0 F,0,40859,41323,1,0 M,0,41323,,321.1039,356.348 C,0,41323,,164,164,255 F,0,41323,41478,0,1 S,0,41323,41942,0.3,0.6 P,0,0,0,0 F,0,41478,41942,1,0 M,0,41993,,190.0011,338.5552 C,0,41993,,164,164,255 F,0,41993,42147,0,1 S,0,41993,42611,0.3,0.6 P,0,0,0,0 F,0,42147,42611,1,0 M,0,42612,,101.9157,321.3894 C,0,42612,,164,164,255 F,0,42612,42766,0,1 S,0,42612,43230,0.3,0.6 P,0,0,0,0 F,0,42766,43230,1,0 M,0,43334,,65,88 C,0,43334,,164,164,255 F,0,43334,43488,0,1 S,0,43334,43952,0.25,0.5 P,0,0,0,0 F,0,43488,43952,0.8,0 M,0,44158,,342,83 C,0,44158,,79,158,255 F,0,44158,44312,0,1 S,0,44158,44776,0.25,0.5 P,0,0,0,0 F,0,44312,44776,0.8,0 M,0,44777,,498,198 C,0,44777,,79,158,255 F,0,44777,44931,0,1 S,0,44777,45395,0.25,0.5 P,0,0,0,0 F,0,44931,45395,0.8,0
Sprite,Foreground,Centre,"sb\hl.png",0,0 M,0,911,,110.1003,107.7906 C,0,911,,164,164,255 F,0,911,1066,0,1 S,0,911,1530,0.3,0.6 P,0,0,0,0 F,0,1066,1530,1,0 M,0,2097,,263,199 C,0,2097,,164,164,255 F,0,2097,2251,0,1 S,0,2097,2715,0.3,0.6 P,0,0,0,0 F,0,2251,2715,1,0 M,0,2818,,160.9772,295.4182 C,0,2818,,79,158,255 F,0,2818,2972,0,1 S,0,2818,3436,0.3,0.6 P,0,0,0,0 F,0,2972,3436,1,0 M,0,3952,,368,410 C,0,3952,,79,158,255 F,0,3952,4106,0,1 S,0,3952,4570,0.3,0.6 P,0,0,0,0 F,0,4106,4570,1,0 M,0,4571,,389,219 C,0,4571,,247,108,130 F,0,4571,4725,0,1 S,0,4571,5189,0.3,0.6 P,0,0,0,0 F,0,4725,5189,1,0 M,0,5859,,200.5117,312.9581 C,0,5859,,247,108,130 F,0,5859,6014,0,1 S,0,5859,6478,0.3,0.6 P,0,0,0,0 F,0,6014,6478,1,0 M,0,6478,,350.9841,140.1514 C,0,6478,,255,219,108 F,0,6478,6633,0,1 S,0,6478,7097,0.3,0.6 P,0,0,0,0 F,0,6633,7097,1,0 M,0,7715,,109.7016,349.1038 C,0,7715,,255,219,108 F,0,7715,7870,0,1 S,0,7715,8334,0.3,0.6 P,0,0,0,0 F,0,7870,8334,1,0 M,0,8436,,106.0538,187.5866 C,0,8436,,164,164,255 F,0,8436,8591,0,1 S,0,8436,9055,0.3,0.6 P,0,0,0,0 F,0,8591,9055,1,0 M,0,9519,,392,295 C,0,9519,,79,158,255 F,0,9519,9673,0,1 S,0,9519,10137,0.3,0.6 P,0,0,0,0 F,0,9673,10137,1,0 M,0,10189,,220.7016,382.1038 C,0,10189,,79,158,255 F,0,10189,10344,0,1 S,0,10189,10808,0.3,0.6 P,0,0,0,0 F,0,10344,10808,1,0 M,0,11375,,328,80 C,0,11375,,255,219,108 F,0,11375,11529,0,1 S,0,11375,11993,0.25,0.5 P,0,0,0,0 F,0,11529,11993,0.8,0 M,0,11994,,491,100 C,0,11994,,255,219,108 F,0,11994,12148,0,1 S,0,11994,12612,0.3,0.6 P,0,0,0,0 F,0,12148,12612,1,0 M,0,12715,,581.6675,252.83 C,0,12715,,255,219,108 F,0,12715,12869,0,1 S,0,12715,13333,0.3,0.6 P,0,0,0,0 F,0,12869,13333,1,0 M,0,13334,,434.5332,307.5218 C,0,13334,,164,164,255 F,0,13334,13488,0,1 S,0,13334,13952,0.3,0.6 P,0,0,0,0 F,0,13488,13952,1,0 M,0,14003,,239.6523,340.1911 C,0,14003,,164,164,255 F,0,14003,14158,0,1 S,0,14003,14622,0.3,0.6 P,0,0,0,0 F,0,14158,14622,1,0 M,0,15086,,109,88 C,0,15086,,247,108,130 F,0,15086,15240,0,1 S,0,15086,15704,0.25,0.5 P,0,0,0,0 F,0,15240,15704,0.8,0 M,0,15705,,175,266 C,0,15705,,247,108,130 F,0,15705,15859,0,1 S,0,15705,16323,0.3,0.6 P,0,0,0,0 F,0,15859,16323,1,0 M,0,16426,,214.3588,183.1305 C,0,16426,,247,108,130 F,0,16426,16580,0,1 S,0,16426,17044,0.3,0.6 P,0,0,0,0 F,0,16580,17044,1,0 M,0,17045,,382.9413,173.1015 C,0,17045,,255,219,108 F,0,17045,17199,0,1 S,0,17045,17663,0.3,0.6 P,0,0,0,0 F,0,17199,17663,1,0 M,0,17664,,470.047,87.3047 C,0,17664,,255,219,108 F,0,17664,17818,0,1 S,0,17664,18282,0.3,0.6 P,0,0,0,0 F,0,17818,18282,1,0 M,0,18798,,483,416 C,0,18798,,164,164,255 F,0,18798,18952,0,1 S,0,18798,19416,0.3,0.6 P,0,0,0,0 F,0,18952,19416,1,0 M,0,19519,,391.1312,250.4981 C,0,19519,,164,164,255 F,0,19519,19673,0,1 S,0,19519,20137,0.3,0.6 P,0,0,0,0 F,0,19673,20137,1,0 M,0,20138,,251.7566,395.0678 C,0,20138,,164,164,255 F,0,20138,20292,0,1 S,0,20138,20756,0.3,0.6 P,0,0,0,0 F,0,20292,20756,1,0 M,0,20807,,158.7415,223.7814 C,0,20807,,79,158,255 F,0,20807,20962,0,1 S,0,20807,21426,0.3,0.6 P,0,0,0,0 F,0,20962,21426,1,0 M,0,21426,,305.532,180.9946 C,0,21426,,79,158,255 F,0,21426,21581,0,1 S,0,21426,22045,0.3,0.6 P,0,0,0,0 F,0,21581,22045,1,0 M,0,22509,,523,97 C,0,22509,,247,108,130 F,0,22509,22663,0,1 S,0,22509,23127,0.3,0.6 P,0,0,0,0 F,0,22663,23127,1,0 M,0,23179,,456.2165,270.6414 C,0,23179,,247,108,130 F,0,23179,23334,0,1 S,0,23179,23798,0.3,0.6 P,0,0,0,0 F,0,23334,23798,1,0 M,0,23900,,403.8379,208.4443 C,0,23900,,247,108,130 F,0,23900,24055,0,1 S,0,23900,24519,0.3,0.6 P,0,0,0,0 F,0,24055,24519,1,0 M,0,24519,,218.1621,102.4442 C,0,24519,,255,219,108 F,0,24519,24674,0,1 S,0,24519,25138,0.3,0.6 P,0,0,0,0 F,0,24674,25138,1,0 M,0,25189,,346.982,171.3454 C,0,25189,,255,219,108 F,0,25189,25343,0,1 S,0,25189,25807,0.3,0.6 P,0,0,0,0 F,0,25343,25807,1,0 M,0,25808,,235.4682,270.5534 C,0,25808,,255,219,108 F,0,25808,25962,0,1 S,0,25808,26426,0.3,0.6 P,0,0,0,0 F,0,25962,26426,1,0 M,0,26477,,126.6114,195.024 C,0,26477,,164,164,255 F,0,26477,26632,0,1 S,0,26477,27096,0.3,0.6 P,0,0,0,0 F,0,26632,27096,1,0 M,0,27096,,128.0018,297.497 C,0,27096,,164,164,255 F,0,27096,27251,0,1 S,0,27096,27715,0.3,0.6 P,0,0,0,0 F,0,27251,27715,1,0 M,0,28076,,407,397 C,0,28076,,79,158,255 F,0,28076,28230,0,1 S,0,28076,28694,0.3,0.6 P,0,0,0,0 F,0,28230,28694,1,0 M,0,28746,,299.2644,328.1192 C,0,28746,,79,158,255 F,0,28746,28901,0,1 S,0,28746,29365,0.3,0.6 P,0,0,0,0 F,0,28901,29365,1,0 M,0,29932,,356,131 C,0,29932,,247,108,130 F,0,29932,30086,0,1 S,0,29932,30550,0.25,0.5 P,0,0,0,0 F,0,30086,30550,0.8,0 M,0,30601,,297.2614,200.8608 C,0,30601,,247,108,130 F,0,30601,30756,0,1 S,0,30601,31220,0.3,0.6 P,0,0,0,0 F,0,30756,31220,1,0 M,0,31220,,384.5389,271.365 C,0,31220,,247,108,130 F,0,31220,31375,0,1 S,0,31220,31839,0.3,0.6 P,0,0,0,0 F,0,31375,31839,1,0 M,0,31890,,224.9955,354.3079 C,0,31890,,255,219,108 F,0,31890,32044,0,1 S,0,31890,32508,0.3,0.6 P,0,0,0,0 F,0,32044,32508,1,0 M,0,32509,,117.4092,316.7363 C,0,32509,,255,219,108 F,0,32509,32663,0,1 S,0,32509,33127,0.3,0.6 P,0,0,0,0 F,0,32663,33127,1,0 M,0,33643,,258,87 C,0,33643,,164,164,255 F,0,33643,33797,0,1 S,0,33643,34261,0.25,0.5 P,0,0,0,0 F,0,33797,34261,0.8,0 M,0,34262,,462,73 C,0,34262,,164,164,255 F,0,34262,34416,0,1 S,0,34262,34880,0.3,0.6 P,0,0,0,0 F,0,34416,34880,1,0 M,0,34983,,521.8894,208.2626 C,0,34983,,164,164,255 F,0,34983,35137,0,1 S,0,34983,35601,0.3,0.6 P,0,0,0,0 F,0,35137,35601,1,0 M,0,35602,,423.2875,243.8661 C,0,35602,,79,158,255 F,0,35602,35756,0,1 S,0,35602,36220,0.3,0.6 P,0,0,0,0 F,0,35756,36220,1,0 M,0,36271,,479.4315,392.108 C,0,36271,,79,158,255 F,0,36271,36426,0,1 S,0,36271,36890,0.3,0.6 P,0,0,0,0 F,0,36426,36890,1,0 M,0,37354,,375,243 C,0,37354,,247,108,130 F,0,37354,37508,0,1 S,0,37354,37972,0.25,0.5 P,0,0,0,0 F,0,37508,37972,0.8,0 M,0,37973,,213,344 C,0,37973,,247,108,130 F,0,37973,38127,0,1 S,0,37973,38591,0.3,0.6 P,0,0,0,0 F,0,38127,38591,1,0 M,0,38694,,290.5716,153.843 C,0,38694,,247,108,130 F,0,38694,38848,0,1 S,0,38694,39312,0.3,0.6 P,0,0,0,0 F,0,38848,39312,1,0 M,0,39829,,519,115 C,0,39829,,255,219,108 F,0,39829,39983,0,1 S,0,39829,40447,0.25,0.5 P,0,0,0,0 F,0,39983,40447,0.8,0 M,0,40498,,382.5289,235.7872 C,0,40498,,255,219,108 F,0,40498,40653,0,1 S,0,40498,41117,0.3,0.6 P,0,0,0,0 F,0,40653,41117,1,0 M,0,41117,,310.6519,418.4749 C,0,41117,,164,164,255 F,0,41117,41272,0,1 S,0,41117,41736,0.3,0.6 P,0,0,0,0 F,0,41272,41736,1,0 M,0,41787,,237.6873,305.5667 C,0,41787,,164,164,255 F,0,41787,41941,0,1 S,0,41787,42405,0.3,0.6 P,0,0,0,0 F,0,41941,42405,1,0 M,0,42406,,103.5034,381.6187 C,0,42406,,164,164,255 F,0,42406,42560,0,1 S,0,42406,43024,0.3,0.6 P,0,0,0,0 F,0,42560,43024,1,0 M,0,43540,,191,79 C,0,43540,,79,158,255 F,0,43540,43694,0,1 S,0,43540,44158,0.25,0.5 P,0,0,0,0 F,0,43694,44158,0.8,0 M,0,44209,,357.6761,81.47594 C,0,44209,,79,158,255 F,0,44209,44364,0,1 S,0,44209,44828,0.3,0.6 P,0,0,0,0 F,0,44364,44828,1,0 M,0,44983,,397,325 C,0,44983,,79,158,255 F,0,44983,45137,0,1 S,0,44983,45601,0.25,0.5 P,0,0,0,0 F,0,45137,45601,0.8,0
Sprite,Foreground,Centre,"sb\hl.png",0,0 M,0,963,,107.2783,125.0485 C,0,963,,164,164,255 F,0,963,1117,0,1 S,0,963,1581,0.3,0.6 P,0,0,0,0 F,0,1117,1581,1,0 M,0,2148,,249.2006,196.6389 C,0,2148,,164,164,255 F,0,2148,2303,0,1 S,0,2148,2767,0.3,0.6 P,0,0,0,0 F,0,2303,2767,1,0 M,0,2869,,173.8409,300.918 C,0,2869,,79,158,255 F,0,2869,3024,0,1 S,0,2869,3488,0.3,0.6 P,0,0,0,0 F,0,3024,3488,1,0 M,0,4003,,358.7246,399.5952 C,0,4003,,79,158,255 F,0,4003,4158,0,1 S,0,4003,4622,0.3,0.6 P,0,0,0,0 F,0,4158,4622,1,0 M,0,4622,,385.0516,232.4223 C,0,4622,,247,108,130 F,0,4622,4777,0,1 S,0,4622,5241,0.3,0.6 P,0,0,0,0 F,0,4777,5241,1,0 M,0,5911,,212.8352,306.8131 C,0,5911,,247,108,130 F,0,5911,6065,0,1 S,0,5911,6529,0.3,0.6 P,0,0,0,0 F,0,6065,6529,1,0 M,0,6530,,337.6646,144.4512 C,0,6530,,255,219,108 F,0,6530,6684,0,1 S,0,6530,7148,0.3,0.6 P,0,0,0,0 F,0,6684,7148,1,0 M,0,7767,,111.4032,335.2076 C,0,7767,,255,219,108 F,0,7767,7921,0,1 S,0,7767,8385,0.3,0.6 P,0,0,0,0 F,0,7921,8385,1,0 M,0,8488,,119.9893,187.5475 C,0,8488,,164,164,255 F,0,8488,8642,0,1 S,0,8488,9106,0.3,0.6 P,0,0,0,0 F,0,8642,9106,1,0 M,0,9570,,380.2325,287.5341 C,0,9570,,79,158,255 F,0,9570,9725,0,1 S,0,9570,10189,0.3,0.6 P,0,0,0,0 F,0,9725,10189,1,0 M,0,10241,,222.4032,368.2076 C,0,10241,,79,158,255 F,0,10241,10395,0,1 S,0,10241,10859,0.3,0.6 P,0,0,0,0 F,0,10395,10859,1,0 M,0,11375,,328,80 C,0,11375,,255,219,108 F,0,11375,11529,0,1 S,0,11375,11993,0.3,0.6 P,0,0,0,0 F,0,11529,11993,1,0 M,0,12045,,488.7441,113.8171 C,0,12045,,255,219,108 F,0,12045,12200,0,1 S,0,12045,12664,0.3,0.6 P,0,0,0,0 F,0,12200,12664,1,0 M,0,12766,,575.2809,240.8997 C,0,12766,,255,219,108 F,0,12766,12921,0,1 S,0,12766,13385,0.3,0.6 P,0,0,0,0 F,0,12921,13385,1,0 M,0,13385,,424.2271,298.0992 C,0,13385,,164,164,255 F,0,13385,13540,0,1 S,0,13385,14004,0.3,0.6 P,0,0,0,0 F,0,13540,14004,1,0 M,0,14055,,252.9504,335.9332 C,0,14055,,164,164,255 F,0,14055,14209,0,1 S,0,14055,14673,0.3,0.6 P,0,0,0,0 F,0,14209,14673,1,0 M,0,15086,,109,88 C,0,15086,,247,108,130 F,0,15086,15240,0,1 S,0,15086,15704,0.3,0.6 P,0,0,0,0 F,0,15240,15704,1,0 M,0,15756,,171.4665,281.3485 C,0,15756,,247,108,130 F,0,15756,15911,0,1 S,0,15756,16375,0.3,0.6 P,0,0,0,0 F,0,15911,16375,1,0 M,0,16477,,226.7415,192.7814 C,0,16477,,247,108,130 F,0,16477,16632,0,1 S,0,16477,17096,0.3,0.6 P,0,0,0,0 F,0,16632,17096,1,0 M,0,17096,,394.2977,162.9716 C,0,17096,,255,219,108 F,0,17096,17251,0,1 S,0,17096,17715,0.3,0.6 P,0,0,0,0 F,0,17251,17715,1,0 M,0,17715,,482.905,96.38305 C,0,17715,,255,219,108 F,0,17715,17870,0,1 S,0,17715,18334,0.3,0.6 P,0,0,0,0 F,0,17870,18334,1,0 M,0,18849,,481.5479,400.3171 C,0,18849,,164,164,255 F,0,18849,19004,0,1 S,0,18849,19468,0.3,0.6 P,0,0,0,0 F,0,19004,19468,1,0 M,0,19570,,377.1549,257.4022 C,0,19570,,164,164,255 F,0,19570,19725,0,1 S,0,19570,20189,0.3,0.6 P,0,0,0,0 F,0,19725,20189,1,0 M,0,20189,,263.5552,384.8425 C,0,20189,,164,164,255 F,0,20189,20344,0,1 S,0,20189,20808,0.3,0.6 P,0,0,0,0 F,0,20344,20808,1,0 M,0,20859,,168.8905,235.8168 C,0,20859,,79,158,255 F,0,20859,21013,0,1 S,0,20859,21477,0.3,0.6 P,0,0,0,0 F,0,21013,21477,1,0 M,0,21478,,298.9161,167.3479 C,0,21478,,79,158,255 F,0,21478,21632,0,1 S,0,21478,22096,0.3,0.6 P,0,0,0,0 F,0,21632,22096,1,0 M,0,22560,,519.9642,112.4547 C,0,22560,,247,108,130 F,0,22560,22715,0,1 S,0,22560,23179,0.3,0.6 P,0,0,0,0 F,0,22715,23179,1,0 M,0,23231,,467.855,280.984 C,0,23231,,247,108,130 F,0,23231,23385,0,1 S,0,23231,23849,0.3,0.6 P,0,0,0,0 F,0,23385,23849,1,0 M,0,23952,,394.1113,220.7949 C,0,23952,,247,108,130 F,0,23952,24106,0,1 S,0,23952,24570,0.3,0.6 P,0,0,0,0 F,0,24106,24570,1,0 M,0,24571,,227.8887,114.7949 C,0,24571,,255,219,108 F,0,24571,24725,0,1 S,0,24571,25189,0.3,0.6 P,0,0,0,0 F,0,24725,25189,1,0 M,0,25240,,340.3507,185.4227 C,0,25240,,255,219,108 F,0,25240,25395,0,1 S,0,25240,25859,0.3,0.6 P,0,0,0,0 F,0,25395,25859,1,0 M,0,25859,,234.8644,255.5086 C,0,25859,,255,219,108 F,0,25859,26014,0,1 S,0,25859,26478,0.3,0.6 P,0,0,0,0 F,0,26014,26478,1,0 M,0,26529,,127.4112,210.7537 C,0,26529,,164,164,255 F,0,26529,26683,0,1 S,0,26529,27147,0.3,0.6 P,0,0,0,0 F,0,26683,27147,1,0 M,0,27148,,143.6874,297.3961 C,0,27148,,164,164,255 F,0,27148,27302,0,1 S,0,27148,27766,0.3,0.6 P,0,0,0,0 F,0,27302,27766,1,0 M,0,28127,,391.662,400.5789 C,0,28127,,79,158,255 F,0,28127,28282,0,1 S,0,28127,28746,0.3,0.6 P,0,0,0,0 F,0,28282,28746,1,0 M,0,28798,,314.5288,324.2384 C,0,28798,,79,158,255 F,0,28798,28952,0,1 S,0,28798,29416,0.3,0.6 P,0,0,0,0 F,0,28952,29416,1,0 M,0,29932,,356,131 C,0,29932,,247,108,130 F,0,29932,30086,0,1 S,0,29932,30550,0.3,0.6 P,0,0,0,0 F,0,30086,30550,1,0 M,0,30653,,307.6545,212.663 C,0,30653,,247,108,130 F,0,30653,30807,0,1 S,0,30653,31271,0.3,0.6 P,0,0,0,0 F,0,30807,31271,1,0 M,0,31272,,381.1347,286.7426 C,0,31272,,247,108,130 F,0,31272,31426,0,1 S,0,31272,31890,0.3,0.6 P,0,0,0,0 F,0,31426,31890,1,0 M,0,31941,,212.0326,363.1374 C,0,31941,,255,219,108 F,0,31941,32096,0,1 S,0,31941,32560,0.3,0.6 P,0,0,0,0 F,0,32096,32560,1,0 M,0,32560,,115.0521,301.8343 C,0,32560,,255,219,108 F,0,32560,32715,0,1 S,0,32560,33179,0.3,0.6 P,0,0,0,0 F,0,32715,33179,1,0 M,0,33643,,258,87 C,0,33643,,164,164,255 F,0,33643,33797,0,1 S,0,33643,34261,0.3,0.6 P,0,0,0,0 F,0,33797,34261,1,0 M,0,34313,,446.6674,74.30013 C,0,34313,,164,164,255 F,0,34313,34468,0,1 S,0,34313,34932,0.3,0.6 P,0,0,0,0 F,0,34468,34932,1,0 M,0,35034,,525.3341,192.894 C,0,35034,,164,164,255 F,0,35034,35189,0,1 S,0,35034,35653,0.3,0.6 P,0,0,0,0 F,0,35189,35653,1,0 M,0,35653,,426.4313,259.2992 C,0,35653,,79,158,255 F,0,35653,35808,0,1 S,0,35653,36272,0.3,0.6 P,0,0,0,0 F,0,35808,36272,1,0 M,0,36323,,464.6682,397.0285 C,0,36323,,79,158,255 F,0,36323,36477,0,1 S,0,36323,36941,0.3,0.6 P,0,0,0,0 F,0,36477,36941,1,0 M,0,37354,,375,243 C,0,37354,,247,108,130 F,0,37354,37508,0,1 S,0,37354,37972,0.3,0.6 P,0,0,0,0 F,0,37508,37972,1,0 M,0,38024,,210.6249,328.4301 C,0,38024,,247,108,130 F,0,38024,38179,0,1 S,0,38024,38643,0.3,0.6 P,0,0,0,0 F,0,38179,38643,1,0 M,0,38745,,275.4821,154.9399 C,0,38745,,247,108,130 F,0,38745,38900,0,1 S,0,38745,39364,0.3,0.6 P,0,0,0,0 F,0,38900,39364,1,0 M,0,39829,,519,115 C,0,39829,,255,219,108 F,0,39829,39983,0,1 S,0,39829,40447,0.3,0.6 P,0,0,0,0 F,0,39983,40447,1,0 M,0,40550,,396.4284,229.843 C,0,40550,,255,219,108 F,0,40550,40704,0,1 S,0,40550,41168,0.3,0.6 P,0,0,0,0 F,0,40704,41168,1,0 M,0,41169,,313.2897,402.9473 C,0,41169,,164,164,255 F,0,41169,41323,0,1 S,0,41169,41787,0.3,0.6 P,0,0,0,0 F,0,41323,41787,1,0 M,0,41838,,222.5309,309.85 C,0,41838,,164,164,255 F,0,41838,41993,0,1 S,0,41838,42457,0.3,0.6 P,0,0,0,0 F,0,41993,42457,1,0 M,0,42457,,97.70706,367.1379 C,0,42457,,164,164,255 F,0,42457,42612,0,1 S,0,42457,43076,0.3,0.6 P,0,0,0,0 F,0,42612,43076,1,0 M,0,43540,,191,79 C,0,43540,,79,158,255 F,0,43540,43694,0,1 S,0,43540,44158,0.3,0.6 P,0,0,0,0 F,0,43694,44158,1,0 M,0,44261,,373.3522,79.95187 C,0,44261,,79,158,255 F,0,44261,44415,0,1 S,0,44261,44879,0.3,0.6 P,0,0,0,0 F,0,44415,44879,1,0 M,0,45189,,364,256 C,0,45189,,79,158,255 F,0,45189,45343,0,1 S,0,45189,45807,0.25,0.5 P,0,0,0,0 F,0,45343,45807,0.8,0
Sprite,Foreground,Centre,"sb\hl.png",0,0 M,0,1014,,106.9471,142.5284 C,0,1014,,164,164,255 F,0,1014,1169,0,1 S,0,1014,1633,0.3,0.6 P,0,0,0,0 F,0,1169,1633,1,0 M,0,2200,,235.4064,194.2473 C,0,2200,,164,164,255 F,0,2200,2354,0,1 S,0,2200,2818,0.3,0.6 P,0,0,0,0 F,0,2354,2818,1,0 M,0,2921,,185.6346,308.4164 C,0,2921,,79,158,255 F,0,2921,3075,0,1 S,0,2921,3539,0.3,0.6 P,0,0,0,0 F,0,3075,3539,1,0 M,0,4055,,351.0827,387.9683 C,0,4055,,79,158,255 F,0,4055,4209,0,1 S,0,4055,4673,0.3,0.6 P,0,0,0,0 F,0,4209,4673,1,0 M,0,4674,,382.7274,246.2204 C,0,4674,,247,108,130 F,0,4674,4828,0,1 S,0,4674,5292,0.3,0.6 P,0,0,0,0 F,0,4828,5292,1,0 M,0,5962,,222.9353,297.3474 C,0,5962,,247,108,130 F,0,5962,6117,0,1 S,0,5962,6581,0.3,0.6 P,0,0,0,0 F,0,6117,6581,1,0 M,0,6581,,323.9931,147.4253 C,0,6581,,255,219,108 F,0,6581,6736,0,1 S,0,6581,7200,0.3,0.6 P,0,0,0,0 F,0,6736,7200,1,0 M,0,7818,,113.1047,321.3114 C,0,7818,,255,219,108 F,0,7818,7973,0,1 S,0,7818,8437,0.3,0.6 P,0,0,0,0 F,0,7973,8437,1,0 M,0,8539,,133.755,189.5565 C,0,8539,,164,164,255 F,0,8539,8694,0,1 S,0,8539,9158,0.3,0.6 P,0,0,0,0 F,0,8694,9158,1,0 M,0,9622,,367.5204,281.8788 C,0,9622,,79,158,255 F,0,9622,9776,0,1 S,0,9622,10240,0.3,0.6 P,0,0,0,0 F,0,9776,10240,1,0 M,0,10292,,224.1047,354.3114 C,0,10292,,79,158,255 F,0,10292,10447,0,1 S,0,10292,10911,0.3,0.6 P,0,0,0,0 F,0,10447,10911,1,0 M,0,11426,,340.1476,86.86276 C,0,11426,,255,219,108 F,0,11426,11581,0,1 S,0,11426,12045,0.3,0.6 P,0,0,0,0 F,0,11581,12045,1,0 M,0,12097,,486.4883,127.6341 C,0,12097,,255,219,108 F,0,12097,12251,0,1 S,0,12097,12715,0.3,0.6 P,0,0,0,0 F,0,12251,12715,1,0 M,0,12818,,562.7194,236.4733 C,0,12818,,255,219,108 F,0,12818,12972,0,1 S,0,12818,13436,0.3,0.6 P,0,0,0,0 F,0,12972,13436,1,0 M,0,13437,,412.5045,290.5162 C,0,13437,,164,164,255 F,0,13437,13591,0,1 S,0,13437,14055,0.3,0.6 P,0,0,0,0 F,0,13591,14055,1,0 M,0,14106,,265.5979,330.0678 C,0,14106,,164,164,255 F,0,14106,14261,0,1 S,0,14106,14725,0.3,0.6 P,0,0,0,0 F,0,14261,14725,1,0 M,0,15137,,110.6488,103.6635 C,0,15137,,247,108,130 F,0,15137,15292,0,1 S,0,15137,15756,0.3,0.6 P,0,0,0,0 F,0,15292,15756,1,0 M,0,15808,,167.933,296.697 C,0,15808,,247,108,130 F,0,15808,15962,0,1 S,0,15808,16426,0.3,0.6 P,0,0,0,0 F,0,15962,16426,1,0 M,0,16529,,236.8905,204.8168 C,0,16529,,247,108,130 F,0,16529,16683,0,1 S,0,16529,17147,0.3,0.6 P,0,0,0,0 F,0,16683,17147,1,0 M,0,17148,,400.2612,148.9463 C,0,17148,,255,219,108 F,0,17148,17302,0,1 S,0,17148,17766,0.3,0.6 P,0,0,0,0 F,0,17302,17766,1,0 M,0,17767,,496.2879,104.6689 C,0,17767,,255,219,108 F,0,17767,17921,0,1 S,0,17767,18385,0.3,0.6 P,0,0,0,0 F,0,17921,18385,1,0 M,0,18901,,480.0958,384.6342 C,0,18901,,164,164,255 F,0,18901,19055,0,1 S,0,18901,19519,0.3,0.6 P,0,0,0,0 F,0,19055,19519,1,0 M,0,19622,,365.2308,267.456 C,0,19622,,164,164,255 F,0,19622,19776,0,1 S,0,19622,20240,0.3,0.6 P,0,0,0,0 F,0,19776,20240,1,0 M,0,20241,,272.7936,372.2531 C,0,20241,,164,164,255 F,0,20241,20395,0,1 S,0,20241,20859,0.3,0.6 P,0,0,0,0 F,0,20395,20859,1,0 M,0,20910,,179.973,246.965 C,0,20910,,79,158,255 F,0,20910,21065,0,1 S,0,20910,21529,0.3,0.6 P,0,0,0,0 F,0,21065,21529,1,0 M,0,21529,,286.7861,158.1847 C,0,21529,,79,158,255 F,0,21529,21684,0,1 S,0,21529,22148,0.3,0.6 P,0,0,0,0 F,0,21684,22148,1,0 M,0,22612,,516.9285,127.9093 C,0,22612,,247,108,130 F,0,22612,22766,0,1 S,0,22612,23230,0.3,0.6 P,0,0,0,0 F,0,22766,23230,1,0 M,0,23282,,481.694,288.1368 C,0,23282,,247,108,130 F,0,23282,23437,0,1 S,0,23282,23901,0.3,0.6 P,0,0,0,0 F,0,23437,23901,1,0 M,0,24003,,384.3396,233.109 C,0,24003,,247,108,130 F,0,24003,24158,0,1 S,0,24003,24622,0.3,0.6 P,0,0,0,0 F,0,24158,24622,1,0 M,0,24622,,237.6604,127.109 C,0,24622,,255,219,108 F,0,24622,24777,0,1 S,0,24622,25241,0.3,0.6 P,0,0,0,0 F,0,24777,25241,1,0 M,0,25292,,330.2403,197.2553 C,0,25292,,255,219,108 F,0,25292,25446,0,1 S,0,25292,25910,0.3,0.6 P,0,0,0,0 F,0,25446,25910,1,0 M,0,25911,,237.9001,240.0539 C,0,25911,,255,219,108 F,0,25911,26065,0,1 S,0,25911,26529,0.3,0.6 P,0,0,0,0 F,0,26065,26529,1,0 M,0,26580,,128.211,226.4834 C,0,26580,,164,164,255 F,0,26580,26735,0,1 S,0,26580,27199,0.3,0.6 P,0,0,0,0 F,0,26735,27199,1,0 M,0,27199,,159.1325,300.2267 C,0,27199,,164,164,255 F,0,27199,27354,0,1 S,0,27199,27818,0.3,0.6 P,0,0,0,0 F,0,27354,27818,1,0 M,0,28179,,376.324,404.1577 C,0,28179,,79,158,255 F,0,28179,28333,0,1 S,0,28179,28797,0.3,0.6 P,0,0,0,0 F,0,28333,28797,1,0 M,0,28849,,329.7932,320.3577 C,0,28849,,79,158,255 F,0,28849,29004,0,1 S,0,28849,29468,0.3,0.6 P,0,0,0,0 F,0,29004,29468,1,0 M,0,29983,,343.748,121.1238 C,0,29983,,247,108,130 F,0,29983,30138,0,1 S,0,29983,30602,0.3,0.6 P,0,0,0,0 F,0,30138,30602,1,0 M,0,30704,,315.4315,226.3235 C,0,30704,,247,108,130 F,0,30704,30859,0,1 S,0,30704,31323,0.3,0.6 P,0,0,0,0 F,0,30859,31323,1,0 M,0,31323,,377.7964,302.1347 C,0,31323,,247,108,130 F,0,31323,31478,0,1 S,0,31323,31942,0.3,0.6 P,0,0,0,0 F,0,31478,31942,1,0 M,0,31993,,202.3287,375.498 C,0,31993,,255,219,108 F,0,31993,32147,0,1 S,0,31993,32611,0.3,0.6 P,0,0,0,0 F,0,32147,32611,1,0 M,0,32612,,120.0759,287.5303 C,0,32612,,255,219,108 F,0,32612,32766,0,1 S,0,32612,33230,0.3,0.6 P,0,0,0,0 F,0,32766,33230,1,0 M,0,33694,,273.2964,90.72891 C,0,33694,,164,164,255 F,0,33694,33849,0,1 S,0,33694,34313,0.3,0.6 P,0,0,0,0 F,0,33849,34313,1,0 M,0,34365,,433.3703,81.51188 C,0,34365,,164,164,255 F,0,34365,34519,0,1 S,0,34365,34983,0.3,0.6 P,0,0,0,0 F,0,34519,34983,1,0 M,0,35086,,526.4075,177.815 C,0,35086,,164,164,255 F,0,35086,35240,0,1 S,0,35086,35704,0.3,0.6 P,0,0,0,0 F,0,35240,35704,1,0 M,0,35705,,434.5657,271.3771 C,0,35705,,79,158,255 F,0,35705,35859,0,1 S,0,35705,36323,0.3,0.6 P,0,0,0,0 F,0,35859,36323,1,0 M,0,36374,,449.1272,397.9143 C,0,36374,,79,158,255 F,0,36374,36529,0,1 S,0,36374,36993,0.3,0.6 P,0,0,0,0 F,0,36529,36993,1,0 M,0,37405,,359.6935,246.695 C,0,37405,,247,108,130 F,0,37405,37560,0,1 S,0,37405,38024,0.3,0.6 P,0,0,0,0 F,0,37560,38024,1,0 M,0,38076,,208.2499,312.8602 C,0,38076,,247,108,130 F,0,38076,38230,0,1 S,0,38076,38694,0.3,0.6 P,0,0,0,0 F,0,38230,38694,1,0 M,0,38797,,262.5628,162.848 C,0,38797,,247,108,130 F,0,38797,38951,0,1 S,0,38797,39415,0.3,0.6 P,0,0,0,0 F,0,38951,39415,1,0 M,0,39880,,527.6692,128.0143 C,0,39880,,255,219,108 F,0,39880,40035,0,1 S,0,39880,40499,0.3,0.6 P,0,0,0,0 F,0,40035,40499,1,0 M,0,40601,,411.5179,230.9398 C,0,40601,,255,219,108 F,0,40601,40756,0,1 S,0,40601,41220,0.3,0.6 P,0,0,0,0 F,0,40756,41220,1,0 M,0,41220,,315.9109,387.417 C,0,41220,,164,164,255 F,0,41220,41375,0,1 S,0,41220,41839,0.3,0.6 P,0,0,0,0 F,0,41375,41839,1,0 M,0,41890,,214.9698,323.4746 C,0,41890,,164,164,255 F,0,41890,42044,0,1 S,0,41890,42508,0.3,0.6 P,0,0,0,0 F,0,42044,42508,1,0 M,0,42509,,95.46037,351.7007 C,0,42509,,164,164,255 F,0,42509,42663,0,1 S,0,42509,43127,0.3,0.6 P,0,0,0,0 F,0,42663,43127,1,0 M,0,43591,,206.3064,82.69505 C,0,43591,,79,158,255 F,0,43591,43746,0,1 S,0,43591,44210,0.3,0.6 P,0,0,0,0 F,0,43746,44210,1,0 M,0,44312,,389.0283,78.42781 C,0,44312,,79,158,255 F,0,44312,44467,0,1 S,0,44312,44931,0.3,0.6 P,0,0,0,0 F,0,44467,44931,1,0
Sprite,Foreground,Centre,"sb\hl.png",0,0 M,0,1066,,109.4061,159.8343 C,0,1066,,164,164,255 F,0,1066,1220,0,1 S,0,1066,1684,0.3,0.6 P,0,0,0,0 F,0,1220,1684,1,0 M,0,2251,,221.6184,191.8197 C,0,2251,,164,164,255 F,0,2251,2406,0,1 S,0,2251,2870,0.3,0.6 P,0,0,0,0 F,0,2406,2870,1,0 M,0,2972,,195.3992,318.4 C,0,2972,,79,158,255 F,0,2972,3127,0,1 S,0,2972,3591,0.3,0.6 P,0,0,0,0 F,0,3127,3591,1,0 M,0,4106,,345.6176,375.1247 C,0,4106,,79,158,255 F,0,4106,4261,0,1 S,0,4106,4725,0.3,0.6 P,0,0,0,0 F,0,4261,4725,1,0 M,0,4725,,381.8973,260.1897 C,0,4725,,247,108,130 F,0,4725,4880,0,1 S,0,4725,5344,0.3,0.6 P,0,0,0,0 F,0,4880,5344,1,0 M,0,6220,,176,258 C,0,6220,,247,108,130 F,0,6220,6374,0,1 S,0,6220,6838,0.25,0.5 P,0,0,0,0 F,0,6374,6838,0.8,0 M,0,6839,,255.7778,135.9612 C,0,6839,,255,219,108 F,0,6839,6994,0,1 S,0,6839,7457,0.3,0.6 P,0,0,0,0 F,0,6994,7457,1,0 M,0,7870,,111.4485,307.8763 C,0,7870,,255,219,108 F,0,7870,8024,0,1 S,0,7870,8488,0.3,0.6 P,0,0,0,0 F,0,8024,8488,1,0 M,0,8591,,146.9863,194.0227 C,0,8591,,164,164,255 F,0,8591,8745,0,1 S,0,8591,9209,0.3,0.6 P,0,0,0,0 F,0,8745,9209,1,0 M,0,9673,,353.9462,278.5866 C,0,9673,,79,158,255 F,0,9673,9828,0,1 S,0,9673,10292,0.3,0.6 P,0,0,0,0 F,0,9828,10292,1,0 M,0,10344,,222.4485,340.8763 C,0,10344,,79,158,255 F,0,10344,10498,0,1 S,0,10344,10962,0.3,0.6 P,0,0,0,0 F,0,10498,10962,1,0 M,0,11478,,353.0627,92.08823 C,0,11478,,255,219,108 F,0,11478,11632,0,1 S,0,11478,12096,0.3,0.6 P,0,0,0,0 F,0,11632,12096,1,0 M,0,12148,,484.2325,141.4512 C,0,12148,,255,219,108 F,0,12148,12303,0,1 S,0,12148,12767,0.3,0.6 P,0,0,0,0 F,0,12303,12767,1,0 M,0,12869,,549.8925,238.5583 C,0,12869,,255,219,108 F,0,12869,13024,0,1 S,0,12869,13488,0.3,0.6 P,0,0,0,0 F,0,13024,13488,1,0 M,0,13488,,399.9433,284.474 C,0,13488,,164,164,255 F,0,13488,13643,0,1 S,0,13488,14107,0.3,0.6 P,0,0,0,0 F,0,13643,14107,1,0 M,0,14158,,277.3344,322.5273 C,0,14158,,164,164,255 F,0,14158,14312,0,1 S,0,14158,14776,0.3,0.6 P,0,0,0,0 F,0,14312,14776,1,0 M,0,15189,,112.2976,119.3269 C,0,15189,,247,108,130 F,0,15189,15343,0,1 S,0,15189,15807,0.3,0.6 P,0,0,0,0 F,0,15343,15807,1,0 M,0,15859,,164.3996,312.0456 C,0,15859,,247,108,130 F,0,15859,16014,0,1 S,0,15859,16478,0.3,0.6 P,0,0,0,0 F,0,16014,16478,1,0 M,0,16580,,247.973,215.965 C,0,16580,,247,108,130 F,0,16580,16735,0,1 S,0,16580,17199,0.3,0.6 P,0,0,0,0 F,0,16735,17199,1,0 M,0,17199,,399.6744,133.6868 C,0,17199,,255,219,108 F,0,17199,17354,0,1 S,0,17199,17818,0.3,0.6 P,0,0,0,0 F,0,17354,17818,1,0 M,0,17818,,510.1472,112.132 C,0,17818,,255,219,108 F,0,17818,17973,0,1 S,0,17818,18437,0.3,0.6 P,0,0,0,0 F,0,17973,18437,1,0 M,0,18952,,478.6436,368.9513 C,0,18952,,164,164,255 F,0,18952,19107,0,1 S,0,18952,19571,0.3,0.6 P,0,0,0,0 F,0,19107,19571,1,0 M,0,19673,,356.0531,280.0807 C,0,19673,,164,164,255 F,0,19673,19828,0,1 S,0,19673,20292,0.3,0.6 P,0,0,0,0 F,0,19828,20292,1,0 M,0,20292,,279.0112,357.925 C,0,20292,,164,164,255 F,0,20292,20447,0,1 S,0,20292,20911,0.3,0.6 P,0,0,0,0 F,0,20447,20911,1,0 M,0,20962,,193.2302,255.4175 C,0,20962,,79,158,255 F,0,20962,21116,0,1 S,0,20962,21580,0.3,0.6 P,0,0,0,0 F,0,21116,21580,1,0 M,0,21581,,271.7703,155.539 C,0,21581,,79,158,255 F,0,21581,21735,0,1 S,0,21581,22199,0.3,0.6 P,0,0,0,0 F,0,21735,22199,1,0 M,0,22663,,513.8928,143.364 C,0,22663,,247,108,130 F,0,22663,22818,0,1 S,0,22663,23282,0.3,0.6 P,0,0,0,0 F,0,22818,23282,1,0 M,0,23334,,496.8825,291.6539 C,0,23334,,247,108,130 F,0,23334,23488,0,1 S,0,23334,23952,0.3,0.6 P,0,0,0,0 F,0,23488,23952,1,0 M,0,24055,,371.8695,242.6713 C,0,24055,,247,108,130 F,0,24055,24209,0,1 S,0,24055,24673,0.3,0.6 P,0,0,0,0 F,0,24209,24673,1,0 M,0,24674,,250.1305,136.6713 C,0,24674,,255,219,108 F,0,24674,24828,0,1 S,0,24674,25292,0.3,0.6 P,0,0,0,0 F,0,24828,25292,1,0 M,0,25343,,317.3648,206.0051 C,0,25343,,255,219,108 F,0,25343,25498,0,1 S,0,25343,25962,0.3,0.6 P,0,0,0,0 F,0,25498,25962,1,0 M,0,25962,,240.9359,224.5993 C,0,25962,,255,219,108 F,0,25962,26117,0,1 S,0,25962,26581,0.3,0.6 P,0,0,0,0 F,0,26117,26581,1,0 M,0,26839,,64,338 C,0,26839,,164,164,255 F,0,26839,26993,0,1 S,0,26839,27457,0.25,0.5 P,0,0,0,0 F,0,26993,27457,0.8,0 M,0,28230,,360.986,407.7366 C,0,28230,,79,158,255 F,0,28230,28385,0,1 S,0,28230,28849,0.3,0.6 P,0,0,0,0 F,0,28385,28849,1,0 M,0,28901,,345.0703,317.4705 C,0,28901,,79,158,255 F,0,28901,29055,0,1 S,0,28901,29519,0.3,0.6 P,0,0,0,0 F,0,29055,29519,1,0 M,0,30035,,333.2235,109.4346 C,0,30035,,247,108,130 F,0,30035,30189,0,1 S,0,30035,30653,0.3,0.6 P,0,0,0,0 F,0,30189,30653,1,0 M,0,30756,,320.0687,240.6567 C,0,30756,,247,108,130 F,0,30756,30910,0,1 S,0,30756,31374,0.3,0.6 P,0,0,0,0 F,0,30910,31374,1,0 M,0,31375,,374.524,317.541 C,0,31375,,247,108,130 F,0,31375,31529,0,1 S,0,31375,31993,0.3,0.6 P,0,0,0,0 F,0,31529,31993,1,0 M,0,32044,,192.1935,387.4835 C,0,32044,,255,219,108 F,0,32044,32199,0,1 S,0,32044,32663,0.3,0.6 P,0,0,0,0 F,0,32199,32663,1,0 M,0,32663,,131.3643,277.2653 C,0,32663,,255,219,108 F,0,32663,32818,0,1 S,0,32663,33282,0.3,0.6 P,0,0,0,0 F,0,32818,33282,1,0 M,0,33746,,288.0045,96.30794 C,0,33746,,164,164,255 F,0,33746,33900,0,1 S,0,33746,34364,0.3,0.6 P,0,0,0,0 F,0,33900,34364,1,0 M,0,34416,,424.8426,94.01624 C,0,34416,,164,164,255 F,0,34416,34571,0,1 S,0,34416,35035,0.3,0.6 P,0,0,0,0 F,0,34571,35035,1,0 M,0,35137,,524.7638,163.063 C,0,35137,,164,164,255 F,0,35137,35292,0,1 S,0,35137,35756,0.3,0.6 P,0,0,0,0 F,0,35292,35756,1,0 M,0,35756,,439.7595,285.524 C,0,35756,,79,158,255 F,0,35756,35911,0,1 S,0,35756,36375,0.3,0.6 P,0,0,0,0 F,0,35911,36375,1,0 M,0,36426,,433.8901,394.701 C,0,36426,,79,158,255 F,0,36426,36580,0,1 S,0,36426,37044,0.3,0.6 P,0,0,0,0 F,0,36580,37044,1,0 M,0,37457,,344.8682,251.9702 C,0,37457,,247,108,130 F,0,37457,37611,0,1 S,0,37457,38075,0.3,0.6 P,0,0,0,0 F,0,37611,38075,1,0 M,0,38127,,205.8748,297.2903 C,0,38127,,247,108,130 F,0,38127,38282,0,1 S,0,38127,38746,0.3,0.6 P,0,0,0,0 F,0,38282,38746,1,0 M,0,38848,,254.7009,175.8237 C,0,38848,,247,108,130 F,0,38848,39003,0,1 S,0,38848,39467,0.3,0.6 P,0,0,0,0 F,0,39003,39467,1,0 M,0,39932,,533.191,142.5581 C,0,39932,,255,219,108 F,0,39932,40086,0,1 S,0,39932,40550,0.3,0.6 P,0,0,0,0 F,0,40086,40550,1,0 M,0,40653,,424.4372,238.8479 C,0,40653,,255,219,108 F,0,40653,40807,0,1 S,0,40653,41271,0.3,0.6 P,0,0,0,0 F,0,40807,41271,1,0 M,0,41272,,318.5158,371.8838 C,0,41272,,164,164,255 F,0,41272,41426,0,1 S,0,41272,41890,0.3,0.6 P,0,0,0,0 F,0,41426,41890,1,0 M,0,41941,,205.1765,334.3398 C,0,41941,,164,164,255 F,0,41941,42096,0,1 S,0,41941,42560,0.3,0.6 P,0,0,0,0 F,0,42096,42560,1,0 M,0,42560,,96.88921,336.1637 C,0,42560,,164,164,255 F,0,42560,42715,0,1 S,0,42560,43179,0.3,0.6 P,0,0,0,0 F,0,42715,43179,1,0 M,0,43643,,221.1303,87.97405 C,0,43643,,79,158,255 F,0,43643,43797,0,1 S,0,43643,44261,0.3,0.6 P,0,0,0,0 F,0,43797,44261,1,0
Sprite,Foreground,Centre,"sb\hl.png",0,0 M,0,1117,,114.7023,176.4924 C,0,1117,,164,164,255 F,0,1117,1272,0,1 S,0,1117,1736,0.3,0.6 P,0,0,0,0 F,0,1272,1736,1,0 M,0,2715,,134,288 C,0,2715,,79,158,255 F,0,2715,2869,0,1 S,0,2715,3333,0.25,0.5 P,0,0,0,0 F,0,2869,3333,0.8,0 M,0,4777,,382.3893,274.1765 C,0,4777,,247,108,130 F,0,4777,4931,0,1 S,0,4777,5395,0.3,0.6 P,0,0,0,0 F,0,4931,5395,1,0 M,0,6633,,310.0401,148.2753 C,0,6633,,255,219,108 F,0,6633,6787,0,1 S,0,6633,7251,0.3,0.6 P,0,0,0,0 F,0,6787,7251,1,0 M,0,7921,,109.9051,294.4198 C,0,7921,,255,219,108 F,0,7921,8076,0,1 S,0,7921,8540,0.3,0.6 P,0,0,0,0 F,0,8076,8540,1,0 M,0,8642,,158.7946,201.4219 C,0,8642,,164,164,255 F,0,8642,8797,0,1 S,0,8642,9261,0.3,0.6 P,0,0,0,0 F,0,8797,9261,1,0 M,0,9725,,340.0107,278.5475 C,0,9725,,79,158,255 F,0,9725,9879,0,1 S,0,9725,10343,0.3,0.6 P,0,0,0,0 F,0,9879,10343,1,0 M,0,10395,,220.9051,327.4198 C,0,10395,,79,158,255 F,0,10395,10550,0,1 S,0,10395,11014,0.3,0.6 P,0,0,0,0 F,0,10550,11014,1,0 M,0,11529,,366.6747,95.21715 C,0,11529,,255,219,108 F,0,11529,11684,0,1 S,0,11529,12148,0.3,0.6 P,0,0,0,0 F,0,11684,12148,1,0 M,0,12200,,479.0324,153.9595 C,0,12200,,255,219,108 F,0,12200,12354,0,1 S,0,12200,12818,0.3,0.6 P,0,0,0,0 F,0,12354,12818,1,0 M,0,12972,,538.855,260.925 C,0,12972,,255,219,108 F,0,12972,13127,0,1 S,0,12972,13591,0.3,0.6 P,0,0,0,0 F,0,13127,13591,1,0 M,0,13591,,372.8812,277.8926 C,0,13591,,164,164,255 F,0,13591,13746,0,1 S,0,13591,14210,0.3,0.6 P,0,0,0,0 F,0,13746,14210,1,0 M,0,14468,,307,241 C,0,14468,,79,158,255 F,0,14468,14622,0,1 S,0,14468,15086,0.25,0.5 P,0,0,0,0 F,0,14622,15086,0.8,0 M,0,15240,,113.9464,134.9904 C,0,15240,,247,108,130 F,0,15240,15395,0,1 S,0,15240,15859,0.3,0.6 P,0,0,0,0 F,0,15395,15859,1,0 M,0,15911,,160.8661,327.3941 C,0,15911,,247,108,130 F,0,15911,16065,0,1 S,0,15911,16529,0.3,0.6 P,0,0,0,0 F,0,16065,16529,1,0 M,0,16683,,275.681,230.655 C,0,16683,,247,108,130 F,0,16683,16838,0,1 S,0,16683,17302,0.3,0.6 P,0,0,0,0 F,0,16838,17302,1,0 M,0,17302,,380.4066,110.7961 C,0,17302,,255,219,108 F,0,17302,17457,0,1 S,0,17302,17921,0.3,0.6 P,0,0,0,0 F,0,17457,17921,1,0 M,0,17921,,539.0917,124.4842 C,0,17921,,255,219,108 F,0,17921,18076,0,1 S,0,17921,18540,0.3,0.6 P,0,0,0,0 F,0,18076,18540,1,0 M,0,19004,,481.6747,354.0381 C,0,19004,,164,164,255 F,0,19004,19158,0,1 S,0,19004,19622,0.3,0.6 P,0,0,0,0 F,0,19158,19622,1,0 M,0,19725,,350.1588,294.5481 C,0,19725,,164,164,255 F,0,19725,19879,0,1 S,0,19725,20343,0.3,0.6 P,0,0,0,0 F,0,19879,20343,1,0 M,0,20344,,281.8968,342.5706 C,0,20344,,164,164,255 F,0,20344,20498,0,1 S,0,20344,20962,0.3,0.6 P,0,0,0,0 F,0,20498,20962,1,0 M,0,21013,,207.6809,261.655 C,0,21013,,79,158,255 F,0,21013,21168,0,1 S,0,21013,21632,0.3,0.6 P,0,0,0,0 F,0,21168,21632,1,0 M,0,21632,,257.145,160.0361 C,0,21632,,79,158,255 F,0,21632,21787,0,1 S,0,21632,22251,0.3,0.6 P,0,0,0,0 F,0,21787,22251,1,0 M,0,22715,,514.4083,158.4188 C,0,22715,,247,108,130 F,0,22715,22869,0,1 S,0,22715,23333,0.3,0.6 P,0,0,0,0 F,0,22869,23333,1,0 M,0,23385,,512.4856,291.3111 C,0,23385,,247,108,130 F,0,23385,23540,0,1 S,0,23385,24004,0.3,0.6 P,0,0,0,0 F,0,23540,24004,1,0 M,0,24106,,357.903,249.9275 C,0,24106,,247,108,130 F,0,24106,24261,0,1 S,0,24106,24725,0.3,0.6 P,0,0,0,0 F,0,24261,24725,1,0 M,0,24725,,264.097,143.9275 C,0,24725,,255,219,108 F,0,24725,24880,0,1 S,0,24725,25344,0.3,0.6 P,0,0,0,0 F,0,24880,25344,1,0 M,0,25602,,225,332 C,0,25602,,255,219,108 F,0,25602,25756,0,1 S,0,25602,26220,0.25,0.5 P,0,0,0,0 F,0,25756,26220,0.8,0 M,0,26271,,116.8425,134.7274 C,0,26271,,164,164,255 F,0,26271,26426,0,1 S,0,26271,26890,0.3,0.6 P,0,0,0,0 F,0,26426,26890,1,0 M,0,26890,,73.53201,325.5378 C,0,26890,,164,164,255 F,0,26890,27045,0,1 S,0,26890,27509,0.3,0.6 P,0,0,0,0 F,0,27045,27509,1,0 M,0,28282,,345.6428,410.7077 C,0,28282,,79,158,255 F,0,28282,28436,0,1 S,0,28282,28900,0.3,0.6 P,0,0,0,0 F,0,28436,28900,1,0 M,0,28952,,360.4286,320.9611 C,0,28952,,79,158,255 F,0,28952,29107,0,1 S,0,28952,29571,0.3,0.6 P,0,0,0,0 F,0,29107,29571,1,0 M,0,30086,,325.1692,95.93384 C,0,30086,,247,108,130 F,0,30086,30241,0,1 S,0,30086,30705,0.3,0.6 P,0,0,0,0 F,0,30241,30705,1,0 M,0,30859,,332.5373,212.0003 C,0,30859,,247,108,130 F,0,30859,31013,0,1 S,0,30859,31477,0.3,0.6 P,0,0,0,0 F,0,31013,31477,1,0 M,0,31478,,368.1776,348.3948 C,0,31478,,247,108,130 F,0,31478,31632,0,1 S,0,31478,32096,0.3,0.6 P,0,0,0,0 F,0,31632,32096,1,0 M,0,32147,,163.8897,400.7101 C,0,32147,,255,219,108 F,0,32147,32302,0,1 S,0,32147,32766,0.3,0.6 P,0,0,0,0 F,0,32302,32766,1,0 M,0,32766,,161.3169,277.4753 C,0,32766,,255,219,108 F,0,32766,32921,0,1 S,0,32766,33385,0.3,0.6 P,0,0,0,0 F,0,32921,33385,1,0 M,0,33797,,300.9674,105.1373 C,0,33797,,164,164,255 F,0,33797,33952,0,1 S,0,33797,34416,0.3,0.6 P,0,0,0,0 F,0,33952,34416,1,0 M,0,34468,,422.9814,109.0495 C,0,34468,,164,164,255 F,0,34468,34622,0,1 S,0,34468,35086,0.3,0.6 P,0,0,0,0 F,0,34622,35086,1,0 M,0,35240,,531.597,132.3131 C,0,35240,,164,164,255 F,0,35240,35395,0,1 S,0,35240,35859,0.3,0.6 P,0,0,0,0 F,0,35395,35859,1,0 M,0,35859,,446.5376,316.2861 C,0,35859,,79,158,255 F,0,35859,36014,0,1 S,0,35859,36478,0.3,0.6 P,0,0,0,0 F,0,36014,36478,1,0 M,0,36736,,408,377 C,0,36736,,79,158,255 F,0,36736,36890,0,1 S,0,36736,37354,0.25,0.5 P,0,0,0,0 F,0,36890,37354,0.8,0 M,0,37508,,331.5934,260.3269 C,0,37508,,247,108,130 F,0,37508,37663,0,1 S,0,37508,38127,0.3,0.6 P,0,0,0,0 F,0,37663,38127,1,0 M,0,38179,,201.6542,282.6542 C,0,38179,,247,108,130 F,0,38179,38333,0,1 S,0,38179,38797,0.3,0.6 P,0,0,0,0 F,0,38333,38797,1,0 M,0,38951,,259.73,204.9711 C,0,38951,,247,108,130 F,0,38951,39106,0,1 S,0,38951,39570,0.3,0.6 P,0,0,0,0 F,0,39106,39570,1,0 M,0,39983,,534.7795,158.0392 C,0,39983,,255,219,108 F,0,39983,40138,0,1 S,0,39983,40602,0.3,0.6 P,0,0,0,0 F,0,40138,40602,1,0 M,0,40756,,433.3304,266.9904 C,0,40756,,255,219,108 F,0,40756,40910,0,1 S,0,40756,41374,0.3,0.6 P,0,0,0,0 F,0,40910,41374,1,0 M,0,41375,,323.6761,340.8094 C,0,41375,,164,164,255 F,0,41375,41529,0,1 S,0,41375,41993,0.3,0.6 P,0,0,0,0 F,0,41529,41993,1,0 M,0,42044,,174.8257,342.7706 C,0,42044,,164,164,255 F,0,42044,42199,0,1 S,0,42044,42663,0.3,0.6 P,0,0,0,0 F,0,42199,42663,1,0 M,0,42663,,110.2626,308.1984 C,0,42663,,164,164,255 F,0,42663,42818,0,1 S,0,42663,43282,0.3,0.6 P,0,0,0,0 F,0,42818,43282,1,0 M,0,43694,,234.3688,96.38075 C,0,43694,,79,158,255 F,0,43694,43849,0,1 S,0,43694,44313,0.3,0.6 P,0,0,0,0 F,0,43849,44313,1,0
Sprite,Foreground,Centre,"sb\hl.png",0,0 M,0,1169,,122.5941,192.0923 C,0,1169,,164,164,255 F,0,1169,1323,0,1 S,0,1169,1787,0.3,0.6 P,0,0,0,0 F,0,1323,1787,1,0 M,0,2715,,134,288 C,0,2715,,79,158,255 F,0,2715,2869,0,1 S,0,2715,3333,0.3,0.6 P,0,0,0,0 F,0,2869,3333,1,0 M,0,4828,,384.0269,288.0769 C,0,4828,,247,108,130 F,0,4828,4983,0,1 S,0,4828,5447,0.3,0.6 P,0,0,0,0 F,0,4983,5447,1,0 M,0,6684,,296.2415,146.1075 C,0,6684,,255,219,108 F,0,6684,6839,0,1 S,0,6684,7303,0.3,0.6 P,0,0,0,0 F,0,6839,7303,1,0 M,0,7973,,111.5649,280.5186 C,0,7973,,255,219,108 F,0,7973,8127,0,1 S,0,7973,8591,0.3,0.6 P,0,0,0,0 F,0,8127,8591,1,0 M,0,8901,,169,210 C,0,8901,,164,164,255 F,0,8901,9055,0,1 S,0,8901,9519,0.25,0.5 P,0,0,0,0 F,0,9055,9519,0.8,0 M,0,9776,,326.245,280.5565 C,0,9776,,79,158,255 F,0,9776,9931,0,1 S,0,9776,10395,0.3,0.6 P,0,0,0,0 F,0,9931,10395,1,0 M,0,10447,,222.5649,313.5186 C,0,10447,,79,158,255 F,0,10447,10601,0,1 S,0,10447,11065,0.3,0.6 P,0,0,0,0 F,0,10601,11065,1,0 M,0,11581,,380.6201,95.57391 C,0,11581,,255,219,108 F,0,11581,11735,0,1 S,0,11581,12199,0.3,0.6 P,0,0,0,0 F,0,11735,12199,1,0 M,0,12303,,472.3814,180.3853 C,0,12303,,255,219,108 F,0,12303,12457,0,1 S,0,12303,12921,0.3,0.6 P,0,0,0,0 F,0,12457,12921,1,0 M,0,13231,,451,330 C,0,13231,,164,164,255 F,0,13231,13385,0,1 S,0,13231,13849,0.25,0.5 P,0,0,0,0 F,0,13385,13849,0.8,0 M,0,13900,,211.894,342.4229 C,0,13900,,164,164,255 F,0,13900,14055,0,1 S,0,13900,14519,0.3,0.6 P,0,0,0,0 F,0,14055,14519,1,0 M,0,15292,,112.6176,150.1618 C,0,15292,,247,108,130 F,0,15292,15446,0,1 S,0,15292,15910,0.3,0.6 P,0,0,0,0 F,0,15446,15910,1,0 M,0,16014,,153.7992,358.0911 C,0,16014,,247,108,130 F,0,16014,16168,0,1 S,0,16014,16632,0.3,0.6 P,0,0,0,0 F,0,16168,16632,1,0 M,0,16942,,353,176 C,0,16942,,255,219,108 F,0,16942,17096,0,1 S,0,16942,17560,0.25,0.5 P,0,0,0,0 F,0,17096,17560,0.8,0 M,0,17561,,446,67 C,0,17561,,255,219,108 F,0,17561,17715,0,1 S,0,17561,18179,0.25,0.5 P,0,0,0,0 F,0,17715,18179,0.8,0 M,0,19055,,482.9321,338.8549 C,0,19055,,164,164,255 F,0,19055,19210,0,1 S,0,19055,19674,0.3,0.6 P,0,0,0,0 F,0,19210,19674,1,0 M,0,19776,,347.8969,310.0224 C,0,19776,,164,164,255 F,0,19776,19931,0,1 S,0,19776,20395,0.3,0.6 P,0,0,0,0 F,0,19931,20395,1,0 M,0,20395,,281.3049,326.9534 C,0,20395,,164,164,255 F,0,20395,20550,0,1 S,0,20395,21014,0.3,0.6 P,0,0,0,0 F,0,20550,21014,1,0 M,0,21272,,286,219 C,0,21272,,79,158,255 F,0,21272,21426,0,1 S,0,21272,21890,0.25,0.5 P,0,0,0,0 F,0,21426,21890,0.8,0 M,0,22766,,513.5341,173.5712 C,0,22766,,247,108,130 F,0,22766,22921,0,1 S,0,22766,23385,0.3,0.6 P,0,0,0,0 F,0,22921,23385,1,0 M,0,23437,,527.5403,287.1198 C,0,23437,,247,108,130 F,0,23437,23591,0,1 S,0,23437,24055,0.3,0.6 P,0,0,0,0 F,0,23591,24055,1,0 M,0,24365,,177,80 C,0,24365,,255,219,108 F,0,24365,24519,0,1 S,0,24365,24983,0.25,0.5 P,0,0,0,0 F,0,24519,24983,0.8,0 M,0,25034,,342.7309,125.9734 C,0,25034,,255,219,108 F,0,25034,25189,0,1 S,0,25034,25653,0.3,0.6 P,0,0,0,0 F,0,25189,25653,1,0 M,0,25653,,228.191,316.5767 C,0,25653,,255,219,108 F,0,25653,25808,0,1 S,0,25653,26272,0.3,0.6 P,0,0,0,0 F,0,25808,26272,1,0 M,0,26323,,117.6851,150.4549 C,0,26323,,164,164,255 F,0,26323,26477,0,1 S,0,26323,26941,0.3,0.6 P,0,0,0,0 F,0,26477,26941,1,0 M,0,26942,,84.90645,314.7924 C,0,26942,,164,164,255 F,0,26942,27096,0,1 S,0,26942,27560,0.3,0.6 P,0,0,0,0 F,0,27096,27560,1,0 M,0,28333,,330.2459,407.3914 C,0,28333,,79,158,255 F,0,28333,28488,0,1 S,0,28333,28952,0.3,0.6 P,0,0,0,0 F,0,28488,28952,1,0 M,0,29004,,375.787,324.4516 C,0,29004,,79,158,255 F,0,29004,29158,0,1 S,0,29004,29622,0.3,0.6 P,0,0,0,0 F,0,29158,29622,1,0 M,0,30189,,315.5369,93.98523 C,0,30189,,247,108,130 F,0,30189,30344,0,1 S,0,30189,30808,0.3,0.6 P,0,0,0,0 F,0,30344,30808,1,0 M,0,30910,,342.9771,200.2401 C,0,30910,,247,108,130 F,0,30910,31065,0,1 S,0,30910,31529,0.3,0.6 P,0,0,0,0 F,0,31065,31529,1,0 M,0,31529,,365.1035,363.8419 C,0,31529,,247,108,130 F,0,31529,31684,0,1 S,0,31529,32148,0.3,0.6 P,0,0,0,0 F,0,31684,32148,1,0 M,0,32406,,140,336 C,0,32406,,255,219,108 F,0,32406,32560,0,1 S,0,32406,33024,0.25,0.5 P,0,0,0,0 F,0,32560,33024,0.8,0 M,0,33849,,310.6713,117.498 C,0,33849,,164,164,255 F,0,33849,34003,0,1 S,0,33849,34467,0.3,0.6 P,0,0,0,0 F,0,34003,34467,1,0 M,0,34571,,439.3943,133.5591 C,0,34571,,164,164,255 F,0,34571,34725,0,1 S,0,34571,35189,0.3,0.6 P,0,0,0,0 F,0,34725,35189,1,0 M,0,35499,,417,213 C,0,35499,,79,158,255 F,0,35499,35653,0,1 S,0,35499,36117,0.25,0.5 P,0,0,0,0 F,0,35653,36117,0.8,0 M,0,36168,,502.6415,371.7979 C,0,36168,,79,158,255 F,0,36168,36323,0,1 S,0,36168,36787,0.3,0.6 P,0,0,0,0 F,0,36323,36787,1,0 M,0,37560,,321.4907,272.3696 C,0,37560,,247,108,130 F,0,37560,37714,0,1 S,0,37560,38178,0.3,0.6 P,0,0,0,0 F,0,37714,38178,1,0 M,0,38282,,193.1137,253.3869 C,0,38282,,247,108,130 F,0,38282,38436,0,1 S,0,38282,38900,0.3,0.6 P,0,0,0,0 F,0,38436,38900,1,0 M,0,39210,,285,86 C,0,39210,,247,108,130 F,0,39210,39364,0,1 S,0,39210,39828,0.25,0.5 P,0,0,0,0 F,0,39364,39828,0.8,0 M,0,40086,,525.9844,187.6493 C,0,40086,,255,219,108 F,0,40086,40241,0,1 S,0,40086,40705,0.3,0.6 P,0,0,0,0 F,0,40241,40705,1,0 M,0,40807,,427.27,280.9711 C,0,40807,,255,219,108 F,0,40807,40962,0,1 S,0,40807,41426,0.3,0.6 P,0,0,0,0 F,0,40962,41426,1,0 M,0,41426,,326.2319,325.2682 C,0,41426,,164,164,255 F,0,41426,41581,0,1 S,0,41426,42045,0.3,0.6 P,0,0,0,0 F,0,41581,42045,1,0 M,0,42303,,124,405 C,0,42303,,164,164,255 F,0,42303,42457,0,1 S,0,42303,42921,0.25,0.5 P,0,0,0,0 F,0,42457,42921,0.8,0 M,0,43746,,244.2204,108.6233 C,0,43746,,79,158,255 F,0,43746,43900,0,1 S,0,43746,44364,0.3,0.6 P,0,0,0,0 F,0,43900,44364,1,0
Sprite,Foreground,Centre,"sb\hl.png",0,0 M,0,1220,,132.6432,206.4033 C,0,1220,,164,164,255 F,0,1220,1375,0,1 S,0,1220,1839,0.3,0.6 P,0,0,0,0 F,0,1375,1839,1,0 M,0,3024,,203.2459,329.9884 C,0,3024,,79,158,255 F,0,3024,3178,0,1 S,0,3024,3642,0.3,0.6 P,0,0,0,0 F,0,3178,3642,1,0 M,0,4880,,386.6418,301.828 C,0,4880,,247,108,130 F,0,4880,5034,0,1 S,0,4880,5498,0.3,0.6 P,0,0,0,0 F,0,5034,5498,1,0 M,0,6736,,283.0259,141.5053 C,0,6736,,255,219,108 F,0,6736,6890,0,1 S,0,6736,7354,0.3,0.6 P,0,0,0,0 F,0,6890,7354,1,0 M,0,8024,,113.2248,266.6173 C,0,8024,,255,219,108 F,0,8024,8179,0,1 S,0,8024,8643,0.3,0.6 P,0,0,0,0 F,0,8179,8643,1,0 M,0,9828,,313.0137,285.0227 C,0,9828,,79,158,255 F,0,9828,9982,0,1 S,0,9828,10446,0.3,0.6 P,0,0,0,0 F,0,9982,10446,1,0 M,0,10498,,224.2248,299.6173 C,0,10498,,79,158,255 F,0,10498,10653,0,1 S,0,10498,11117,0.3,0.6 P,0,0,0,0 F,0,10653,11117,1,0 M,0,11684,,407.9265,90.38246 C,0,11684,,255,219,108 F,0,11684,11838,0,1 S,0,11684,12302,0.3,0.6 P,0,0,0,0 F,0,11838,12302,1,0 M,0,12354,,470.6798,194.2815 C,0,12354,,255,219,108 F,0,12354,12509,0,1 S,0,12354,12973,0.3,0.6 P,0,0,0,0 F,0,12509,12973,1,0 M,0,13231,,451,330 C,0,13231,,164,164,255 F,0,13231,13385,0,1 S,0,13231,13849,0.3,0.6 P,0,0,0,0 F,0,13385,13849,1,0 M,0,15395,,111.1083,180.7699 C,0,15395,,247,108,130 F,0,15395,15549,0,1 S,0,15395,16013,0.3,0.6 P,0,0,0,0 F,0,15549,16013,1,0 M,0,16065,,150.2657,373.4396 C,0,16065,,247,108,130 F,0,16065,16220,0,1 S,0,16065,16684,0.3,0.6 P,0,0,0,0 F,0,16220,16684,1,0 M,0,16942,,353,176 C,0,16942,,255,219,108 F,0,16942,17096,0,1 S,0,16942,17560,0.3,0.6 P,0,0,0,0 F,0,17096,17560,1,0 M,0,17561,,446,67 C,0,17561,,255,219,108 F,0,17561,17715,0,1 S,0,17561,18179,0.3,0.6 P,0,0,0,0 F,0,17715,18179,1,0 M,0,19107,,481.2833,323.1914 C,0,19107,,164,164,255 F,0,19107,19261,0,1 S,0,19107,19725,0.3,0.6 P,0,0,0,0 F,0,19261,19725,1,0 M,0,20035,,223,407 C,0,20035,,164,164,255 F,0,20035,20189,0,1 S,0,20035,20653,0.3,0.6 P,0,0,0,0 F,0,20189,20653,1,0 M,0,21272,,286,219 C,0,21272,,79,158,255 F,0,21272,21426,0,1 S,0,21272,21890,0.3,0.6 P,0,0,0,0 F,0,21426,21890,1,0 M,0,22818,,510.2512,188.9752 C,0,22818,,247,108,130 F,0,22818,22972,0,1 S,0,22818,23436,0.3,0.6 P,0,0,0,0 F,0,22972,23436,1,0 M,0,23488,,541.1144,279.3274 C,0,23488,,247,108,130 F,0,23488,23643,0,1 S,0,23488,24107,0.3,0.6 P,0,0,0,0 F,0,23643,24107,1,0 M,0,24365,,177,80 C,0,24365,,255,219,108 F,0,24365,24519,0,1 S,0,24365,24983,0.3,0.6 P,0,0,0,0 F,0,24519,24983,1,0 M,0,25602,,225,332 C,0,25602,,255,219,108 F,0,25602,25756,0,1 S,0,25602,26220,0.3,0.6 P,0,0,0,0 F,0,25756,26220,1,0 M,0,26839,,64,338 C,0,26839,,164,164,255 F,0,26839,26993,0,1 S,0,26839,27457,0.3,0.6 P,0,0,0,0 F,0,26993,27457,1,0 M,0,28385,,314.849,404.0752 C,0,28385,,79,158,255 F,0,28385,28539,0,1 S,0,28385,29003,0.3,0.6 P,0,0,0,0 F,0,28539,29003,1,0 M,0,29055,,391.1453,327.9421 C,0,29055,,79,158,255 F,0,29055,29210,0,1 S,0,29055,29674,0.3,0.6 P,0,0,0,0 F,0,29210,29674,1,0 M,0,30241,,307.6619,107.5925 C,0,30241,,247,108,130 F,0,30241,30395,0,1 S,0,30241,30859,0.3,0.6 P,0,0,0,0 F,0,30395,30859,1,0 M,0,31169,,388,256 C,0,31169,,247,108,130 F,0,31169,31323,0,1 S,0,31169,31787,0.3,0.6 P,0,0,0,0 F,0,31323,31787,1,0 M,0,32406,,140,336 C,0,32406,,255,219,108 F,0,32406,32560,0,1 S,0,32406,33024,0.3,0.6 P,0,0,0,0 F,0,32560,33024,1,0 M,0,33952,,334.2189,137.6296 C,0,33952,,164,164,255 F,0,33952,34106,0,1 S,0,33952,34570,0.3,0.6 P,0,0,0,0 F,0,34106,34570,1,0 M,0,34622,,454.0637,137.583 C,0,34622,,164,164,255 F,0,34622,34777,0,1 S,0,34622,35241,0.3,0.6 P,0,0,0,0 F,0,34777,35241,1,0 M,0,35499,,417,213 C,0,35499,,79,158,255 F,0,35499,35653,0,1 S,0,35499,36117,0.3,0.6 P,0,0,0,0 F,0,35653,36117,1,0 M,0,37663,,295.8656,289.8181 C,0,37663,,247,108,130 F,0,37663,37817,0,1 S,0,37663,38281,0.3,0.6 P,0,0,0,0 F,0,37817,38281,1,0 M,0,38333,,190.6573,237.8297 C,0,38333,,247,108,130 F,0,38333,38488,0,1 S,0,38333,38952,0.3,0.6 P,0,0,0,0 F,0,38488,38952,1,0 M,0,40138,,516.1818,199.7797 C,0,40138,,255,219,108 F,0,40138,40292,0,1 S,0,40138,40756,0.3,0.6 P,0,0,0,0 F,0,40292,40756,1,0 M,0,41066,,308,434 C,0,41066,,164,164,255 F,0,41066,41220,0,1 S,0,41066,41684,0.3,0.6 P,0,0,0,0 F,0,41220,41684,1,0 M,0,42303,,124,405 C,0,42303,,164,164,255 F,0,42303,42457,0,1 S,0,42303,42921,0.3,0.6 P,0,0,0,0 F,0,42457,42921,1,0 M,0,43849,,269.8403,125.9517 C,0,43849,,79,158,255 F,0,43849,44003,0,1 S,0,43849,44467,0.3,0.6 P,0,0,0,0 F,0,44003,44467,1,0
Sprite,Foreground,Centre,"sb\hl.png",0,0 M,0,1272,,144.3724,219.3783 C,0,1272,,164,164,255 F,0,1272,1427,0,1 S,0,1272,1890,0.3,0.6 P,0,0,0,0 F,0,1427,1890,1,0 M,0,3075,,211.6045,341.1988 C,0,3075,,79,158,255 F,0,3075,3230,0,1 S,0,3075,3694,0.3,0.6 P,0,0,0,0 F,0,3230,3694,1,0 M,0,4931,,390.088,315.3952 C,0,4931,,247,108,130 F,0,4931,5086,0,1 S,0,4931,5550,0.3,0.6 P,0,0,0,0 F,0,5086,5550,1,0 M,0,6787,,269.6797,137.3234 C,0,6787,,255,219,108 F,0,6787,6942,0,1 S,0,6787,7406,0.3,0.6 P,0,0,0,0 F,0,6942,7406,1,0 M,0,8282,,68,204 C,0,8282,,164,164,255 F,0,8282,8436,0,1 S,0,8282,8900,0.25,0.5 P,0,0,0,0 F,0,8436,8900,0.8,0 M,0,9879,,301.2054,292.4219 C,0,9879,,79,158,255 F,0,9879,10034,0,1 S,0,9879,10498,0.3,0.6 P,0,0,0,0 F,0,10034,10498,1,0 M,0,10756,,185,243 C,0,10756,,247,108,130 F,0,10756,10910,0,1 S,0,10756,11374,0.25,0.5 P,0,0,0,0 F,0,10910,11374,0.8,0 M,0,11735,,420.4056,84.15158 C,0,11735,,255,219,108 F,0,11735,11890,0,1 S,0,11735,12354,0.3,0.6 P,0,0,0,0 F,0,11890,12354,1,0 M,0,12612,,573,277 C,0,12612,,255,219,108 F,0,12612,12766,0,1 S,0,12612,13230,0.25,0.5 P,0,0,0,0 F,0,12766,13230,0.8,0 M,0,13849,,198,341 C,0,13849,,164,164,255 F,0,13849,14003,0,1 S,0,13849,14467,0.25,0.5 P,0,0,0,0 F,0,14003,14467,0.8,0 M,0,15446,,112.5604,196.4528 C,0,15446,,247,108,130 F,0,15446,15601,0,1 S,0,15446,16065,0.3,0.6 P,0,0,0,0 F,0,15601,16065,1,0 M,0,16323,,185,172 C,0,16323,,247,108,130 F,0,16323,16477,0,1 S,0,16323,16941,0.25,0.5 P,0,0,0,0 F,0,16477,16941,0.8,0 M,0,18179,,554,129 C,0,18179,,255,219,108 F,0,18179,18333,0,1 S,0,18179,18797,0.25,0.5 P,0,0,0,0 F,0,18333,18797,0.8,0 M,0,19158,,479.6345,307.528 C,0,19158,,164,164,255 F,0,19158,19313,0,1 S,0,19158,19777,0.3,0.6 P,0,0,0,0 F,0,19313,19777,1,0 M,0,20653,,117,203 C,0,20653,,79,158,255 F,0,20653,20807,0,1 S,0,20653,21271,0.25,0.5 P,0,0,0,0 F,0,20807,21271,0.8,0 M,0,21890,,245,170 C,0,21890,,79,158,255 F,0,21890,22044,0,1 S,0,21890,22508,0.25,0.5 P,0,0,0,0 F,0,22044,22508,0.8,0 M,0,22869,,506.9684,204.3793 C,0,22869,,247,108,130 F,0,22869,23024,0,1 S,0,22869,23488,0.3,0.6 P,0,0,0,0 F,0,23024,23488,1,0 M,0,23746,,445,186 C,0,23746,,247,108,130 F,0,23746,23900,0,1 S,0,23746,24364,0.25,0.5 P,0,0,0,0 F,0,23900,24364,0.8,0 M,0,24983,,334,113 C,0,24983,,255,219,108 F,0,24983,25137,0,1 S,0,24983,25601,0.25,0.5 P,0,0,0,0 F,0,25137,25601,0.8,0 M,0,26220,,116,119 C,0,26220,,164,164,255 F,0,26220,26374,0,1 S,0,26220,26838,0.25,0.5 P,0,0,0,0 F,0,26374,26838,0.8,0 M,0,27457,,173,305 C,0,27457,,164,164,255 F,0,27457,27611,0,1 S,0,27457,28075,0.25,0.5 P,0,0,0,0 F,0,27611,28075,0.8,0 M,0,28436,,299.4521,400.7589 C,0,28436,,79,158,255 F,0,28436,28591,0,1 S,0,28436,29055,0.3,0.6 P,0,0,0,0 F,0,28591,29055,1,0 M,0,29313,,435,249 C,0,29313,,79,158,255 F,0,29313,29467,0,1 S,0,29313,29931,0.25,0.5 P,0,0,0,0 F,0,29467,29931,0.8,0 M,0,30292,,297.4124,119.5282 C,0,30292,,247,108,130 F,0,30292,30447,0,1 S,0,30292,30911,0.3,0.6 P,0,0,0,0 F,0,30447,30911,1,0 M,0,31787,,255,345 C,0,31787,,255,219,108 F,0,31787,31941,0,1 S,0,31787,32405,0.25,0.5 P,0,0,0,0 F,0,31941,32405,0.8,0 M,0,33024,,172,288 C,0,33024,,255,219,108 F,0,33024,33178,0,1 S,0,33024,33642,0.25,0.5 P,0,0,0,0 F,0,33178,33642,0.8,0 M,0,34003,,349.1103,142.7101 C,0,34003,,164,164,255 F,0,34003,34158,0,1 S,0,34003,34622,0.3,0.6 P,0,0,0,0 F,0,34158,34622,1,0 M,0,34880,,515,239 C,0,34880,,164,164,255 F,0,34880,35034,0,1 S,0,34880,35498,0.25,0.5 P,0,0,0,0 F,0,35034,35498,0.8,0 M,0,36117,,510,358 C,0,36117,,79,158,255 F,0,36117,36271,0,1 S,0,36117,36735,0.25,0.5 P,0,0,0,0 F,0,36271,36735,0.8,0 M,0,37714,,280.7545,294.2294 C,0,37714,,247,108,130 F,0,37714,37869,0,1 S,0,37714,38333,0.3,0.6 P,0,0,0,0 F,0,37869,38333,1,0 M,0,38591,,315,171 C,0,38591,,247,108,130 F,0,38591,38745,0,1 S,0,38591,39209,0.25,0.5 P,0,0,0,0 F,0,38745,39209,0.8,0 M,0,40189,,503.5703,208.9836 C,0,40189,,255,219,108 F,0,40189,40344,0,1 S,0,40189,40808,0.3,0.6 P,0,0,0,0 F,0,40344,40808,1,0 M,0,41684,,268,297 C,0,41684,,164,164,255 F,0,41684,41838,0,1 S,0,41684,42302,0.25,0.5 P,0,0,0,0 F,0,41838,42302,0.8,0 M,0,42921,,81,239 C,0,42921,,164,164,255 F,0,42921,43075,0,1 S,0,42921,43539,0.25,0.5 P,0,0,0,0 F,0,43075,43539,0.8,0 M,0,43900,,285.02,130.1215 C,0,43900,,79,158,255 F,0,43900,44055,0,1 S,0,43900,44519,0.3,0.6 P,0,0,0,0 F,0,44055,44519,1,0
Sprite,Foreground,Centre,"sb\hl.png",0,0 M,0,1323,,140.7646,203.9445 C,0,1323,,164,164,255 F,0,1323,1478,0,1 S,0,1323,1942,0.3,0.6 P,0,0,0,0 F,0,1478,1942,1,0 M,0,3127,,222.1189,350.3945 C,0,3127,,79,158,255 F,0,3127,3282,0,1 S,0,3127,3745,0.3,0.6 P,0,0,0,0 F,0,3282,3745,1,0 M,0,4983,,390.2961,322.1031 C,0,4983,,247,108,130 F,0,4983,5138,0,1 S,0,4983,5601,0.3,0.6 P,0,0,0,0 F,0,5138,5601,1,0 M,0,6890,,241.8712,137.4194 C,0,6890,,255,219,108 F,0,6890,7045,0,1 S,0,6890,7509,0.3,0.6 P,0,0,0,0 F,0,7045,7509,1,0 M,0,8282,,68,204 C,0,8282,,164,164,255 F,0,8282,8436,0,1 S,0,8282,8900,0.3,0.6 P,0,0,0,0 F,0,8436,8900,1,0 M,0,12612,,573,277 C,0,12612,,255,219,108 F,0,12612,12766,0,1 S,0,12612,13230,0.3,0.6 P,0,0,0,0 F,0,12766,13230,1,0 M,0,13849,,198,341 C,0,13849,,164,164,255 F,0,13849,14003,0,1 S,0,13849,14467,0.3,0.6 P,0,0,0,0 F,0,14003,14467,1,0 M,0,16323,,185,172 C,0,16323,,247,108,130 F,0,16323,16477,0,1 S,0,16323,16941,0.3,0.6 P,0,0,0,0 F,0,16477,16941,1,0 M,0,19416,,422,247 C,0,19416,,164,164,255 F,0,19416,19570,0,1 S,0,19416,20034,0.3,0.6 P,0,0,0,0 F,0,19570,20034,1,0 M,0,20653,,117,203 C,0,20653,,79,158,255 F,0,20653,20807,0,1 S,0,20653,21271,0.3,0.6 P,0,0,0,0 F,0,20807,21271,1,0 M,0,23746,,445,186 C,0,23746,,247,108,130 F,0,23746,23900,0,1 S,0,23746,24364,0.3,0.6 P,0,0,0,0 F,0,23900,24364,1,0 M,0,24983,,334,113 C,0,24983,,255,219,108 F,0,24983,25137,0,1 S,0,24983,25601,0.3,0.6 P,0,0,0,0 F,0,25137,25601,1,0 M,0,26220,,116,119 C,0,26220,,164,164,255 F,0,26220,26374,0,1 S,0,26220,26838,0.3,0.6 P,0,0,0,0 F,0,26374,26838,1,0 M,0,30550,,285,191 C,0,30550,,247,108,130 F,0,30550,30704,0,1 S,0,30550,31168,0.3,0.6 P,0,0,0,0 F,0,30704,31168,1,0 M,0,31787,,255,345 C,0,31787,,255,219,108 F,0,31787,31941,0,1 S,0,31787,32405,0.3,0.6 P,0,0,0,0 F,0,31941,32405,1,0 M,0,34880,,515,239 C,0,34880,,164,164,255 F,0,34880,35034,0,1 S,0,34880,35498,0.3,0.6 P,0,0,0,0 F,0,35034,35498,1,0 M,0,36117,,510,358 C,0,36117,,79,158,255 F,0,36117,36271,0,1 S,0,36117,36735,0.3,0.6 P,0,0,0,0 F,0,36271,36735,1,0 M,0,38591,,315,171 C,0,38591,,247,108,130 F,0,38591,38745,0,1 S,0,38591,39209,0.3,0.6 P,0,0,0,0 F,0,38745,39209,1,0 M,0,40447,,372,247 C,0,40447,,255,219,108 F,0,40447,40601,0,1 S,0,40447,41065,0.3,0.6 P,0,0,0,0 F,0,40601,41065,1,0 M,0,41684,,268,297 C,0,41684,,164,164,255 F,0,41684,41838,0,1 S,0,41684,42302,0.3,0.6 P,0,0,0,0 F,0,41838,42302,1,0 M,0,44158,,342,83 C,0,44158,,79,158,255 F,0,44158,44312,0,1 S,0,44158,44776,0.3,0.6 P,0,0,0,0 F,0,44312,44776,1,0
Sprite,Foreground,Centre,"sb\hl.png",0,0 M,0,1375,,138.779,186.5757 C,0,1375,,164,164,255 F,0,1375,1530,0,1 S,0,1375,1994,0.3,0.6 P,0,0,0,0 F,0,1530,1994,1,0 M,0,3230,,247.2286,362.588 C,0,3230,,79,158,255 F,0,3230,3385,0,1 S,0,3230,3849,0.3,0.6 P,0,0,0,0 F,0,3385,3849,1,0 M,0,5086,,368.1093,305.1984 C,0,5086,,247,108,130 F,0,5086,5241,0,1 S,0,5086,5705,0.3,0.6 P,0,0,0,0 F,0,5241,5705,1,0 M,0,6942,,228.2794,140.7461 C,0,6942,,255,219,108 F,0,6942,7097,0,1 S,0,6942,7561,0.3,0.6 P,0,0,0,0 F,0,7097,7561,1,0
Sprite,Foreground,Centre,"sb\hl.png",0,0 M,0,1427,,139.6474,169.1181 C,0,1427,,164,164,255 F,0,1427,1581,0,1 S,0,1427,2045,0.3,0.6 P,0,0,0,0 F,0,1581,2045,1,0 M,0,3282,,260.604,366.7124 C,0,3282,,79,158,255 F,0,3282,3436,0,1 S,0,3282,3900,0.3,0.6 P,0,0,0,0 F,0,3436,3900,1,0 M,0,5138,,355.3611,299.4429 C,0,5138,,247,108,130 F,0,5138,5292,0,1 S,0,5138,5756,0.3,0.6 P,0,0,0,0 F,0,5292,5756,1,0 M,0,6994,,215.0291,145.2568 C,0,6994,,255,219,108 F,0,6994,7148,0,1 S,0,6994,7612,0.3,0.6 P,0,0,0,0 F,0,7148,7612,1,0
//Storyboard Layer 4 (Overlay)
//Storyboard Sound Samples

[TimingPoints]
860,618.556701030928,3,2,1,40,1,0
2097,-125,3,2,1,40,0,0
15086,-111.111111111111,3,2,1,40,0,0
15705,-111.111111111111,3,2,2,40,0,0
16323,-111.111111111111,3,2,1,40,0,0
16942,-111.111111111111,3,2,3,40,0,0
17561,-111.111111111111,3,2,1,40,0,0
19416,-111.111111111111,3,2,2,40,0,0
20035,-111.111111111111,3,2,1,40,0,0
20653,-111.111111111111,3,2,4,40,0,0
21272,-111.111111111111,3,2,2,40,0,0
22509,-111.111111111111,3,2,1,40,0,0
23128,-111.111111111111,3,2,5,40,0,0
23540,-111.111111111111,3,2,1,40,0,0
23746,-111.111111111111,3,2,6,40,0,0
24365,-111.111111111111,3,2,3,40,0,0
24983,-111.111111111111,3,2,7,40,0,0
25395,-111.111111111111,3,2,1,40,0,0
25602,-111.111111111111,3,2,2,40,0,0
26220,-111.111111111111,3,2,8,40,0,0
26632,-111.111111111111,3,2,6,40,0,0
27457,-111.111111111111,3,2,3,40,0,0
28076,-111.111111111111,3,2,4,40,0,0
28488,-111.111111111111,3,2,2,40,0,0
29932,-111.111111111111,3,2,1,40,0,0
30550,-111.111111111111,3,2,2,40,0,0
31169,-111.111111111111,3,2,1,40,0,0
31787,-111.111111111111,3,2,3,40,0,0
32406,-111.111111111111,3,2,1,40,0,0
34262,-111.111111111111,3,2,2,40,0,0
34880,-111.111111111111,3,2,1,40,0,0
35499,-111.111111111111,3,2,4,40,0,0
35911,-111.111111111111,3,2,2,40,0,0
37354,-111.111111111111,3,2,1,40,0,0
37973,-111.111111111111,3,2,5,40,0,0
38385,-111.111111111111,3,2,1,40,0,0
38591,-111.111111111111,3,2,6,40,0,0
39210,-111.111111111111,3,2,3,40,0,0
39829,-111.111111111111,3,2,7,40,0,0
40241,-111.111111111111,3,2,1,40,0,0
40447,-111.111111111111,3,2,2,40,0,0
41066,-111.111111111111,3,2,8,40,0,0
41478,-111.111111111111,3,2,6,40,0,0
42303,-111.111111111111,3,2,3,40,0,0
42921,-111.111111111111,3,2,4,40,0,0
43334,-111.111111111111,3,2,2,40,0,0
44777,-111.111111111111,3,2,1,40,0,0

[Colours]
Combo1 : 255,219,108
Combo2 : 164,164,255
Combo3 : 79,158,255
Combo4 : 247,108,130

[HitObjects]
51,35,860,6,1,B|25:109|81:164|81:164|64:113|93:67,1,210,0|0,1:0|2:0,2:0:0:0:
199,143,1890,1,1,2:0:0:0:
199,143,2097,2,1,P|153:135|120:129,1,56,8|0,2:0|2:0,2:0:0:0:
70,232,2509,1,1,2:0:0:0:
70,232,2715,6,1,B|169:253|106:291|210:314,1,168,0|0,1:0|2:0,2:0:0:0:
304,354,3746,1,1,2:0:0:0:
304,354,3952,2,1,P|284:326|279:287,1,56,8|0,2:0|2:0,2:0:0:0:
325,163,4365,1,1,2:0:0:0:
325,163,4571,6,1,B|309:207|329:269|329:269|303:240|260:237,1,168,0|0,1:0|2:0,2:0:0:0:
123,260,5808,2,1,P|148:252|166:229,1,56,8|0,2:0|2:0,2:0:0:0:
112,202,6220,1,1,2:0:0:0:
300,79,6427,6,1,B|206:119|235:52|137:95,1,168,0|0,1:0|2:0,2:0:0:0:
44,307,7664,2,1,B|50:258|50:258|45:246|45:246|53:179,1,112,8|0,2:0|2:0,2:0:0:0:
4,148,8282,6,1,P|53:131|114:165,1,112,0|0,1:0|2:0,2:0:0:0:
105,154,8901,1,1,2:0:0:0:
328,239,9313,1,0,1:0:0:0:
328,239,9519,6,1,P|279:222|218:256,1,112,8|0,2:0|2:0,2:0:0:0:
155,340,10138,2,1,B|161:291|161:291|156:279|156:279|164:212,1,112,0|0,1:0|2:0,2:0:0:0:
121,187,10756,5,1,2:0:0:0:
163,120,10963,1,1,2:0:0:0:
141,44,11169,1,1,2:0:0:0:
264,24,11375,6,1,P|314:40|371:18,1,112,8|0,2:0|2:0,2:0:0:0:
427,44,11994,2,1,B|419:93|419:93|411:103|411:103|405:152,1,112,0|0,1:0|2:0,2:0:0:0:
509,221,12612,2,1,P|498:179|482:220,1,112,0|0,2:0|2:0,2:0:0:0:
387,274,13231,6,1,P|350:235|278:224,1,112,8|0,2:0|1:0,2:0:0:0:
134,285,13849,2,1,P|187:281|242:233,1,112,0|0,1:0|2:0,2:0:0:0:
243,185,14468,5,1,2:0:0:0:
211,125,14674,1,1,2:0:0:0:
179,65,14880,1,1,2:0:0:0:
45,32,15086,6,1,B|51:89|51:89|45:102|45:102|50:156,1,125.999996154785,14|0,2:0|2:0,2:0:0:0:
111,210,15705,2,1,L|79:349,1,125.999996154785,2|0,1:2|2:0,2:0:0:0:
121,116,16323,2,1,B|196:135|141:166|265:188,1,125.999996154785,2|0,2:0|2:0,2:0:0:0:
289,120,16942,6,1,P|316:54|270:71,1,125.999996154785,10|0,2:0|1:0,2:0:0:0:
382,11,17561,2,1,P|438:52|504:77,1,125.999996154785,10|0,2:1|2:0,2:0:0:0:
490,73,18179,1,1,2:0:0:0:
419,360,18591,1,1,2:0:0:0:
419,360,18798,6,1,B|414:306|414:306|420:293|420:293|414:236,1,125.999996154785,10|0,2:0|2:0,2:0:0:0:
358,191,19416,2,1,P|302:210|287:276,1,125.999996154785,2|0,1:2|2:0,2:0:0:0:
159,351,20035,2,1,P|212:311|212:252,1,125.999996154785,2|0,2:0|2:0,2:0:0:0:
53,147,20653,6,1,B|128:166|73:197|197:219,1,125.999996154785,10|0,2:0|2:0,2:0:0:0:
222,163,21272,2,1,P|243:128|179:120,1,125.999996154785,2|0,1:0|2:0,2:0:0:0:
181,114,21890,1,1,2:0:0:0:
459,41,22303,1,1,2:0:0:0:
459,41,22509,6,1,B|448:97|448:97|452:106|452:106|439:167,1,125.999996154785,10|0,2:0|2:0,2:0:0:0:
383,202,23128,2,1,P|432:236|488:213,1,125.999996154785,2|0,1:2|2:0,2:0:0:0:
381,130,23746,2,1,B|302:158|361:177|254:208,1,125.999996154785,2|0,1:2|2:0,2:0:0:0:
113,24,24365,6,1,B|192:52|133:71|240:102,1,125.999996154785,10|0,2:0|2:0,2:0:0:0:
270,57,24983,2,1,P|279:126|236:156,1,125.999996154785,2|0,1:2|2:0,2:0:0:0:
161,276,25602,2,1,B|173:218|173:218|169:209|169:209|180:153,1,125.999996154785,2|0,1:2|2:0,2:0:0:0:
52,63,26220,6,1,B|55:119|55:119|62:127|62:127|65:186,1,125.999996154785,10|0,2:0|1:0,2:0:0:0:
0,282,26839,2,1,P|46:245|117:254,1,125.999996154785,2|0,1:2|2:0,2:0:0:0:
109,249,27457,1,2,1:2:0:0:
343,341,27870,1,1,2:0:0:0:
343,341,28076,6,1,B|283:355|283:355|218:341,1,125.999996154785,10|0,2:0|1:0,2:0:0:0:
220,276,28695,2,1,B|279:261|279:261|345:276,1,125.999996154785,2|0,1:0|2:0,2:0:0:0:
371,193,29313,1,1,2:0:0:0:
392,127,29519,1,1,2:0:0:0:
408,58,29725,1,0,1:0:0:0:
292,75,29932,6,1,B|262:54|256:24|256:24|250:54|216:78,1,125.999996154785,10|0,2:0|2:0,2:0:0:0:
221,135,30550,2,1,B|250:155|256:185|256:185|262:154|292:134,1,125.999996154785,2|0,1:2|2:0,2:0:0:0:
324,200,31169,2,1,P|310:264|297:329,1,125.999996154785,2|0,1:2|2:0,2:0:0:0:
191,289,31787,6,1,B|116:304|162:334|85:348,1,125.999996154785,10|0,2:0|1:0,2:0:0:0:
76,280,32406,2,1,P|52:260|109:233,1,125.999996154785,2|0,1:0|2:0,2:0:0:0:
108,232,33024,1,1,2:0:0:0:
159,184,33231,1,1,2:0:0:0:
133,119,33437,1,1,2:0:0:0:
194,31,33643,6,1,B|269:46|223:76|300:90,1,125.999996154785,10|0,2:0|1:0,2:0:0:0:
398,17,34262,2,1,P|358:46|409:77,1,125.999996154785,2|0,1:2|2:0,2:0:0:0:
451,183,34880,2,1,B|464:125|464:125|459:115|459:115|471:61,1,125.999996154785,2|0,1:2|2:0,2:0:0:0:
353,157,35499,6,1,B|364:211|364:211|373:217|373:217|386:276,1,125.999996154785,10|0,2:0|1:0,2:0:0:0:
446,302,36117,2,1,P|398:342|334:304,1,125.999996154785,2|0,1:0|2:0,2:0:0:0:
344,321,36736,1,1,2:0:0:0:
284,356,36942,1,1,2:0:0:0:
221,325,37148,1,1,2:0:0:0:
311,187,37354,6,1,B|233:203|287:227|198:242,1,125.999996154785,10|0,2:0|1:0,2:0:0:0:
149,288,37973,2,1,B|140:229|140:229|133:222|133:222|124:165,1,125.999996154785,2|0,1:2|2:0,2:0:0:0:
251,115,38591,2,1,P|203:102|212:161,1,125.999996154785,2|0,2:0|1:0,2:0:0:0:
221,30,39210,1,10,2:0:0:0:
292,53,39416,1,1,2:0:0:0:
362,78,39622,1,0,1:0:0:0:
455,59,39829,6,1,P|468:120|419:160,1,125.999996154785,2|0,1:2|2:0,2:0:0:0:
308,191,40447,2,1,P|356:178|347:237,1,125.999996154785,2|0,2:0|1:0,2:0:0:0:
244,378,41066,6,1,P|256:307|267:240,1,125.999996154785,10|0,2:0|1:0,2:0:0:0:
204,241,41684,2,1,B|158:254|158:254|146:277|146:277|92:292,1,125.999996154785,2|0,1:2|2:0,2:0:0:0:
60,349,42303,2,1,P|31:296|60:239,1,125.999996154785,6|0,2:0|2:0,2:0:0:0:
17,183,42921,1,10,2:0:0:0:
8,107,43128,1,1,2:0:0:0:
1,32,43334,1,0,1:0:0:0:
127,23,43540,6,1,B|205:39|151:63|236:77,1,125.999996154785,2|0,1:0|2:0,2:0:0:0:
278,27,44158,2,1,L|350:20,1,62.9999980773926,0|0,2:0|2:0,2:0:0:0:
340,20,44571,1,0,1:0:0:0:
434,142,44777,1,8,2:0:0:0:
333,269,44983,1,1,2:0:0:0:
300,200,45189,1,1,2:0:0:0:
247,253,45396,5,0,1:0:0:0:
