osu file format v14

[General]
AudioFilename: audio.mp3
AudioLeadIn: 0
PreviewTime: 22303
Countdown: 0
SampleSet: Soft
StackLeniency: 0.7
Mode: 0
LetterboxInBreaks: 0
EpilepsyWarning: 1
WidescreenStoryboard: 1

[Editor]
DistanceSpacing: 1.4
BeatDivisor: 3
GridSize: 32
TimelineZoom: 1

[Metadata]
Title:Happy Birthday
TitleUnicode:Happy Birthday
Artist:Happy Birthday
ArtistUnicode:Happy Birthday
Creator:Stompy_
Version:Enu's Hard
Source:
Tags:bday birth day kids music hbd piano english pop female vocals enuhq yahuri respirte tachibana_ wiwit
BeatmapID:3626660
BeatmapSetID:1771583

[Difficulty]
HPDrainRate:3.8
CircleSize:5
OverallDifficulty:5.8
ApproachRate:7.2
SliderMultiplier:1.52
SliderTickRate:1

[Events]
//Background and Video events
0,0,"bgbirthday.jpg",0,0
//Break Periods
//Storyboard Layer 0 (Background)
//Storyboard Layer 1 (Fail)
//Storyboard Layer 2 (Pass)
//Storyboard Layer 3 (Foreground)
Sprite,Foreground,Centre,"sb\hl.png",0,0 N,0,0,, N,0,0,, N,0,0,, N,0,0,, N,0,0,, N,0,0,, N,0,0,, N,0,0,, N,0,0,, N,0,0,, N,0,0,, N,0,0,, N,0,0,, N,0,0,, N,0,0,, N,0,0,, N,0,0,, N,0,0,, N,0,0,, N,0,0,, N,0,0,, N,0,0,, N,0,0,, N,0,0,, N,0,0,, N,0,0,, N,0,0,, N,0,0,, N,0,0,, N,0,0,, N,0,0,, N,0,0,, N,0,0,, N,0,0,, N,0,0,, N,0,0,, N,0,0,, N,0,0,, N,0,0,, N,0,0,, N,0,0,, N,0,0,, N,0,0,, N,0,0,, N,0,0,, N,0,0,, N,0,0,, N,0,0,, N,0,0,, N,0,0,, N,0,0,, N,0,0,, N,0,0,, N,0,0,, N,0,0,, N,0,0,, M,0,860,,64,56 C,0,860,,164,164,255 F,0,860,1014,0,1 S,0,860,1478,0.25,0.5 F,0,1014,1478,0.8,0 M,0,1890,,291,106 C,0,1890,,164,164,255 F,0,1890,2044,0,1 S,0,1890,2508,0.25,0.5 F,0,2044,2508,0.8,0 M,0,2715,,199,253 C,0,2715,,79,158,255 F,0,2715,2869,0,1 S,0,2715,3333,0.25,0.5 F,0,2869,3333,0.8,0 M,0,3334,,287,388 C,0,3334,,79,158,255 F,0,3334,3488,0,1 S,0,3334,3952,0.25,0.5 F,0,3488,3952,0.8,0 M,0,4003,,361.5611,294.2098 C,0,4003,,79,158,255 F,0,4003,4158,0,1 S,0,4003,4622,0.3,0.6 F,0,4158,4622,1,0 M,0,5189,,576,221 C,0,5189,,247,108,130 F,0,5189,5343,0,1 S,0,5189,5807,0.25,0.5 F,0,5343,5807,0.8,0 M,0,5808,,443,114 C,0,5808,,247,108,130 F,0,5808,5962,0,1 S,0,5808,6426,0.25,0.5 F,0,5962,6426,0.8,0 M,0,6427,,295,190 C,0,6427,,255,219,108 F,0,6427,6581,0,1 S,0,6427,7045,0.25,0.5 F,0,6581,7045,0.8,0 M,0,7664,,74,269 C,0,7664,,255,219,108 F,0,7664,7818,0,1 S,0,7664,8282,0.25,0.5 F,0,7818,8282,0.8,0 M,0,8333,,162.5891,406.9413 C,0,8333,,164,164,255 F,0,8333,8488,0,1 S,0,8333,8952,0.3,0.6 F,0,8488,8952,1,0 M,0,9313,,322,373 C,0,9313,,164,164,255 F,0,9313,9467,0,1 S,0,9313,9931,0.25,0.5 F,0,9467,9931,0.8,0 M,0,10138,,451,435 C,0,10138,,79,158,255 F,0,10138,10292,0,1 S,0,10138,10756,0.25,0.5 F,0,10292,10756,0.8,0 M,0,10807,,555.1003,326.1718 C,0,10807,,79,158,255 F,0,10807,10962,0,1 S,0,10807,11426,0.3,0.6 F,0,10962,11426,1,0 M,0,11426,,553.0828,233.078 C,0,11426,,79,158,255 F,0,11426,11581,0,1 S,0,11426,12045,0.3,0.6 F,0,11581,12045,1,0 M,0,12045,,432.9885,338.5927 C,0,12045,,247,108,130 F,0,12045,12200,0,1 S,0,12045,12664,0.3,0.6 F,0,12200,12664,1,0 M,0,13024,,227,353 C,0,13024,,247,108,130 F,0,13024,13178,0,1 S,0,13024,13642,0.25,0.5 F,0,13178,13642,0.8,0 M,0,13849,,103,297 C,0,13849,,255,219,108 F,0,13849,14003,0,1 S,0,13849,14467,0.25,0.5 F,0,14003,14467,0.8,0 M,0,14880,,200,86 C,0,14880,,255,219,108 F,0,14880,15034,0,1 S,0,14880,15498,0.25,0.5 F,0,15034,15498,0.8,0 M,0,15499,,302,141 C,0,15499,,255,219,108 F,0,15499,15653,0,1 S,0,15499,16117,0.25,0.5 F,0,15653,16117,0.8,0 M,0,16323,,457,56 C,0,16323,,164,164,255 F,0,16323,16477,0,1 S,0,16323,16941,0.25,0.5 F,0,16477,16941,0.8,0 M,0,16942,,576,228 C,0,16942,,164,164,255 F,0,16942,17096,0,1 S,0,16942,17560,0.25,0.5 F,0,17096,17560,0.8,0 M,0,17561,,511,303 C,0,17561,,79,158,255 F,0,17561,17715,0,1 S,0,17561,18179,0.25,0.5 F,0,17715,18179,0.8,0 M,0,18230,,410.2203,430.2107 C,0,18230,,79,158,255 F,0,18230,18385,0,1 S,0,18230,18849,0.3,0.6 F,0,18385,18849,1,0 M,0,19210,,410,199 C,0,19210,,79,158,255 F,0,19210,19364,0,1 S,0,19210,19828,0.25,0.5 F,0,19364,19828,0.8,0 M,0,20035,,335,83 C,0,20035,,247,108,130 F,0,20035,20189,0,1 S,0,20035,20653,0.25,0.5 F,0,20189,20653,0.8,0 M,0,21066,,64,187 C,0,21066,,247,108,130 F,0,21066,21220,0,1 S,0,21066,21684,0.25,0.5 F,0,21220,21684,0.8,0 M,0,21735,,84.02589,275.6898 C,0,21735,,255,219,108 F,0,21735,21890,0,1 S,0,21735,22354,0.3,0.6 F,0,21890,22354,1,0 M,0,22509,,243,416 C,0,22509,,255,219,108 F,0,22509,22663,0,1 S,0,22509,23127,0.25,0.5 F,0,22663,23127,0.8,0 M,0,23128,,390,440 C,0,23128,,164,164,255 F,0,23128,23282,0,1 S,0,23128,23746,0.25,0.5 F,0,23282,23746,0.8,0 M,0,23797,,470.8411,287.644 C,0,23797,,164,164,255 F,0,23797,23952,0,1 S,0,23797,24416,0.3,0.6 F,0,23952,24416,1,0 M,0,24777,,311,267 C,0,24777,,164,164,255 F,0,24777,24931,0,1 S,0,24777,25395,0.25,0.5 F,0,24931,25395,0.8,0 M,0,25602,,122,173 C,0,25602,,79,158,255 F,0,25602,25756,0,1 S,0,25602,26220,0.25,0.5 F,0,25756,26220,0.8,0 M,0,26633,,380,199 C,0,26633,,79,158,255 F,0,26633,26787,0,1 S,0,26633,27251,0.25,0.5 F,0,26787,27251,0.8,0 M,0,27457,,466,164 C,0,27457,,247,108,130 F,0,27457,27611,0,1 S,0,27457,28075,0.25,0.5 F,0,27611,28075,0.8,0 M,0,28076,,484,341 C,0,28076,,247,108,130 F,0,28076,28230,0,1 S,0,28076,28694,0.25,0.5 F,0,28230,28694,0.8,0 M,0,28745,,320.8383,374.1089 C,0,28745,,255,219,108 F,0,28745,28900,0,1 S,0,28745,29364,0.3,0.6 F,0,28900,29364,1,0 M,0,29725,,422,168 C,0,29725,,255,219,108 F,0,29725,29879,0,1 S,0,29725,30343,0.25,0.5 F,0,29879,30343,0.8,0 M,0,30345,,298,104 C,0,30345,,255,219,108 F,0,30345,30499,0,1 S,0,30345,30963,0.25,0.5 F,0,30499,30963,0.8,0 M,0,31169,,140,68 C,0,31169,,164,164,255 F,0,31169,31323,0,1 S,0,31169,31787,0.25,0.5 F,0,31323,31787,0.8,0 M,0,31788,,71,178 C,0,31788,,164,164,255 F,0,31788,31942,0,1 S,0,31788,32406,0.25,0.5 F,0,31942,32406,0.8,0 M,0,32457,,153.4381,354.4432 C,0,32457,,79,158,255 F,0,32457,32612,0,1 S,0,32457,33076,0.3,0.6 F,0,32612,33076,1,0 M,0,33437,,314,336 C,0,33437,,79,158,255 F,0,33437,33591,0,1 S,0,33437,34055,0.25,0.5 F,0,33591,34055,0.8,0 M,0,34262,,484,246 C,0,34262,,247,108,130 F,0,34262,34416,0,1 S,0,34262,34880,0.25,0.5 F,0,34416,34880,0.8,0 M,0,35292,,234,289 C,0,35292,,247,108,130 F,0,35292,35446,0,1 S,0,35292,35910,0.25,0.5 F,0,35446,35910,0.8,0 M,0,35911,,165,142 C,0,35911,,247,108,130 F,0,35911,36065,0,1 S,0,35911,36529,0.25,0.5 F,0,36065,36529,0.8,0 M,0,36580,,96.29361,216.7209 C,0,36580,,255,219,108 F,0,36580,36735,0,1 S,0,36580,37199,0.3,0.6 F,0,36735,37199,1,0 M,0,37355,,151,67 C,0,37355,,255,219,108 F,0,37355,37509,0,1 S,0,37355,37973,0.25,0.5 F,0,37509,37973,0.8,0 M,0,38024,,283.264,177.7253 C,0,38024,,164,164,255 F,0,38024,38179,0,1 S,0,38024,38643,0.3,0.6 F,0,38179,38643,1,0 M,0,39004,,506,171 C,0,39004,,164,164,255 F,0,39004,39158,0,1 S,0,39004,39622,0.25,0.5 F,0,39158,39622,0.8,0 M,0,39829,,443,234 C,0,39829,,79,158,255 F,0,39829,39983,0,1 S,0,39829,40447,0.25,0.5 F,0,39983,40447,0.8,0 M,0,40498,,363.9483,360.3054 C,0,40498,,79,158,255 F,0,40498,40653,0,1 S,0,40498,41117,0.3,0.6 F,0,40653,41117,1,0 M,0,41478,,111,296 C,0,41478,,79,158,255 F,0,41478,41632,0,1 S,0,41478,42096,0.25,0.5 F,0,41632,42096,0.8,0 M,0,42303,,64,119 C,0,42303,,247,108,130 F,0,42303,42457,0,1 S,0,42303,42921,0.25,0.5 F,0,42457,42921,0.8,0 M,0,43334,,324,153 C,0,43334,,247,108,130 F,0,43334,43488,0,1 S,0,43334,43952,0.25,0.5 F,0,43488,43952,0.8,0 M,0,44003,,240.6741,205.5619 C,0,44003,,255,219,108 F,0,44003,44158,0,1 S,0,44003,44622,0.3,0.6 F,0,44158,44622,1,0 M,0,44777,,64,310 C,0,44777,,255,219,108 F,0,44777,44931,0,1 S,0,44777,45395,0.25,0.5 F,0,44931,45395,0.8,0
Sprite,Foreground,Centre,"sb\hl.png",0,0 N,0,0,, N,0,0,, N,0,0,, N,0,0,, N,0,0,, N,0,0,, N,0,0,, N,0,0,, N,0,0,, N,0,0,, N,0,0,, N,0,0,, N,0,0,, N,0,0,, N,0,0,, N,0,0,, N,0,0,, N,0,0,, N,0,0,, N,0,0,, N,0,0,, N,0,0,, N,0,0,, N,0,0,, N,0,0,, N,0,0,, N,0,0,, N,0,0,, N,0,0,, N,0,0,, N,0,0,, N,0,0,, N,0,0,, N,0,0,, N,0,0,, N,0,0,, N,0,0,, N,0,0,, N,0,0,, N,0,0,, N,0,0,, N,0,0,, N,0,0,, N,0,0,, N,0,0,, N,0,0,, N,0,0,, N,0,0,, N,0,0,, M,0,860,,64,56 C,0,860,,164,164,255 F,0,860,1014,0,1 S,0,860,1478,0.3,0.6 F,0,1014,1478,1,0 M,0,2097,,291,106 C,0,2097,,164,164,255 F,0,2097,2251,0,1 S,0,2097,2715,0.25,0.5 F,0,2251,2715,0.8,0 M,0,3746,,353,300 C,0,3746,,79,158,255 F,0,3746,3900,0,1 S,0,3746,4364,0.25,0.5 F,0,3900,4364,0.8,0 M,0,4571,,489,351 C,0,4571,,247,108,130 F,0,4571,4725,0,1 S,0,4571,5189,0.25,0.5 F,0,4725,5189,0.8,0 M,0,5808,,443,114 C,0,5808,,247,108,130 F,0,5808,5962,0,1 S,0,5808,6426,0.3,0.6 F,0,5962,6426,1,0 M,0,6427,,295,190 C,0,6427,,255,219,108 F,0,6427,6581,0,1 S,0,6427,7045,0.3,0.6 F,0,6581,7045,1,0 M,0,7664,,74,269 C,0,7664,,255,219,108 F,0,7664,7818,0,1 S,0,7664,8282,0.3,0.6 F,0,7818,8282,1,0 M,0,8385,,165.2483,396.9009 C,0,8385,,164,164,255 F,0,8385,8539,0,1 S,0,8385,9003,0.3,0.6 F,0,8539,9003,1,0 M,0,9519,,322,373 C,0,9519,,164,164,255 F,0,9519,9673,0,1 S,0,9519,10137,0.25,0.5 F,0,9673,10137,0.8,0 M,0,10756,,553,316 C,0,10756,,79,158,255 F,0,10756,10910,0,1 S,0,10756,11374,0.25,0.5 F,0,10910,11374,0.8,0 M,0,11375,,563,236 C,0,11375,,79,158,255 F,0,11375,11529,0,1 S,0,11375,11993,0.25,0.5 F,0,11529,11993,0.8,0 M,0,11994,,443,336 C,0,11994,,247,108,130 F,0,11994,12148,0,1 S,0,11994,12612,0.25,0.5 F,0,12148,12612,0.8,0 M,0,13231,,227,353 C,0,13231,,247,108,130 F,0,13231,13385,0,1 S,0,13231,13849,0.25,0.5 F,0,13385,13849,0.8,0 M,0,13900,,106.3777,287.178 C,0,13900,,255,219,108 F,0,13900,14055,0,1 S,0,13900,14519,0.3,0.6 F,0,14055,14519,1,0 M,0,15086,,200,86 C,0,15086,,255,219,108 F,0,15086,15240,0,1 S,0,15086,15704,0.25,0.5 F,0,15240,15704,0.8,0 M,0,15705,,302,141 C,0,15705,,164,164,255 F,0,15705,15859,0,1 S,0,15705,16323,0.25,0.5 F,0,15859,16323,0.8,0 M,0,17354,,511,303 C,0,17354,,164,164,255 F,0,17354,17508,0,1 S,0,17354,17972,0.25,0.5 F,0,17508,17972,0.8,0 M,0,18179,,404,440 C,0,18179,,79,158,255 F,0,18179,18333,0,1 S,0,18179,18797,0.25,0.5 F,0,18333,18797,0.8,0 M,0,18798,,346,300 C,0,18798,,79,158,255 F,0,18798,18952,0,1 S,0,18798,19416,0.25,0.5 F,0,18952,19416,0.8,0 M,0,19467,,398.9639,195.2592 C,0,19467,,247,108,130 F,0,19467,19622,0,1 S,0,19467,20086,0.3,0.6 F,0,19622,20086,1,0 M,0,20086,,323.9639,86.74078 C,0,20086,,247,108,130 F,0,20086,20241,0,1 S,0,20086,20705,0.3,0.6 F,0,20241,20705,1,0 M,0,21272,,64,187 C,0,21272,,255,219,108 F,0,21272,21426,0,1 S,0,21272,21890,0.25,0.5 F,0,21426,21890,0.8,0 M,0,22509,,243,416 C,0,22509,,255,219,108 F,0,22509,22663,0,1 S,0,22509,23127,0.3,0.6 F,0,22663,23127,1,0 M,0,23128,,390,440 C,0,23128,,164,164,255 F,0,23128,23282,0,1 S,0,23128,23746,0.3,0.6 F,0,23282,23746,1,0 M,0,23849,,475.9726,277.2809 C,0,23849,,164,164,255 F,0,23849,24003,0,1 S,0,23849,24467,0.3,0.6 F,0,24003,24467,1,0 M,0,24983,,311,267 C,0,24983,,79,158,255 F,0,24983,25137,0,1 S,0,24983,25601,0.25,0.5 F,0,25137,25601,0.8,0 M,0,25602,,122,173 C,0,25602,,79,158,255 F,0,25602,25756,0,1 S,0,25602,26220,0.3,0.6 F,0,25756,26220,1,0 M,0,26839,,380,199 C,0,26839,,247,108,130 F,0,26839,26993,0,1 S,0,26839,27457,0.25,0.5 F,0,26993,27457,0.8,0 M,0,27508,,472.4673,173.6125 C,0,27508,,247,108,130 F,0,27508,27663,0,1 S,0,27508,28127,0.3,0.6 F,0,27663,28127,1,0 M,0,28127,,472.9483,337.3054 C,0,28127,,247,108,130 F,0,28127,28282,0,1 S,0,28127,28746,0.3,0.6 F,0,28282,28746,1,0 M,0,28797,,314.6766,364.2178 C,0,28797,,255,219,108 F,0,28797,28951,0,1 S,0,28797,29415,0.3,0.6 F,0,28951,29415,1,0 M,0,29932,,422,168 C,0,29932,,255,219,108 F,0,29932,30086,0,1 S,0,29932,30550,0.25,0.5 F,0,30086,30550,0.8,0 M,0,30551,,298,104 C,0,30551,,164,164,255 F,0,30551,30705,0,1 S,0,30551,31169,0.25,0.5 F,0,30705,31169,0.8,0 M,0,31581,,71,178 C,0,31581,,164,164,255 F,0,31581,31735,0,1 S,0,31581,32199,0.25,0.5 F,0,31735,32199,0.8,0 M,0,32406,,160,364 C,0,32406,,79,158,255 F,0,32406,32560,0,1 S,0,32406,33024,0.25,0.5 F,0,32560,33024,0.8,0 M,0,33643,,314,336 C,0,33643,,79,158,255 F,0,33643,33797,0,1 S,0,33643,34261,0.25,0.5 F,0,33797,34261,0.8,0 M,0,34262,,484,246 C,0,34262,,247,108,130 F,0,34262,34416,0,1 S,0,34262,34880,0.3,0.6 F,0,34416,34880,1,0 M,0,35499,,234,289 C,0,35499,,247,108,130 F,0,35499,35653,0,1 S,0,35499,36117,0.25,0.5 F,0,35653,36117,0.8,0 M,0,36168,,154.4276,146.8966 C,0,36168,,255,219,108 F,0,36168,36323,0,1 S,0,36168,36787,0.3,0.6 F,0,36323,36787,1,0 M,0,37148,,151,67 C,0,37148,,255,219,108 F,0,37148,37302,0,1 S,0,37148,37766,0.25,0.5 F,0,37302,37766,0.8,0 M,0,37973,,272,175 C,0,37973,,164,164,255 F,0,37973,38127,0,1 S,0,37973,38591,0.25,0.5 F,0,38127,38591,0.8,0 M,0,39210,,506,171 C,0,39210,,164,164,255 F,0,39210,39364,0,1 S,0,39210,39828,0.25,0.5 F,0,39364,39828,0.8,0 M,0,39829,,443,234 C,0,39829,,79,158,255 F,0,39829,39983,0,1 S,0,39829,40447,0.3,0.6 F,0,39983,40447,1,0 M,0,40550,,352.8451,356.7691 C,0,40550,,79,158,255 F,0,40550,40704,0,1 S,0,40550,41168,0.3,0.6 F,0,40704,41168,1,0 M,0,41685,,111,296 C,0,41685,,247,108,130 F,0,41685,41839,0,1 S,0,41685,42303,0.25,0.5 F,0,41839,42303,0.8,0 M,0,42354,,73.11491,126.1318 C,0,42354,,247,108,130 F,0,42354,42509,0,1 S,0,42354,42973,0.3,0.6 F,0,42509,42973,1,0 M,0,43540,,324,153 C,0,43540,,255,219,108 F,0,43540,43694,0,1 S,0,43540,44158,0.25,0.5 F,0,43694,44158,0.8,0 M,0,44571,,64,310 C,0,44571,,255,219,108 F,0,44571,44725,0,1 S,0,44571,45189,0.25,0.5 F,0,44725,45189,0.8,0 M,0,45395,,193,436 C,0,45395,,255,219,108 F,0,45395,45549,0,1 S,0,45395,46013,0.25,0.5 F,0,45549,46013,0.8,0
Sprite,Foreground,Centre,"sb\hl.png",0,0 N,0,0,, N,0,0,, N,0,0,, N,0,0,, N,0,0,, N,0,0,, N,0,0,, N,0,0,, N,0,0,, N,0,0,, N,0,0,, N,0,0,, N,0,0,, N,0,0,, N,0,0,, N,0,0,, N,0,0,, N,0,0,, N,0,0,, N,0,0,, N,0,0,, N,0,0,, N,0,0,, N,0,0,, N,0,0,, N,0,0,, N,0,0,, N,0,0,, N,0,0,, N,0,0,, N,0,0,, N,0,0,, N,0,0,, N,0,0,, N,0,0,, N,0,0,, N,0,0,, N,0,0,, N,0,0,, N,0,0,, N,0,0,, N,0,0,, N,0,0,, N,0,0,, N,0,0,, M,0,911,,73.74243,59.59792 C,0,911,,164,164,255 F,0,911,1066,0,1 S,0,911,1530,0.3,0.6 F,0,1066,1530,1,0 M,0,2097,,291,106 C,0,2097,,164,164,255 F,0,2097,2251,0,1 S,0,2097,2715,0.3,0.6 F,0,2251,2715,1,0 M,0,3952,,353,300 C,0,3952,,79,158,255 F,0,3952,4106,0,1 S,0,3952,4570,0.25,0.5 F,0,4106,4570,0.8,0 M,0,5859,,433.1292,117.2316 C,0,5859,,247,108,130 F,0,5859,6014,0,1 S,0,5859,6478,0.3,0.6 F,0,6014,6478,1,0 M,0,6478,,285.2002,186.5588 C,0,6478,,255,219,108 F,0,6478,6633,0,1 S,0,6478,7097,0.3,0.6 F,0,6633,7097,1,0 M,0,7715,,77.23163,278.8708 C,0,7715,,255,219,108 F,0,7715,7870,0,1 S,0,7715,8334,0.3,0.6 F,0,7870,8334,1,0 M,0,8436,,167.9775,386.8794 C,0,8436,,164,164,255 F,0,8436,8591,0,1 S,0,8436,9055,0.3,0.6 F,0,8591,9055,1,0 M,0,9519,,322,373 C,0,9519,,164,164,255 F,0,9519,9673,0,1 S,0,9519,10137,0.3,0.6 F,0,9673,10137,1,0 M,0,10756,,553,316 C,0,10756,,79,158,255 F,0,10756,10910,0,1 S,0,10756,11374,0.3,0.6 F,0,10910,11374,1,0 M,0,11375,,563,236 C,0,11375,,79,158,255 F,0,11375,11529,0,1 S,0,11375,11993,0.3,0.6 F,0,11529,11993,1,0 M,0,11994,,443,336 C,0,11994,,247,108,130 F,0,11994,12148,0,1 S,0,11994,12612,0.3,0.6 F,0,12148,12612,1,0 M,0,13231,,227,353 C,0,13231,,247,108,130 F,0,13231,13385,0,1 S,0,13231,13849,0.3,0.6 F,0,13385,13849,1,0 M,0,13952,,109.6584,277.3234 C,0,13952,,255,219,108 F,0,13952,14106,0,1 S,0,13952,14570,0.3,0.6 F,0,14106,14570,1,0 M,0,15086,,200,86 C,0,15086,,255,219,108 F,0,15086,15240,0,1 S,0,15086,15704,0.3,0.6 F,0,15240,15704,1,0 M,0,15705,,302,141 C,0,15705,,164,164,255 F,0,15705,15859,0,1 S,0,15705,16323,0.3,0.6 F,0,15859,16323,1,0 M,0,17561,,511,303 C,0,17561,,79,158,255 F,0,17561,17715,0,1 S,0,17561,18179,0.3,0.6 F,0,17715,18179,1,0 M,0,18282,,414.7918,419.5761 C,0,18282,,79,158,255 F,0,18282,18436,0,1 S,0,18282,18900,0.3,0.6 F,0,18436,18900,1,0 M,0,19416,,410,199 C,0,19416,,247,108,130 F,0,19416,19570,0,1 S,0,19416,20034,0.25,0.5 F,0,19570,20034,0.8,0 M,0,20035,,335,83 C,0,20035,,247,108,130 F,0,20035,20189,0,1 S,0,20035,20653,0.3,0.6 F,0,20189,20653,1,0 M,0,21272,,64,187 C,0,21272,,255,219,108 F,0,21272,21426,0,1 S,0,21272,21890,0.3,0.6 F,0,21426,21890,1,0 M,0,22560,,254.2237,412.8655 C,0,22560,,255,219,108 F,0,22560,22715,0,1 S,0,22560,23179,0.3,0.6 F,0,22715,23179,1,0 M,0,23179,,383.2119,430.6019 C,0,23179,,164,164,255 F,0,23179,23334,0,1 S,0,23179,23798,0.3,0.6 F,0,23334,23798,1,0 M,0,23900,,479.6777,266.3051 C,0,23900,,164,164,255 F,0,23900,24055,0,1 S,0,23900,24519,0.3,0.6 F,0,24055,24519,1,0 M,0,24983,,311,267 C,0,24983,,79,158,255 F,0,24983,25137,0,1 S,0,24983,25601,0.3,0.6 F,0,25137,25601,1,0 M,0,25653,,133.3797,170.492 C,0,25653,,79,158,255 F,0,25653,25808,0,1 S,0,25653,26272,0.3,0.6 F,0,25808,26272,1,0 M,0,26839,,380,199 C,0,26839,,247,108,130 F,0,26839,26993,0,1 S,0,26839,27457,0.3,0.6 F,0,26993,27457,1,0 M,0,27560,,477.1212,184.1915 C,0,27560,,247,108,130 F,0,27560,27714,0,1 S,0,27560,28178,0.3,0.6 F,0,27714,28178,1,0 M,0,28179,,461.8451,333.7691 C,0,28179,,247,108,130 F,0,28179,28333,0,1 S,0,28179,28797,0.3,0.6 F,0,28333,28797,1,0 M,0,28848,,308.515,354.3267 C,0,28848,,255,219,108 F,0,28848,29003,0,1 S,0,28848,29467,0.3,0.6 F,0,29003,29467,1,0 M,0,29932,,422,168 C,0,29932,,255,219,108 F,0,29932,30086,0,1 S,0,29932,30550,0.3,0.6 F,0,30086,30550,1,0 M,0,30551,,298,104 C,0,30551,,164,164,255 F,0,30551,30705,0,1 S,0,30551,31169,0.3,0.6 F,0,30705,31169,1,0 M,0,31788,,71,178 C,0,31788,,164,164,255 F,0,31788,31942,0,1 S,0,31788,32406,0.3,0.6 F,0,31942,32406,1,0 M,0,32509,,148.5832,343.9444 C,0,32509,,79,158,255 F,0,32509,32663,0,1 S,0,32509,33127,0.3,0.6 F,0,32663,33127,1,0 M,0,33643,,314,336 C,0,33643,,79,158,255 F,0,33643,33797,0,1 S,0,33643,34261,0.3,0.6 F,0,33797,34261,1,0 M,0,34313,,472.6025,243.5743 C,0,34313,,247,108,130 F,0,34313,34468,0,1 S,0,34313,34932,0.3,0.6 F,0,34468,34932,1,0 M,0,36117,,165,142 C,0,36117,,255,219,108 F,0,36117,36271,0,1 S,0,36117,36735,0.25,0.5 F,0,36271,36735,0.8,0 M,0,37355,,151,67 C,0,37355,,255,219,108 F,0,37355,37509,0,1 S,0,37355,37973,0.3,0.6 F,0,37509,37973,1,0 M,0,38076,,294.8022,178.4603 C,0,38076,,164,164,255 F,0,38076,38230,0,1 S,0,38076,38694,0.3,0.6 F,0,38230,38694,1,0 M,0,39416,,569,234 C,0,39416,,164,164,255 F,0,39416,39570,0,1 S,0,39416,40034,0.25,0.5 F,0,39570,40034,0.8,0 M,0,40035,,397.4767,243.9286 C,0,40035,,79,158,255 F,0,40035,40189,0,1 S,0,40035,40653,0.3,0.6 F,0,40189,40653,1,0 M,0,40704,,319.2397,347.1509 C,0,40704,,79,158,255 F,0,40704,40859,0,1 S,0,40704,41323,0.3,0.6 F,0,40859,41323,1,0 M,0,41685,,111,296 C,0,41685,,247,108,130 F,0,41685,41839,0,1 S,0,41685,42303,0.3,0.6 F,0,41839,42303,1,0 M,0,42406,,83.40057,131.3638 C,0,42406,,247,108,130 F,0,42406,42560,0,1 S,0,42406,43024,0.3,0.6 F,0,42560,43024,1,0 M,0,43540,,324,153 C,0,43540,,255,219,108 F,0,43540,43694,0,1 S,0,43540,44158,0.3,0.6 F,0,43694,44158,1,0 M,0,44983,,127,376 C,0,44983,,255,219,108 F,0,44983,45137,0,1 S,0,44983,45601,0.25,0.5 F,0,45137,45601,0.8,0
Sprite,Foreground,Centre,"sb\hl.png",0,0 N,0,0,, N,0,0,, N,0,0,, N,0,0,, N,0,0,, N,0,0,, N,0,0,, N,0,0,, N,0,0,, N,0,0,, N,0,0,, N,0,0,, N,0,0,, N,0,0,, N,0,0,, N,0,0,, N,0,0,, N,0,0,, N,0,0,, N,0,0,, N,0,0,, N,0,0,, N,0,0,, N,0,0,, N,0,0,, N,0,0,, N,0,0,, N,0,0,, N,0,0,, N,0,0,, N,0,0,, N,0,0,, N,0,0,, N,0,0,, N,0,0,, N,0,0,, N,0,0,, N,0,0,, N,0,0,, N,0,0,, N,0,0,, N,0,0,, N,0,0,, N,0,0,, N,0,0,, M,0,963,,83.26202,63.74693 C,0,963,,164,164,255 F,0,963,1117,0,1 S,0,963,1581,0.3,0.6 F,0,1117,1581,1,0 M,0,2148,,287.7684,115.8708 C,0,2148,,164,164,255 F,0,2148,2303,0,1 S,0,2148,2767,0.3,0.6 F,0,2303,2767,1,0 M,0,3952,,353,300 C,0,3952,,79,158,255 F,0,3952,4106,0,1 S,0,3952,4570,0.3,0.6 F,0,4106,4570,1,0 M,0,5911,,423.2175,120.3351 C,0,5911,,247,108,130 F,0,5911,6065,0,1 S,0,5911,6529,0.3,0.6 F,0,6065,6529,1,0 M,0,6530,,275.3642,183.2226 C,0,6530,,255,219,108 F,0,6530,6684,0,1 S,0,6530,7148,0.3,0.6 F,0,6684,7148,1,0 M,0,7767,,80.33511,288.7825 C,0,7767,,255,219,108 F,0,7767,7921,0,1 S,0,7767,8385,0.3,0.6 F,0,7921,8385,1,0 M,0,8488,,170.7765,376.8772 C,0,8488,,164,164,255 F,0,8488,8642,0,1 S,0,8488,9106,0.3,0.6 F,0,8642,9106,1,0 M,0,9570,,330.6375,367.3151 C,0,9570,,164,164,255 F,0,9570,9725,0,1 S,0,9570,10189,0.3,0.6 F,0,9725,10189,1,0 M,0,10859,,557.3298,336.3159 C,0,10859,,79,158,255 F,0,10859,11013,0,1 S,0,10859,11477,0.3,0.6 F,0,11013,11477,1,0 M,0,11478,,542.8429,231.836 C,0,11478,,79,158,255 F,0,11478,11632,0,1 S,0,11478,12096,0.3,0.6 F,0,11632,12096,1,0 M,0,12097,,422.7137,339.5526 C,0,12097,,247,108,130 F,0,12097,12251,0,1 S,0,12097,12715,0.3,0.6 F,0,12251,12715,1,0 M,0,13282,,224.4109,342.9413 C,0,13282,,247,108,130 F,0,13282,13437,0,1 S,0,13282,13901,0.3,0.6 F,0,13437,13901,1,0 M,0,14003,,112.8417,267.4369 C,0,14003,,255,219,108 F,0,14003,14158,0,1 S,0,14003,14622,0.3,0.6 F,0,14158,14622,1,0 M,0,15137,,211.2237,82.86552 C,0,15137,,255,219,108 F,0,15137,15292,0,1 S,0,15137,15756,0.3,0.6 F,0,15292,15756,1,0 M,0,15756,,313.0361,137.2592 C,0,15756,,164,164,255 F,0,15756,15911,0,1 S,0,15756,16375,0.3,0.6 F,0,15911,16375,1,0 M,0,17612,,504.1589,312.356 C,0,17612,,79,158,255 F,0,17612,17767,0,1 S,0,17612,18231,0.3,0.6 F,0,17767,18231,1,0 M,0,18333,,418.0008,408.4363 C,0,18333,,79,158,255 F,0,18333,18488,0,1 S,0,18333,18952,0.3,0.6 F,0,18488,18952,1,0 M,0,19416,,410,199 C,0,19416,,247,108,130 F,0,19416,19570,0,1 S,0,19416,20034,0.3,0.6 F,0,19570,20034,1,0 M,0,20138,,312.8716,90.31052 C,0,20138,,247,108,130 F,0,20138,20292,0,1 S,0,20138,20756,0.3,0.6 F,0,20292,20756,1,0 M,0,21323,,70.16167,196.8911 C,0,21323,,255,219,108 F,0,21323,21478,0,1 S,0,21323,21942,0.3,0.6 F,0,21478,21942,1,0 M,0,22612,,265.473,409.8242 C,0,22612,,255,219,108 F,0,22612,22766,0,1 S,0,22612,23230,0.3,0.6 F,0,22766,23230,1,0 M,0,23231,,378.0954,420.2265 C,0,23231,,164,164,255 F,0,23231,23385,0,1 S,0,23231,23849,0.3,0.6 F,0,23385,23849,1,0 M,0,23952,,480.6037,254.762 C,0,23952,,164,164,255 F,0,23952,24106,0,1 S,0,23952,24570,0.3,0.6 F,0,24106,24570,1,0 M,0,25034,,299.9639,263.2592 C,0,25034,,79,158,255 F,0,25034,25189,0,1 S,0,25034,25653,0.3,0.6 F,0,25189,25653,1,0 M,0,25705,,144.7179,167.8037 C,0,25705,,79,158,255 F,0,25705,25859,0,1 S,0,25705,26323,0.3,0.6 F,0,25859,26323,1,0 M,0,26890,,373.1145,189.6795 C,0,26890,,247,108,130 F,0,26890,27045,0,1 S,0,26890,27509,0.3,0.6 F,0,27045,27509,1,0 M,0,27611,,480.2462,195.3369 C,0,27611,,247,108,130 F,0,27611,27766,0,1 S,0,27611,28230,0.3,0.6 F,0,27766,28230,1,0 M,0,28230,,450.7031,330.3567 C,0,28230,,247,108,130 F,0,28230,28385,0,1 S,0,28230,28849,0.3,0.6 F,0,28385,28849,1,0 M,0,28900,,302.3533,344.4356 C,0,28900,,255,219,108 F,0,28900,29054,0,1 S,0,28900,29518,0.3,0.6 F,0,29054,29518,1,0 M,0,29983,,410.7763,164.8655 C,0,29983,,255,219,108 F,0,29983,30138,0,1 S,0,29983,30602,0.3,0.6 F,0,30138,30602,1,0 M,0,30602,,286.9639,107.7408 C,0,30602,,164,164,255 F,0,30602,30757,0,1 S,0,30602,31221,0.3,0.6 F,0,30757,31221,1,0 M,0,31839,,77.93763,187.278 C,0,31839,,164,164,255 F,0,31839,31994,0,1 S,0,31839,32458,0.3,0.6 F,0,31994,32458,1,0 M,0,32560,,145.0952,332.8857 C,0,32560,,79,158,255 F,0,32560,32715,0,1 S,0,32560,33179,0.3,0.6 F,0,32715,33179,1,0 M,0,33694,,325.0361,332.2592 C,0,33694,,79,158,255 F,0,33694,33849,0,1 S,0,33694,34313,0.3,0.6 F,0,33849,34313,1,0 M,0,34365,,461.2481,240.956 C,0,34365,,247,108,130 F,0,34365,34519,0,1 S,0,34365,34983,0.3,0.6 F,0,34519,34983,1,0 M,0,36117,,165,142 C,0,36117,,255,219,108 F,0,36117,36271,0,1 S,0,36117,36735,0.3,0.6 F,0,36271,36735,1,0 M,0,37406,,162.1847,63.97346 C,0,37406,,255,219,108 F,0,37406,37561,0,1 S,0,37406,38025,0.3,0.6 F,0,37561,38025,1,0 M,0,38127,,306.3696,177.6812 C,0,38127,,164,164,255 F,0,38127,38282,0,1 S,0,38127,38746,0.3,0.6 F,0,38282,38746,1,0 M,0,39622,,506,296 C,0,39622,,164,164,255 F,0,39622,39776,0,1 S,0,39622,40240,0.25,0.5 F,0,39776,40240,0.8,0 M,0,40447,,375,364 C,0,40447,,79,158,255 F,0,40447,40601,0,1 S,0,40447,41065,0.25,0.5 F,0,40601,41065,0.8,0 M,0,41066,,206,395 C,0,41066,,79,158,255 F,0,41066,41220,0,1 S,0,41066,41684,0.25,0.5 F,0,41220,41684,0.8,0 M,0,41736,,117.8411,286.644 C,0,41736,,247,108,130 F,0,41736,41891,0,1 S,0,41736,42355,0.3,0.6 F,0,41891,42355,1,0 M,0,42457,,94.37961,135.013 C,0,42457,,247,108,130 F,0,42457,42612,0,1 S,0,42457,43076,0.3,0.6 F,0,42612,43076,1,0 M,0,43591,,314.4298,159.6402 C,0,43591,,255,219,108 F,0,43591,43746,0,1 S,0,43591,44210,0.3,0.6 F,0,43746,44210,1,0 M,0,45189,,127,376 C,0,45189,,255,219,108 F,0,45189,45343,0,1 S,0,45189,45807,0.25,0.5 F,0,45343,45807,0.8,0
Sprite,Foreground,Centre,"sb\hl.png",0,0 N,0,0,, N,0,0,, N,0,0,, N,0,0,, N,0,0,, N,0,0,, N,0,0,, N,0,0,, N,0,0,, N,0,0,, N,0,0,, N,0,0,, N,0,0,, N,0,0,, N,0,0,, N,0,0,, N,0,0,, N,0,0,, N,0,0,, N,0,0,, N,0,0,, N,0,0,, N,0,0,, N,0,0,, N,0,0,, N,0,0,, N,0,0,, N,0,0,, N,0,0,, N,0,0,, N,0,0,, N,0,0,, N,0,0,, N,0,0,, N,0,0,, N,0,0,, N,0,0,, N,0,0,, N,0,0,, N,0,0,, N,0,0,, N,0,0,, N,0,0,, M,0,1014,,92.4178,68.64235 C,0,1014,,164,164,255 F,0,1014,1169,0,1 S,0,1014,1633,0.3,0.6 F,0,1169,1633,1,0 M,0,2200,,284.6649,125.7825 C,0,2200,,164,164,255 F,0,2200,2354,0,1 S,0,2200,2818,0.3,0.6 F,0,2354,2818,1,0 M,0,4055,,370.9617,289.976 C,0,4055,,79,158,255 F,0,4055,4209,0,1 S,0,4055,4673,0.3,0.6 F,0,4209,4673,1,0 M,0,5962,,413.2665,123.3099 C,0,5962,,247,108,130 F,0,5962,6117,0,1 S,0,5962,6581,0.3,0.6 F,0,6117,6581,1,0 M,0,6581,,265.4932,179.9919 C,0,6581,,255,219,108 F,0,6581,6736,0,1 S,0,6581,7200,0.3,0.6 F,0,6736,7200,1,0 M,0,7818,,83.30991,298.7335 C,0,7818,,255,219,108 F,0,7818,7973,0,1 S,0,7818,8437,0.3,0.6 F,0,7973,8437,1,0 M,0,8539,,173.6295,366.8902 C,0,8539,,164,164,255 F,0,8539,8694,0,1 S,0,8539,9158,0.3,0.6 F,0,8694,9158,1,0 M,0,9622,,340.0638,363.1209 C,0,9622,,164,164,255 F,0,9622,9776,0,1 S,0,9622,10240,0.3,0.6 F,0,9776,10240,1,0 M,0,10910,,559.688,346.4308 C,0,10910,,79,158,255 F,0,10910,11065,0,1 S,0,10910,11529,0.3,0.6 F,0,11065,11529,1,0 M,0,11529,,532.5549,232.3018 C,0,11529,,79,158,255 F,0,11529,11684,0,1 S,0,11529,12148,0.3,0.6 F,0,11684,12148,1,0 M,0,12148,,412.4326,338.8608 C,0,12148,,247,108,130 F,0,12148,12303,0,1 S,0,12148,12767,0.3,0.6 F,0,12303,12767,1,0 M,0,13334,,221.7517,332.9009 C,0,13334,,247,108,130 F,0,13334,13488,0,1 S,0,13334,13952,0.3,0.6 F,0,13488,13952,1,0 M,0,14055,,115.9273,257.5195 C,0,14055,,255,219,108 F,0,14055,14209,0,1 S,0,14055,14673,0.3,0.6 F,0,14209,14673,1,0 M,0,15189,,222.473,79.82414 C,0,15189,,255,219,108 F,0,15189,15343,0,1 S,0,15189,15807,0.3,0.6 F,0,15343,15807,1,0 M,0,15808,,324.1284,133.6895 C,0,15808,,164,164,255 F,0,15808,15962,0,1 S,0,15808,16426,0.3,0.6 F,0,15962,16426,1,0 M,0,17664,,499.0274,322.719 C,0,17664,,79,158,255 F,0,17664,17818,0,1 S,0,17664,18282,0.3,0.6 F,0,17818,18282,1,0 M,0,18385,,418.5994,396.8624 C,0,18385,,79,158,255 F,0,18385,18539,0,1 S,0,18385,19003,0.3,0.6 F,0,18539,19003,1,0 M,0,19519,,387.8716,191.6895 C,0,19519,,247,108,130 F,0,19519,19673,0,1 S,0,19519,20137,0.3,0.6 F,0,19673,20137,1,0 M,0,20189,,301.7369,93.74661 C,0,20189,,247,108,130 F,0,20189,20344,0,1 S,0,20189,20808,0.3,0.6 F,0,20344,20808,1,0 M,0,21375,,76.32334,206.7822 C,0,21375,,255,219,108 F,0,21375,21529,0,1 S,0,21375,21993,0.3,0.6 F,0,21529,21993,1,0 M,0,22663,,276.747,406.8762 C,0,22663,,255,219,108 F,0,22663,22818,0,1 S,0,22663,23282,0.3,0.6 F,0,22818,23282,1,0 M,0,23282,,374.3964,409.2495 C,0,23282,,164,164,255 F,0,23282,23437,0,1 S,0,23282,23901,0.3,0.6 F,0,23437,23901,1,0 M,0,24003,,479.5465,243.2516 C,0,24003,,164,164,255 F,0,24003,24158,0,1 S,0,24003,24622,0.3,0.6 F,0,24158,24622,1,0 M,0,25086,,288.8716,259.6895 C,0,25086,,79,158,255 F,0,25086,25240,0,1 S,0,25086,25704,0.3,0.6 F,0,25240,25704,1,0 M,0,25756,,156.0209,164.9705 C,0,25756,,79,158,255 F,0,25756,25911,0,1 S,0,25756,26375,0.3,0.6 F,0,25911,26375,1,0 M,0,26942,,367.9615,179.33 C,0,26942,,247,108,130 F,0,26942,27096,0,1 S,0,26942,27560,0.3,0.6 F,0,27096,27560,1,0 M,0,27663,,480.4852,206.9078 C,0,27663,,247,108,130 F,0,27663,27817,0,1 S,0,27663,28281,0.3,0.6 F,0,27817,28281,1,0 M,0,28282,,439.4935,327.1735 C,0,28282,,247,108,130 F,0,28282,28436,0,1 S,0,28282,28900,0.3,0.6 F,0,28436,28900,1,0 M,0,28951,,296.1917,334.5445 C,0,28951,,255,219,108 F,0,28951,29106,0,1 S,0,28951,29570,0.3,0.6 F,0,29106,29570,1,0 M,0,30035,,399.527,161.8241 C,0,30035,,255,219,108 F,0,30035,30189,0,1 S,0,30035,30653,0.3,0.6 F,0,30189,30653,1,0 M,0,30654,,275.8716,111.3105 C,0,30654,,164,164,255 F,0,30654,30808,0,1 S,0,30654,31272,0.3,0.6 F,0,30808,31272,1,0 M,0,31891,,83.10535,197.6151 C,0,31891,,164,164,255 F,0,31891,32045,0,1 S,0,31891,32509,0.3,0.6 F,0,32045,32509,1,0 M,0,32612,,144.3909,321.3215 C,0,32612,,79,158,255 F,0,32612,32766,0,1 S,0,32612,33230,0.3,0.6 F,0,32766,33230,1,0 M,0,33746,,336.1284,328.6895 C,0,33746,,79,158,255 F,0,33746,33900,0,1 S,0,33746,34364,0.3,0.6 F,0,33900,34364,1,0 M,0,34416,,449.9289,238.1882 C,0,34416,,247,108,130 F,0,34416,34571,0,1 S,0,34416,35035,0.3,0.6 F,0,34571,35035,1,0 M,0,36220,,144.2629,152.5866 C,0,36220,,255,219,108 F,0,36220,36374,0,1 S,0,36220,36838,0.3,0.6 F,0,36374,36838,1,0 M,0,37458,,173.699,62.95641 C,0,37458,,255,219,108 F,0,37458,37612,0,1 S,0,37458,38076,0.3,0.6 F,0,37612,38076,1,0 M,0,38179,,317.3632,174.0367 C,0,38179,,164,164,255 F,0,38179,38333,0,1 S,0,38179,38797,0.3,0.6 F,0,38333,38797,1,0 M,0,39880,,431.5404,236.1106 C,0,39880,,79,158,255 F,0,39880,40035,0,1 S,0,39880,40499,0.3,0.6 F,0,40035,40499,1,0 M,0,40601,,341.7031,353.3567 C,0,40601,,79,158,255 F,0,40601,40756,0,1 S,0,40601,41220,0.3,0.6 F,0,40756,41220,1,0 M,0,41788,,122.9726,276.2809 C,0,41788,,247,108,130 F,0,41788,41942,0,1 S,0,41788,42406,0.3,0.6 F,0,41942,42406,1,0 M,0,42509,,105.9306,135.5089 C,0,42509,,247,108,130 F,0,42509,42663,0,1 S,0,42509,43127,0.3,0.6 F,0,42663,43127,1,0 M,0,43643,,304.2359,165.2767 C,0,43643,,255,219,108 F,0,43643,43797,0,1 S,0,43643,44261,0.3,0.6 F,0,43797,44261,1,0
Sprite,Foreground,Centre,"sb\hl.png",0,0 N,0,0,, N,0,0,, N,0,0,, N,0,0,, N,0,0,, N,0,0,, N,0,0,, N,0,0,, N,0,0,, N,0,0,, N,0,0,, N,0,0,, N,0,0,, N,0,0,, N,0,0,, N,0,0,, N,0,0,, N,0,0,, N,0,0,, N,0,0,, N,0,0,, N,0,0,, N,0,0,, N,0,0,, N,0,0,, N,0,0,, N,0,0,, N,0,0,, N,0,0,, N,0,0,, N,0,0,, N,0,0,, N,0,0,, N,0,0,, N,0,0,, N,0,0,, N,0,0,, N,0,0,, N,0,0,, N,0,0,, N,0,0,, N,0,0,, N,0,0,, M,0,1066,,100.9505,74.55039 C,0,1066,,164,164,255 F,0,1066,1220,0,1 S,0,1066,1684,0.3,0.6 F,0,1220,1684,1,0 M,0,2251,,281.6901,135.7335 C,0,2251,,164,164,255 F,0,2251,2406,0,1 S,0,2251,2870,0.3,0.6 F,0,2406,2870,1,0 M,0,4106,,380.9301,287.4141 C,0,4106,,79,158,255 F,0,4106,4261,0,1 S,0,4106,4725,0.3,0.6 F,0,4261,4725,1,0 M,0,6014,,403.2881,126.1924 C,0,6014,,247,108,130 F,0,6014,6168,0,1 S,0,6014,6632,0.3,0.6 F,0,6168,6632,1,0 M,0,6633,,255.5983,176.8341 C,0,6633,,255,219,108 F,0,6633,6787,0,1 S,0,6633,7251,0.3,0.6 F,0,6787,7251,1,0 M,0,7870,,86.19242,308.7119 C,0,7870,,255,219,108 F,0,7870,8024,0,1 S,0,7870,8488,0.3,0.6 F,0,8024,8488,1,0 M,0,8591,,176.5789,356.9312 C,0,8591,,164,164,255 F,0,8591,8745,0,1 S,0,8591,9209,0.3,0.6 F,0,8745,9209,1,0 M,0,9673,,350.0317,360.5217 C,0,9673,,164,164,255 F,0,9673,9828,0,1 S,0,9673,10292,0.3,0.6 F,0,9828,10292,1,0 M,0,10962,,562,356 C,0,10962,,79,158,255 F,0,10962,11116,0,1 S,0,10962,11580,0.3,0.6 F,0,11116,11580,1,0 M,0,11581,,522.4944,234.4593 C,0,11581,,79,158,255 F,0,11581,11735,0,1 S,0,11581,12199,0.3,0.6 F,0,11735,12199,1,0 M,0,12200,,402.4023,336.5378 C,0,12200,,247,108,130 F,0,12200,12354,0,1 S,0,12200,12818,0.3,0.6 F,0,12354,12818,1,0 M,0,13385,,219.0225,322.8794 C,0,13385,,247,108,130 F,0,13385,13540,0,1 S,0,13385,14004,0.3,0.6 F,0,13540,14004,1,0 M,0,14106,,118.9319,247.5772 C,0,14106,,255,219,108 F,0,14106,14261,0,1 S,0,14106,14725,0.3,0.6 F,0,14261,14725,1,0 M,0,15240,,233.747,76.87623 C,0,15240,,255,219,108 F,0,15240,15395,0,1 S,0,15240,15859,0.3,0.6 F,0,15395,15859,1,0 M,0,15859,,335.2631,130.2534 C,0,15859,,164,164,255 F,0,15859,16014,0,1 S,0,15859,16478,0.3,0.6 F,0,16014,16478,1,0 M,0,17715,,495.3223,333.6949 C,0,17715,,79,158,255 F,0,17715,17870,0,1 S,0,17715,18334,0.3,0.6 F,0,17870,18334,1,0 M,0,18436,,417.3471,385.3593 C,0,18436,,79,158,255 F,0,18436,18591,0,1 S,0,18436,19055,0.3,0.6 F,0,18591,19055,1,0 M,0,19570,,376.7369,188.2534 C,0,19570,,247,108,130 F,0,19570,19725,0,1 S,0,19570,20189,0.3,0.6 F,0,19725,20189,1,0 M,0,20241,,290.5289,96.93505 C,0,20241,,247,108,130 F,0,20241,20395,0,1 S,0,20241,20859,0.3,0.6 F,0,20395,20859,1,0 M,0,21426,,82.48502,216.6733 C,0,21426,,255,219,108 F,0,21426,21581,0,1 S,0,21426,22045,0.3,0.6 F,0,21581,22045,1,0 M,0,22921,,391,440 C,0,22921,,255,219,108 F,0,22921,23075,0,1 S,0,22921,23539,0.25,0.5 F,0,23075,23539,0.8,0 M,0,23746,,464,297 C,0,23746,,164,164,255 F,0,23746,23900,0,1 S,0,23746,24364,0.25,0.5 F,0,23900,24364,0.8,0 M,0,24365,,402,148 C,0,24365,,164,164,255 F,0,24365,24519,0,1 S,0,24365,24983,0.25,0.5 F,0,24519,24983,0.8,0 M,0,25137,,277.7369,256.2534 C,0,25137,,79,158,255 F,0,25137,25292,0,1 S,0,25137,25756,0.3,0.6 F,0,25292,25756,1,0 M,0,25808,,167.2576,161.8847 C,0,25808,,79,158,255 F,0,25808,25962,0,1 S,0,25808,26426,0.3,0.6 F,0,25962,26426,1,0 M,0,26993,,364.3092,168.3482 C,0,26993,,247,108,130 F,0,26993,27148,0,1 S,0,26993,27612,0.3,0.6 F,0,27148,27612,1,0 M,0,27714,,478.6767,218.317 C,0,27714,,247,108,130 F,0,27714,27869,0,1 S,0,27714,28333,0.3,0.6 F,0,27869,28333,1,0 M,0,28333,,428.2397,324.1509 C,0,28333,,247,108,130 F,0,28333,28488,0,1 S,0,28333,28952,0.3,0.6 F,0,28488,28952,1,0 M,0,29003,,290.03,324.6534 C,0,29003,,255,219,108 F,0,29003,29157,0,1 S,0,29003,29621,0.3,0.6 F,0,29157,29621,1,0 M,0,30086,,388.253,158.8762 C,0,30086,,255,219,108 F,0,30086,30241,0,1 S,0,30086,30705,0.3,0.6 F,0,30241,30705,1,0 M,0,30705,,264.7369,114.7466 C,0,30705,,164,164,255 F,0,30705,30860,0,1 S,0,30705,31324,0.3,0.6 F,0,30860,31324,1,0 M,0,31942,,86.7658,208.5952 C,0,31942,,164,164,255 F,0,31942,32097,0,1 S,0,31942,32561,0.3,0.6 F,0,32097,32561,1,0 M,0,32663,,145.6345,309.8254 C,0,32663,,79,158,255 F,0,32663,32818,0,1 S,0,32663,33282,0.3,0.6 F,0,32818,33282,1,0 M,0,33797,,347.2631,325.2534 C,0,33797,,79,158,255 F,0,33797,33952,0,1 S,0,33797,34416,0.3,0.6 F,0,33952,34416,1,0 M,0,34468,,438.6804,235.146 C,0,34468,,247,108,130 F,0,34468,34622,0,1 S,0,34468,35086,0.3,0.6 F,0,34622,35086,1,0 M,0,36271,,134.7928,159.3612 C,0,36271,,255,219,108 F,0,36271,36426,0,1 S,0,36271,36890,0.3,0.6 F,0,36426,36890,1,0 M,0,37509,,185.2704,63.51043 C,0,37509,,255,219,108 F,0,37509,37664,0,1 S,0,37509,38128,0.3,0.6 F,0,37664,38128,1,0 M,0,38230,,327.5396,168.5576 C,0,38230,,164,164,255 F,0,38230,38385,0,1 S,0,38230,38849,0.3,0.6 F,0,38385,38849,1,0 M,0,39932,,420.1298,238.4697 C,0,39932,,79,158,255 F,0,39932,40086,0,1 S,0,39932,40550,0.3,0.6 F,0,40086,40550,1,0 M,0,40653,,330.4935,350.1735 C,0,40653,,79,158,255 F,0,40653,40807,0,1 S,0,40653,41271,0.3,0.6 F,0,40807,41271,1,0 M,0,41839,,126.6777,265.3051 C,0,41839,,247,108,130 F,0,41839,41994,0,1 S,0,41839,42458,0.3,0.6 F,0,41994,42458,1,0 M,0,42560,,117.334,133.7792 C,0,42560,,247,108,130 F,0,42560,42715,0,1 S,0,42560,43179,0.3,0.6 F,0,42715,43179,1,0 M,0,43694,,293.5397,169.8906 C,0,43694,,255,219,108 F,0,43694,43849,0,1 S,0,43694,44313,0.3,0.6 F,0,43849,44313,1,0
Sprite,Foreground,Centre,"sb\hl.png",0,0 N,0,0,, N,0,0,, N,0,0,, N,0,0,, N,0,0,, N,0,0,, N,0,0,, N,0,0,, N,0,0,, N,0,0,, N,0,0,, N,0,0,, N,0,0,, N,0,0,, N,0,0,, N,0,0,, N,0,0,, N,0,0,, N,0,0,, N,0,0,, N,0,0,, N,0,0,, N,0,0,, N,0,0,, N,0,0,, N,0,0,, N,0,0,, N,0,0,, N,0,0,, N,0,0,, N,0,0,, N,0,0,, N,0,0,, N,0,0,, N,0,0,, N,0,0,, N,0,0,, N,0,0,, N,0,0,, N,0,0,, M,0,1117,,108.5077,81.65864 C,0,1117,,164,164,255 F,0,1117,1272,0,1 S,0,1117,1736,0.3,0.6 F,0,1272,1736,1,0 M,0,2303,,278.8076,145.7119 C,0,2303,,164,164,255 F,0,2303,2457,0,1 S,0,2303,2921,0.3,0.6 F,0,2457,2921,1,0 M,0,4158,,391.1799,286.5936 C,0,4158,,79,158,255 F,0,4158,4312,0,1 S,0,4158,4776,0.3,0.6 F,0,4312,4776,1,0 M,0,6065,,393.2572,128.886 C,0,6065,,247,108,130 F,0,6065,6220,0,1 S,0,6065,6684,0.3,0.6 F,0,6220,6684,1,0 M,0,6684,,245.6548,173.8332 C,0,6684,,255,219,108 F,0,6684,6839,0,1 S,0,6684,7303,0.3,0.6 F,0,6839,7303,1,0 M,0,7921,,88.88601,318.7428 C,0,7921,,255,219,108 F,0,7921,8076,0,1 S,0,7921,8540,0.3,0.6 F,0,8076,8540,1,0 M,0,8642,,179.5978,346.9931 C,0,8642,,164,164,255 F,0,8642,8797,0,1 S,0,8642,9261,0.3,0.6 F,0,8797,9261,1,0 M,0,9725,,360.2804,359.5818 C,0,9725,,164,164,255 F,0,9725,9879,0,1 S,0,9725,10343,0.3,0.6 F,0,9879,10343,1,0 M,0,11013,,559.688,346.4308 C,0,11013,,79,158,255 F,0,11013,11168,0,1 S,0,11013,11632,0.3,0.6 F,0,11168,11632,1,0 M,0,11632,,512.779,237.8948 C,0,11632,,79,158,255 F,0,11632,11787,0,1 S,0,11632,12251,0.3,0.6 F,0,11787,12251,1,0 M,0,12251,,392.7307,332.9717 C,0,12251,,247,108,130 F,0,12251,12406,0,1 S,0,12251,12870,0.3,0.6 F,0,12406,12870,1,0 M,0,13437,,216.2235,312.8772 C,0,13437,,247,108,130 F,0,13437,13591,0,1 S,0,13437,14055,0.3,0.6 F,0,13591,14055,1,0 M,0,14158,,121.8049,237.5961 C,0,14158,,255,219,108 F,0,14158,14312,0,1 S,0,14158,14776,0.3,0.6 F,0,14312,14776,1,0 M,0,15911,,346.4711,127.0649 C,0,15911,,164,164,255 F,0,15911,16065,0,1 S,0,15911,16529,0.3,0.6 F,0,16065,16529,1,0 M,0,17767,,494.3963,345.238 C,0,17767,,79,158,255 F,0,17767,17921,0,1 S,0,17767,18385,0.3,0.6 F,0,17921,18385,1,0 M,0,18488,,414.5398,374.1364 C,0,18488,,79,158,255 F,0,18488,18642,0,1 S,0,18488,19106,0.3,0.6 F,0,18642,19106,1,0 M,0,19622,,365.5289,185.065 C,0,19622,,247,108,130 F,0,19622,19776,0,1 S,0,19622,20240,0.3,0.6 F,0,19776,20240,1,0 M,0,20292,,279.2731,99.94991 C,0,20292,,247,108,130 F,0,20292,20447,0,1 S,0,20292,20911,0.3,0.6 F,0,20447,20911,1,0 M,0,21478,,88.64669,226.5644 C,0,21478,,255,219,108 F,0,21478,21632,0,1 S,0,21478,22096,0.3,0.6 F,0,21632,22096,1,0 M,0,23334,,373.3858,397.7114 C,0,23334,,164,164,255 F,0,23334,23488,0,1 S,0,23334,23952,0.3,0.6 F,0,23488,23952,1,0 M,0,24055,,476.8276,232.0188 C,0,24055,,164,164,255 F,0,24055,24209,0,1 S,0,24055,24673,0.3,0.6 F,0,24209,24673,1,0 M,0,25189,,266.5289,253.065 C,0,25189,,79,158,255 F,0,25189,25343,0,1 S,0,25189,25807,0.3,0.6 F,0,25343,25807,1,0 M,0,25859,,178.4437,158.6209 C,0,25859,,79,158,255 F,0,25859,26014,0,1 S,0,25859,26478,0.3,0.6 F,0,26014,26478,1,0 M,0,27045,,363.4362,156.8063 C,0,27045,,247,108,130 F,0,27045,27199,0,1 S,0,27045,27663,0.3,0.6 F,0,27199,27663,1,0 M,0,27766,,475.1324,229.3031 C,0,27766,,247,108,130 F,0,27766,27920,0,1 S,0,27766,28384,0.3,0.6 F,0,27920,28384,1,0 M,0,28385,,416.9501,321.2643 C,0,28385,,247,108,130 F,0,28385,28539,0,1 S,0,28385,29003,0.3,0.6 F,0,28539,29003,1,0 M,0,29054,,294.1826,314.7942 C,0,29054,,255,219,108 F,0,29054,29209,0,1 S,0,29054,29673,0.3,0.6 F,0,29209,29673,1,0 M,0,30757,,253.5289,117.9351 C,0,30757,,164,164,255 F,0,30757,30911,0,1 S,0,30757,31375,0.3,0.6 F,0,30911,31375,1,0 M,0,31994,,87.5551,220.1409 C,0,31994,,164,164,255 F,0,31994,32148,0,1 S,0,31994,32612,0.3,0.6 F,0,32148,32612,1,0 M,0,32715,,148.4227,298.5908 C,0,32715,,79,158,255 F,0,32715,32869,0,1 S,0,32715,33333,0.3,0.6 F,0,32869,33333,1,0 M,0,33849,,358.4711,322.0649 C,0,33849,,79,158,255 F,0,33849,34003,0,1 S,0,33849,34467,0.3,0.6 F,0,34003,34467,1,0 M,0,34519,,427.4852,231.9138 C,0,34519,,247,108,130 F,0,34519,34674,0,1 S,0,34519,35138,0.3,0.6 F,0,34674,35138,1,0 M,0,36323,,126.5295,167.5526 C,0,36323,,255,219,108 F,0,36323,36477,0,1 S,0,36323,36941,0.3,0.6 F,0,36477,36941,1,0 M,0,37561,,196.3258,66.94791 C,0,37561,,255,219,108 F,0,37561,37715,0,1 S,0,37561,38179,0.3,0.6 F,0,37715,38179,1,0 M,0,38282,,336.8753,161.7176 C,0,38282,,164,164,255 F,0,38282,38436,0,1 S,0,38282,38900,0.3,0.6 F,0,38436,38900,1,0 M,0,39983,,408.7608,241.0231 C,0,39983,,79,158,255 F,0,39983,40138,0,1 S,0,39983,40602,0.3,0.6 F,0,40138,40602,1,0 M,0,40756,,307.9502,344.2643 C,0,40756,,79,158,255 F,0,40756,40910,0,1 S,0,40756,41374,0.3,0.6 F,0,40910,41374,1,0 M,0,41891,,127.6037,253.762 C,0,41891,,247,108,130 F,0,41891,42045,0,1 S,0,41891,42509,0.3,0.6 F,0,42045,42509,1,0 M,0,42612,,128.3144,130.2378 C,0,42612,,247,108,130 F,0,42612,42766,0,1 S,0,42612,43230,0.3,0.6 F,0,42766,43230,1,0 M,0,43746,,282.4648,173.5042 C,0,43746,,255,219,108 F,0,43746,43900,0,1 S,0,43746,44364,0.3,0.6 F,0,43900,44364,1,0
Sprite,Foreground,Centre,"sb\hl.png",0,0 N,0,0,, N,0,0,, N,0,0,, N,0,0,, N,0,0,, N,0,0,, N,0,0,, N,0,0,, N,0,0,, N,0,0,, N,0,0,, N,0,0,, N,0,0,, N,0,0,, N,0,0,, N,0,0,, N,0,0,, N,0,0,, N,0,0,, N,0,0,, N,0,0,, N,0,0,, N,0,0,, N,0,0,, N,0,0,, N,0,0,, N,0,0,, N,0,0,, N,0,0,, N,0,0,, N,0,0,, N,0,0,, N,0,0,, N,0,0,, N,0,0,, N,0,0,, N,0,0,, N,0,0,, N,0,0,, N,0,0,, M,0,1169,,114.9905,89.76718 C,0,1169,,164,164,255 F,0,1169,1323,0,1 S,0,1169,1787,0.3,0.6 F,0,1323,1787,1,0 M,0,2354,,276.114,155.7428 C,0,2354,,164,164,255 F,0,2354,2509,0,1 S,0,2354,2973,0.3,0.6 F,0,2509,2973,1,0 M,0,4209,,401.4637,287.1448 C,0,4209,,79,158,255 F,0,4209,4364,0,1 S,0,4209,4828,0.3,0.6 F,0,4364,4828,1,0 M,0,6117,,383.1923,131.4494 C,0,6117,,247,108,130 F,0,6117,6271,0,1 S,0,6117,6735,0.3,0.6 F,0,6271,6735,1,0 M,0,6736,,235.6799,170.939 C,0,6736,,255,219,108 F,0,6736,6890,0,1 S,0,6736,7354,0.3,0.6 F,0,6890,7354,1,0 M,0,7973,,91.44936,328.8077 C,0,7973,,255,219,108 F,0,7973,8127,0,1 S,0,7973,8591,0.3,0.6 F,0,8127,8591,1,0 M,0,8901,,248,281 C,0,8901,,164,164,255 F,0,8901,9055,0,1 S,0,8901,9519,0.25,0.5 F,0,9055,9519,0.8,0 M,0,9776,,370.5886,359.9105 C,0,9776,,164,164,255 F,0,9776,9931,0,1 S,0,9776,10395,0.3,0.6 F,0,9931,10395,1,0 M,0,11065,,557.3298,336.3159 C,0,11065,,79,158,255 F,0,11065,11219,0,1 S,0,11065,11683,0.3,0.6 F,0,11219,11683,1,0 M,0,11684,,504.0864,243.4584 C,0,11684,,79,158,255 F,0,11684,11838,0,1 S,0,11684,12302,0.3,0.6 F,0,11838,12302,1,0 M,0,12303,,384.06,327.3678 C,0,12303,,247,108,130 F,0,12303,12457,0,1 S,0,12303,12921,0.3,0.6 F,0,12457,12921,1,0 M,0,13488,,213.3705,302.8902 C,0,13488,,247,108,130 F,0,13488,13643,0,1 S,0,13488,14107,0.3,0.6 F,0,13643,14107,1,0 M,0,14209,,124.5794,227.5872 C,0,14209,,255,219,108 F,0,14209,14364,0,1 S,0,14209,14828,0.3,0.6 F,0,14364,14828,1,0 M,0,15962,,357.7269,124.0501 C,0,15962,,164,164,255 F,0,15962,16117,0,1 S,0,15962,16581,0.3,0.6 F,0,16117,16581,1,0 M,0,17818,,495.4535,356.7484 C,0,17818,,79,158,255 F,0,17818,17973,0,1 S,0,17818,18437,0.3,0.6 F,0,17973,18437,1,0 M,0,18539,,409.3697,363.7725 C,0,18539,,79,158,255 F,0,18539,18694,0,1 S,0,18539,19158,0.3,0.6 F,0,18694,19158,1,0 M,0,19673,,354.2731,182.0501 C,0,19673,,247,108,130 F,0,19673,19828,0,1 S,0,19673,20292,0.3,0.6 F,0,19828,20292,1,0 M,0,20344,,267.9789,102.8178 C,0,20344,,247,108,130 F,0,20344,20498,0,1 S,0,20344,20962,0.3,0.6 F,0,20498,20962,1,0 M,0,21529,,94.80836,236.4555 C,0,21529,,255,219,108 F,0,21529,21684,0,1 S,0,21529,22148,0.3,0.6 F,0,21684,22148,1,0 M,0,23385,,374.3106,386.1854 C,0,23385,,164,164,255 F,0,23385,23540,0,1 S,0,23385,24004,0.3,0.6 F,0,23540,24004,1,0 M,0,24106,,471.5737,221.7087 C,0,24106,,164,164,255 F,0,24106,24261,0,1 S,0,24106,24725,0.3,0.6 F,0,24261,24725,1,0 M,0,25240,,255.2731,250.0501 C,0,25240,,79,158,255 F,0,25240,25395,0,1 S,0,25240,25859,0.3,0.6 F,0,25395,25859,1,0 M,0,25911,,189.5822,155.1987 C,0,25911,,79,158,255 F,0,25911,26065,0,1 S,0,25911,26529,0.3,0.6 F,0,26065,26529,1,0 M,0,27096,,364.5768,145.3075 C,0,27096,,247,108,130 F,0,27096,27251,0,1 S,0,27096,27715,0.3,0.6 F,0,27251,27715,1,0 M,0,27817,,469.0789,239.1554 C,0,27817,,247,108,130 F,0,27817,27972,0,1 S,0,27817,28436,0.3,0.6 F,0,27972,28436,1,0 M,0,28436,,405.6062,318.5993 C,0,28436,,247,108,130 F,0,28436,28591,0,1 S,0,28436,29055,0.3,0.6 F,0,28591,29055,1,0 M,0,29106,,300.4054,304.9414 C,0,29106,,255,219,108 F,0,29106,29261,0,1 S,0,29106,29724,0.3,0.6 F,0,29261,29724,1,0 M,0,30808,,242.2731,120.9499 C,0,30808,,164,164,255 F,0,30808,30963,0,1 S,0,30808,31427,0.3,0.6 F,0,30963,31427,1,0 M,0,32045,,86.28387,231.6215 C,0,32045,,164,164,255 F,0,32045,32200,0,1 S,0,32045,32664,0.3,0.6 F,0,32200,32664,1,0 M,0,32766,,153.7702,288.3203 C,0,32766,,79,158,255 F,0,32766,32921,0,1 S,0,32766,33385,0.3,0.6 F,0,32921,33385,1,0 M,0,33900,,369.7269,319.0501 C,0,33900,,79,158,255 F,0,33900,34055,0,1 S,0,33900,34519,0.3,0.6 F,0,34055,34519,1,0 M,0,34571,,416.3374,228.5221 C,0,34571,,247,108,130 F,0,34571,34725,0,1 S,0,34571,35189,0.3,0.6 F,0,34725,35189,1,0 M,0,36374,,120.0795,177.2333 C,0,36374,,255,219,108 F,0,36374,36529,0,1 S,0,36374,36993,0.3,0.6 F,0,36529,36993,1,0 M,0,37612,,206.5867,72.25948 C,0,37612,,255,219,108 F,0,37612,37767,0,1 S,0,37612,38231,0.3,0.6 F,0,37767,38231,1,0 M,0,38333,,344.2721,152.8136 C,0,38333,,164,164,255 F,0,38333,38488,0,1 S,0,38333,38952,0.3,0.6 F,0,38488,38952,1,0 M,0,40086,,386.2589,247.0788 C,0,40086,,79,158,255 F,0,40086,40241,0,1 S,0,40086,40705,0.3,0.6 F,0,40241,40705,1,0 M,0,40807,,296.6063,341.5993 C,0,40807,,79,158,255 F,0,40807,40962,0,1 S,0,40807,41426,0.3,0.6 F,0,40962,41426,1,0 M,0,41942,,126.5465,242.2516 C,0,41942,,247,108,130 F,0,41942,42097,0,1 S,0,41942,42561,0.3,0.6 F,0,42097,42561,1,0 M,0,42663,,137.9884,123.9251 C,0,42663,,247,108,130 F,0,42663,42818,0,1 S,0,42663,43282,0.3,0.6 F,0,42818,43282,1,0 M,0,43797,,271.6281,176.8113 C,0,43797,,255,219,108 F,0,43797,43952,0,1 S,0,43797,44416,0.3,0.6 F,0,43952,44416,1,0
Sprite,Foreground,Centre,"sb\hl.png",0,0 N,0,0,, N,0,0,, N,0,0,, N,0,0,, N,0,0,, N,0,0,, N,0,0,, N,0,0,, N,0,0,, N,0,0,, N,0,0,, N,0,0,, N,0,0,, N,0,0,, N,0,0,, N,0,0,, N,0,0,, N,0,0,, N,0,0,, N,0,0,, N,0,0,, N,0,0,, N,0,0,, N,0,0,, N,0,0,, N,0,0,, N,0,0,, N,0,0,, N,0,0,, N,0,0,, N,0,0,, N,0,0,, N,0,0,, N,0,0,, N,0,0,, M,0,1220,,121.1778,98.10867 C,0,1220,,164,164,255 F,0,1220,1375,0,1 S,0,1220,1839,0.3,0.6 F,0,1375,1839,1,0 M,0,2406,,273.5507,165.8077 C,0,2406,,164,164,255 F,0,2406,2560,0,1 S,0,2406,3024,0.3,0.6 F,0,2560,3024,1,0 M,0,4261,,411.3473,290.0992 C,0,4261,,79,158,255 F,0,4261,4415,0,1 S,0,4261,4879,0.3,0.6 F,0,4415,4879,1,0 M,0,6168,,373.0951,133.8821 C,0,6168,,247,108,130 F,0,6168,6323,0,1 S,0,6168,6787,0.3,0.6 F,0,6323,6787,1,0 M,0,6787,,225.6746,168.1515 C,0,6787,,255,219,108 F,0,6787,6942,0,1 S,0,6787,7406,0.3,0.6 F,0,6942,7406,1,0 M,0,8024,,93.88212,338.9049 C,0,8024,,255,219,108 F,0,8024,8179,0,1 S,0,8024,8643,0.3,0.6 F,0,8179,8643,1,0 M,0,9828,,380.5639,362.5757 C,0,9828,,164,164,255 F,0,9828,9982,0,1 S,0,9828,10446,0.3,0.6 F,0,9982,10446,1,0 M,0,11116,,555.1003,326.1718 C,0,11116,,79,158,255 F,0,11116,11271,0,1 S,0,11116,11735,0.3,0.6 F,0,11271,11735,1,0 M,0,11735,,496.4457,250.3688 C,0,11735,,79,158,255 F,0,11735,11890,0,1 S,0,11735,12354,0.3,0.6 F,0,11890,12354,1,0 M,0,12354,,376.4076,320.4629 C,0,12354,,247,108,130 F,0,12354,12509,0,1 S,0,12354,12973,0.3,0.6 F,0,12509,12973,1,0 M,0,13540,,210.4211,292.9312 C,0,13540,,247,108,130 F,0,13540,13694,0,1 S,0,13540,14158,0.3,0.6 F,0,13694,14158,1,0 M,0,14261,,127.255,217.5514 C,0,14261,,255,219,108 F,0,14261,14416,0,1 S,0,14261,14879,0.3,0.6 F,0,14416,14879,1,0 M,0,16014,,369.0211,121.1822 C,0,16014,,164,164,255 F,0,16014,16168,0,1 S,0,16014,16632,0.3,0.6 F,0,16168,16632,1,0 M,0,17870,,498.1724,367.9812 C,0,17870,,79,158,255 F,0,17870,18024,0,1 S,0,17870,18488,0.3,0.6 F,0,18024,18488,1,0 M,0,19725,,342.9789,179.1823 C,0,19725,,247,108,130 F,0,19725,19879,0,1 S,0,19725,20343,0.3,0.6 F,0,19879,20343,1,0 M,0,20395,,256.6265,105.4461 C,0,20395,,247,108,130 F,0,20395,20550,0,1 S,0,20395,21014,0.3,0.6 F,0,20550,21014,1,0 M,0,21581,,100.97,246.3466 C,0,21581,,255,219,108 F,0,21581,21735,0,1 S,0,21581,22199,0.3,0.6 F,0,21735,22199,1,0 M,0,23437,,376.9048,374.9251 C,0,23437,,164,164,255 F,0,23437,23591,0,1 S,0,23437,24055,0.3,0.6 F,0,23591,24055,1,0 M,0,25292,,243.9789,247.1822 C,0,25292,,79,158,255 F,0,25292,25446,0,1 S,0,25292,25910,0.3,0.6 F,0,25446,25910,1,0 M,0,25962,,200.6466,151.5432 C,0,25962,,79,158,255 F,0,25962,26117,0,1 S,0,25962,26581,0.3,0.6 F,0,26117,26581,1,0 M,0,27148,,367.4933,134.1415 C,0,27148,,247,108,130 F,0,27148,27302,0,1 S,0,27148,27766,0.3,0.6 F,0,27302,27766,1,0 M,0,28076,,484,341 C,0,28076,,247,108,130 F,0,28076,28230,0,1 S,0,28076,28694,0.3,0.6 F,0,28230,28694,1,0 M,0,29157,,306.6282,295.0887 C,0,29157,,255,219,108 F,0,29157,29312,0,1 S,0,29157,29776,0.3,0.6 F,0,29312,29776,1,0 M,0,30860,,230.9789,123.8178 C,0,30860,,164,164,255 F,0,30860,31014,0,1 S,0,30860,31478,0.3,0.6 F,0,31014,31478,1,0 M,0,32097,,83.24884,242.7576 C,0,32097,,164,164,255 F,0,32097,32251,0,1 S,0,32097,32715,0.3,0.6 F,0,32251,32715,1,0 M,0,33024,,227,219 C,0,33024,,79,158,255 F,0,33024,33178,0,1 S,0,33024,33642,0.25,0.5 F,0,33178,33642,0.8,0 M,0,33952,,381.0211,316.1823 C,0,33952,,79,158,255 F,0,33952,34106,0,1 S,0,33952,34570,0.3,0.6 F,0,34106,34570,1,0 M,0,34622,,405.2711,224.8725 C,0,34622,,247,108,130 F,0,34622,34777,0,1 S,0,34622,35241,0.3,0.6 F,0,34777,35241,1,0 M,0,36426,,115.2699,187.842 C,0,36426,,255,219,108 F,0,36426,36580,0,1 S,0,36426,37044,0.3,0.6 F,0,36580,37044,1,0 M,0,37664,,215.9669,79.0131 C,0,37664,,255,219,108 F,0,37664,37818,0,1 S,0,37664,38282,0.3,0.6 F,0,37818,38282,1,0 M,0,38591,,401,68 C,0,38591,,164,164,255 F,0,38591,38745,0,1 S,0,38591,39209,0.25,0.5 F,0,38745,39209,0.8,0 M,0,40138,,375.1014,250.4366 C,0,40138,,79,158,255 F,0,40138,40292,0,1 S,0,40138,40756,0.3,0.6 F,0,40292,40756,1,0 M,0,41994,,123.8276,231.0188 C,0,41994,,247,108,130 F,0,41994,42148,0,1 S,0,41994,42612,0.3,0.6 F,0,42148,42612,1,0 M,0,42921,,204,56 C,0,42921,,247,108,130 F,0,42921,43075,0,1 S,0,42921,43539,0.25,0.5 F,0,43075,43539,0.8,0 M,0,43849,,266.7727,187.405 C,0,43849,,255,219,108 F,0,43849,44003,0,1 S,0,43849,44467,0.3,0.6 F,0,44003,44467,1,0
Sprite,Foreground,Centre,"sb\hl.png",0,0 N,0,0,, N,0,0,, N,0,0,, N,0,0,, N,0,0,, N,0,0,, N,0,0,, N,0,0,, N,0,0,, N,0,0,, N,0,0,, N,0,0,, N,0,0,, N,0,0,, N,0,0,, N,0,0,, N,0,0,, N,0,0,, N,0,0,, N,0,0,, N,0,0,, N,0,0,, N,0,0,, N,0,0,, N,0,0,, N,0,0,, N,0,0,, N,0,0,, M,0,1272,,128.1696,105.7761 C,0,1272,,164,164,255 F,0,1272,1427,0,1 S,0,1272,1890,0.3,0.6 F,0,1427,1890,1,0 M,0,2457,,271.1179,175.9049 C,0,2457,,164,164,255 F,0,2457,2612,0,1 S,0,2457,3076,0.3,0.6 F,0,2612,3076,1,0 M,0,4312,,420.5637,294.6891 C,0,4312,,79,158,255 F,0,4312,4467,0,1 S,0,4312,4931,0.3,0.6 F,0,4467,4931,1,0 M,0,6839,,215.6483,165.4403 C,0,6839,,255,219,108 F,0,6839,6994,0,1 S,0,6839,7457,0.3,0.6 F,0,6994,7457,1,0 M,0,8282,,160,417 C,0,8282,,164,164,255 F,0,8282,8436,0,1 S,0,8282,8900,0.25,0.5 F,0,8436,8900,0.8,0 M,0,9879,,389.9551,366.8215 C,0,9879,,164,164,255 F,0,9879,10034,0,1 S,0,9879,10498,0.3,0.6 F,0,10034,10498,1,0 M,0,12612,,318,240 C,0,12612,,247,108,130 F,0,12612,12766,0,1 S,0,12612,13230,0.25,0.5 F,0,12766,13230,0.8,0 M,0,13591,,207.4022,282.993 C,0,13591,,247,108,130 F,0,13591,13746,0,1 S,0,13591,14210,0.3,0.6 F,0,13746,14210,1,0 M,0,14312,,129.8491,207.4942 C,0,14312,,255,219,108 F,0,14312,14467,0,1 S,0,14312,14931,0.3,0.6 F,0,14467,14931,1,0 M,0,16065,,380.3734,118.5539 C,0,16065,,164,164,255 F,0,16065,16220,0,1 S,0,16065,16684,0.3,0.6 F,0,16220,16684,1,0 M,0,17921,,503.4263,378.2913 C,0,17921,,79,158,255 F,0,17921,18076,0,1 S,0,17921,18540,0.3,0.6 F,0,18076,18540,1,0 M,0,19776,,331.6266,176.5539 C,0,19776,,247,108,130 F,0,19776,19931,0,1 S,0,19776,20395,0.3,0.6 F,0,19931,20395,1,0 M,0,20653,,173,56 C,0,20653,,247,108,130 F,0,20653,20807,0,1 S,0,20653,21271,0.25,0.5 F,0,20807,21271,0.8,0 M,0,21632,,96.71569,256.1407 C,0,21632,,255,219,108 F,0,21632,21787,0,1 S,0,21632,22251,0.3,0.6 F,0,21787,22251,1,0 M,0,23488,,381.9474,364.508 C,0,23488,,164,164,255 F,0,23488,23643,0,1 S,0,23488,24107,0.3,0.6 F,0,23643,24107,1,0 M,0,25343,,232.6265,244.5539 C,0,25343,,79,158,255 F,0,25343,25498,0,1 S,0,25343,25962,0.3,0.6 F,0,25498,25962,1,0 M,0,26220,,267,76 C,0,26220,,79,158,255 F,0,26220,26374,0,1 S,0,26220,26838,0.25,0.5 F,0,26374,26838,0.8,0 M,0,27199,,372.8879,123.9122 C,0,27199,,247,108,130 F,0,27199,27354,0,1 S,0,27199,27818,0.3,0.6 F,0,27354,27818,1,0 M,0,28694,,327,384 C,0,28694,,255,219,108 F,0,28694,28848,0,1 S,0,28694,29312,0.25,0.5 F,0,28848,29312,0.8,0 M,0,30911,,219.6265,126.4461 C,0,30911,,164,164,255 F,0,30911,31066,0,1 S,0,30911,31530,0.3,0.6 F,0,31066,31530,1,0 M,0,32148,,77.64896,252.8737 C,0,32148,,164,164,255 F,0,32148,32303,0,1 S,0,32148,32767,0.3,0.6 F,0,32303,32767,1,0 M,0,34003,,392.3734,313.5539 C,0,34003,,79,158,255 F,0,34003,34158,0,1 S,0,34003,34622,0.3,0.6 F,0,34158,34622,1,0 M,0,34880,,329,157 C,0,34880,,247,108,130 F,0,34880,35034,0,1 S,0,34880,35498,0.25,0.5 F,0,35034,35498,0.8,0 M,0,36477,,110.5736,198.5032 C,0,36477,,255,219,108 F,0,36477,36632,0,1 S,0,36477,37096,0.3,0.6 F,0,36632,37096,1,0 M,0,37715,,223.4518,87.83485 C,0,37715,,255,219,108 F,0,37715,37870,0,1 S,0,37715,38334,0.3,0.6 F,0,37870,38334,1,0 M,0,40189,,364.0479,254.1229 C,0,40189,,79,158,255 F,0,40189,40344,0,1 S,0,40189,40808,0.3,0.6 F,0,40344,40808,1,0 M,0,42045,,118.5737,220.7087 C,0,42045,,247,108,130 F,0,42045,42200,0,1 S,0,42045,42664,0.3,0.6 F,0,42200,42664,1,0 M,0,43900,,261.9173,197.9986 C,0,43900,,255,219,108 F,0,43900,44055,0,1 S,0,43900,44519,0.3,0.6 F,0,44055,44519,1,0
Sprite,Foreground,Centre,"sb\hl.png",0,0 N,0,0,, N,0,0,, N,0,0,, N,0,0,, N,0,0,, N,0,0,, N,0,0,, N,0,0,, N,0,0,, N,0,0,, N,0,0,, N,0,0,, N,0,0,, N,0,0,, N,0,0,, M,0,1323,,136.2617,112.2713 C,0,1323,,164,164,255 F,0,1323,1478,0,1 S,0,1323,1942,0.3,0.6 F,0,1478,1942,1,0 M,0,6890,,205.5809,162.8858 C,0,6890,,255,219,108 F,0,6890,7045,0,1 S,0,6890,7509,0.3,0.6 F,0,7045,7509,1,0 M,0,8282,,160,417 C,0,8282,,164,164,255 F,0,8282,8436,0,1 S,0,8282,8900,0.3,0.6 F,0,8436,8900,1,0 M,0,13849,,103,297 C,0,13849,,255,219,108 F,0,13849,14003,0,1 S,0,13849,14467,0.3,0.6 F,0,14003,14467,1,0 M,0,18179,,404,440 C,0,18179,,79,158,255 F,0,18179,18333,0,1 S,0,18179,18797,0.3,0.6 F,0,18333,18797,1,0 M,0,21684,,90.37079,265.9153 C,0,21684,,255,219,108 F,0,21684,21839,0,1 S,0,21684,22302,0.3,0.6 F,0,21839,22302,1,0 M,0,23746,,464,297 C,0,23746,,164,164,255 F,0,23746,23900,0,1 S,0,23746,24364,0.3,0.6 F,0,23900,24364,1,0 M,0,27457,,466,164 C,0,27457,,247,108,130 F,0,27457,27611,0,1 S,0,27457,28075,0.3,0.6 F,0,27611,28075,1,0 M,0,28694,,327,384 C,0,28694,,255,219,108 F,0,28694,28848,0,1 S,0,28694,29312,0.3,0.6 F,0,28848,29312,1,0 M,0,32406,,160,364 C,0,32406,,79,158,255 F,0,32406,32560,0,1 S,0,32406,33024,0.3,0.6 F,0,32560,33024,1,0 M,0,36529,,104.3614,208.3387 C,0,36529,,255,219,108 F,0,36529,36684,0,1 S,0,36529,37147,0.3,0.6 F,0,36684,37147,1,0 M,0,37973,,272,175 C,0,37973,,164,164,255 F,0,37973,38127,0,1 S,0,37973,38591,0.3,0.6 F,0,38127,38591,1,0 M,0,40447,,375,364 C,0,40447,,79,158,255 F,0,40447,40601,0,1 S,0,40447,41065,0.3,0.6 F,0,40601,41065,1,0 M,0,42303,,64,119 C,0,42303,,247,108,130 F,0,42303,42457,0,1 S,0,42303,42921,0.3,0.6 F,0,42457,42921,1,0 M,0,43952,,251.7678,202.0112 C,0,43952,,255,219,108 F,0,43952,44107,0,1 S,0,43952,44570,0.3,0.6 F,0,44107,44570,1,0
Sprite,Foreground,Centre,"sb\hl.png",0,0 N,0,0,, N,0,0,, N,0,0,, N,0,0,, N,0,0,, N,0,0,, N,0,0,, M,0,1375,,145.152,117.6309 C,0,1375,,164,164,255 F,0,1375,1530,0,1 S,0,1375,1994,0.3,0.6 F,0,1530,1994,1,0 M,0,6942,,195.4868,160.4392 C,0,6942,,255,219,108 F,0,6942,7097,0,1 S,0,6942,7561,0.3,0.6 F,0,7097,7561,1,0 M,0,14364,,132.3098,197.4035 C,0,14364,,255,219,108 F,0,14364,14519,0,1 S,0,14364,14983,0.3,0.6 F,0,14519,14983,1,0 M,0,21787,,77.68098,285.4644 C,0,21787,,255,219,108 F,0,21787,21942,0,1 S,0,21787,22406,0.3,0.6 F,0,21942,22406,1,0 M,0,29209,,312.851,285.2359 C,0,29209,,255,219,108 F,0,29209,29364,0,1 S,0,29209,29828,0.3,0.6 F,0,29364,29828,1,0 M,0,36632,,86.94063,223.6554 C,0,36632,,255,219,108 F,0,36632,36787,0,1 S,0,36632,37251,0.3,0.6 F,0,36787,37251,1,0 M,0,44055,,229.9888,210.2009 C,0,44055,,255,219,108 F,0,44055,44210,0,1 S,0,44055,44674,0.3,0.6 F,0,44210,44674,1,0
Sprite,Foreground,Centre,"sb\hl.png",0,0 N,0,0,, N,0,0,, N,0,0,, N,0,0,, N,0,0,, N,0,0,, N,0,0,, M,0,1427,,154.514,122.1221 C,0,1427,,164,164,255 F,0,1427,1581,0,1 S,0,1427,2045,0.3,0.6 F,0,1581,2045,1,0 M,0,6994,,185.3672,158.1006 C,0,6994,,255,219,108 F,0,6994,7148,0,1 S,0,6994,7612,0.3,0.6 F,0,7148,7612,1,0 M,0,14416,,134.6708,187.2891 C,0,14416,,255,219,108 F,0,14416,14570,0,1 S,0,14416,15034,0.3,0.6 F,0,14570,15034,1,0 M,0,21839,,71.33608,295.239 C,0,21839,,255,219,108 F,0,21839,21993,0,1 S,0,21839,22457,0.3,0.6 F,0,21993,22457,1,0 M,0,29261,,319.0738,275.3831 C,0,29261,,255,219,108 F,0,29261,29415,0,1 S,0,29261,29879,0.3,0.6 F,0,29415,29879,1,0 M,0,36684,,76.83737,229.4531 C,0,36684,,255,219,108 F,0,36684,36838,0,1 S,0,36684,37302,0.3,0.6 F,0,36838,37302,1,0 M,0,44107,,219.7725,215.799 C,0,44107,,255,219,108 F,0,44107,44261,0,1 S,0,44107,44725,0.3,0.6 F,0,44261,44725,1,0
//Storyboard Layer 4 (Overlay)
//Storyboard Sound Samples

[TimingPoints]
860,618.556701030928,3,2,1,40,1,0
860,-121.951219512195,3,2,1,40,0,0
15086,-108.695652173913,3,2,1,40,0,0
15705,-108.695652173913,3,2,2,40,0,0
16323,-108.695652173913,3,2,1,40,0,0
16942,-108.695652173913,3,2,3,40,0,0
17561,-108.695652173913,3,2,1,40,0,0
19416,-108.695652173913,3,2,2,40,0,0
20035,-108.695652173913,3,2,1,40,0,0
20653,-108.695652173913,3,2,4,40,0,0
21272,-108.695652173913,3,2,2,40,0,0
22509,-108.695652173913,3,2,1,40,0,0
23128,-108.695652173913,3,2,5,40,0,0
23540,-108.695652173913,3,2,1,40,0,0
23746,-108.695652173913,3,2,6,40,0,0
24365,-108.695652173913,3,2,3,40,0,0
24983,-108.695652173913,3,2,7,40,0,0
25395,-108.695652173913,3,2,1,40,0,0
25602,-108.695652173913,3,2,2,40,0,0
26220,-108.695652173913,3,2,8,40,0,0
26633,-108.695652173913,3,2,6,40,0,0
27457,-108.695652173913,3,2,3,40,0,0
28076,-108.695652173913,3,2,4,40,0,0
28488,-108.695652173913,3,2,2,40,0,0
29932,-108.695652173913,3,2,1,40,0,0
30551,-108.695652173913,3,2,2,40,0,0
31169,-108.695652173913,3,2,1,40,0,0
31788,-108.695652173913,3,2,3,40,0,0
32406,-108.695652173913,3,2,1,40,0,0
34262,-108.695652173913,3,2,2,40,0,0
34880,-108.695652173913,3,2,1,40,0,0
35499,-108.695652173913,3,2,4,40,0,0
35911,-108.695652173913,3,2,2,40,0,0
37355,-108.695652173913,3,2,1,40,0,0
37973,-108.695652173913,3,2,5,40,0,0
38385,-108.695652173913,3,2,1,40,0,0
38591,-108.695652173913,3,2,6,40,0,0
39210,-108.695652173913,3,2,3,40,0,0
39829,-108.695652173913,3,2,7,40,0,0
40241,-108.695652173913,3,2,1,40,0,0
40447,-108.695652173913,3,2,2,40,0,0
41066,-108.695652173913,3,2,8,40,0,0
41478,-108.695652173913,3,2,6,40,0,0
42303,-108.695652173913,3,2,3,40,0,0
42921,-108.695652173913,3,2,4,40,0,0
43334,-108.695652173913,3,2,2,40,0,0
44777,-108.695652173913,3,2,1,40,0,0

[Colours]
Combo1 : 255,219,108
Combo2 : 164,164,255
Combo3 : 79,158,255
Combo4 : 247,108,130

[HitObjects]
0,0,860,6,1,B|70:24|35:47|103:71,1,124.640001901855,0|0,1:1|0:0,0:0:0:0:
227,50,1890,1,0,0:0:0:0:
227,50,2097,2,1,P|215:89|205:129,1,83.093334601237,8|0,2:2|0:0,0:0:0:0:
135,197,2715,5,0,1:1:0:0:
223,332,3334,1,0,0:0:0:0:
289,244,3746,1,0,0:0:0:0:
289,244,3952,2,1,P|328:230|366:245,1,83.093334601237,8|0,2:2|0:0,0:0:0:0:
425,295,4571,5,0,1:1:0:0:
512,165,5189,1,0,0:0:0:0:
379,58,5808,2,1,P|340:70|300:80,1,83.093334601237,8|0,2:2|0:0,0:0:0:0:
231,134,6427,6,1,P|172:115|112:100,1,124.640001901855,0|0,1:1|0:0,0:0:0:0:
10,213,7664,2,1,P|22:252|32:292,1,83.093334601237,8|0,2:2|0:0,0:0:0:0:
96,361,8282,6,1,P|107:320|119:280,1,83.093334601237,0|0,1:1|0:0,0:0:0:0:
184,225,8901,1,0,0:0:0:0:
258,317,9313,1,0,1:1:0:0:
258,317,9519,2,1,P|297:303|336:317,1,83.093334601237,8|0,2:2|0:0,0:0:0:0:
387,379,10138,5,0,1:1:0:0:
489,260,10756,2,1,P|493:279|498:300,2,41.5466673006185,0|0|0,0:0|0:0|0:0,0:0:0:0:
499,180,11375,2,1,P|458:178|425:203,1,83.093334601237,8|0,2:2|0:0,0:0:0:0:
379,280,11994,6,1,P|338:281|305:256,1,83.093334601237,0|0,1:1|0:0,0:0:0:0:
254,184,12612,1,0,0:0:0:0:
163,297,13024,1,0,0:0:0:0:
163,297,13231,2,1,P|152:256|140:216,1,83.093334601237,8|0,2:2|1:1,0:0:0:0:
39,241,13849,6,1,P|58:181|73:121,1,124.640001901855,0|0,1:1|0:0,0:0:0:0:
136,30,14880,1,0,0:0:0:0:
136,30,15086,2,1,P|154:25|181:18,1,46.6133317685547,14|0,2:2|0:0,0:0:0:0:
238,85,15499,1,0,0:0:0:0:
238,85,15705,6,1,P|279:72|328:60,1,93.2266635371095,2|0,1:2|0:0,0:0:0:0:
393,0,16323,1,2,2:2:0:0:
512,172,16942,1,10,2:2:0:0:
447,247,17354,1,0,1:1:0:0:
447,247,17561,6,1,P|430:288|446:332,1,93.2266635371095,10|0,2:1|0:0,0:0:0:0:
340,384,18179,2,1,P|355:342|339:298,1,93.2266635371095,0|0,0:0|0:0,0:0:0:0:
282,244,18798,1,10,2:2:0:0:
346,143,19210,1,0,0:0:0:0:
346,143,19416,6,1,P|305:130|256:118,1,93.2266635371095,2|0,1:2|0:0,0:0:0:0:
271,27,20035,2,1,P|230:40|181:52,1,93.2266635371095,2|0,2:2|0:0,0:0:0:0:
109,0,20653,1,10,2:2:0:0:
0,131,21066,1,0,0:0:0:0:
0,131,21272,6,1,B|38:192|38:192|1:249,1,139.839995305664,2|0,1:1|0:0,0:0:0:0:
179,360,22509,2,1,P|197:355|224:348,1,46.6133317685547,10|0,2:2|0:0,0:0:0:0:
327,384,22921,1,0,0:0:0:0:
326,384,23128,6,1,P|309:343|324:299,1,93.2266635371095,2|0,1:2|0:0,0:0:0:0:
400,241,23746,2,1,P|417:200|401:156,1,93.2266635371095,2|0,1:2|0:0,0:0:0:0:
338,92,24365,1,10,2:2:0:0:
247,211,24777,1,0,0:0:0:0:
247,211,24983,6,1,P|206:198|157:186,1,93.2266635371095,2|0,1:2|0:0,0:0:0:0:
58,117,25602,2,1,P|103:106|147:92,1,93.2266635371095,2|0,1:2|0:0,0:0:0:0:
203,20,26220,1,10,2:2:0:0:
316,143,26633,1,0,1:1:0:0:
316,143,26839,6,1,P|299:102|315:59,1,93.2266635371095,2|0,1:2|0:0,0:0:0:0:
402,108,27457,2,1,P|417:149|398:192,1,93.2266635371095,2|0,1:2|0:0,0:0:0:0:
420,285,28076,2,1,P|375:271|330:260,1,93.2266635371095,10|0,2:2|1:1,0:0:0:0:
263,328,28694,6,1,B|225:267|225:267|261:210,1,139.839995305664,2|0,1:1|0:0,0:0:0:0:
358,112,29725,1,0,1:1:0:0:
358,112,29932,2,1,P|340:107|313:100,1,46.6133317685547,10|0,2:2|0:0,0:0:0:0:
234,48,30345,1,0,0:0:0:0:
234,48,30551,6,1,P|193:61|144:73,1,93.2266635371095,2|0,1:2|0:0,0:0:0:0:
76,12,31169,1,2,1:2:0:0:
7,122,31581,1,0,0:0:0:0:
7,122,31788,2,1,P|24:163|7:206,1,93.2266635371095,10|0,2:2|1:1,0:0:0:0:
96,308,32406,6,1,P|80:266|97:222,1,93.2266635371095,2|0,1:1|0:0,0:0:0:0:
163,163,33024,1,0,0:0:0:0:
250,280,33437,1,0,0:0:0:0:
250,280,33643,2,1,P|291:267|340:255,1,93.2266635371095,10|0,2:2|1:1,0:0:0:0:
420,190,34262,6,1,P|374:179|330:165,1,93.2266635371095,2|0,1:2|0:0,0:0:0:0:
265,101,34880,1,2,1:2:0:0:
170,233,35292,1,0,0:0:0:0:
170,233,35499,1,10,2:2:0:0:
101,86,35911,1,0,1:1:0:0:
101,86,36117,6,1,B|26:118|76:147|1:179,1,139.839995305664,2|0,1:1|0:0,0:0:0:0:
87,11,37148,1,0,0:0:0:0:
87,11,37355,2,1,P|131:10|166:42,1,93.2266635371095,10|0,2:2|1:1,0:0:0:0:
208,119,37973,6,1,P|252:119|287:86,1,93.2266635371095,2|0,1:2|0:0,0:0:0:0:
337,12,38591,1,2,2:2:0:0:
442,115,39004,1,0,1:1:0:0:
442,115,39210,1,10,2:2:0:0:
505,178,39416,1,0,0:0:0:0:
442,240,39622,1,0,1:1:0:0:
379,178,39829,6,1,P|333:188|289:202,1,93.2266635371095,2|0,1:2|0:0,0:0:0:0:
311,308,40447,2,1,P|266:294|221:283,1,93.2266635371095,2|0,2:2|1:1,0:0:0:0:
142,339,41066,1,10,2:2:0:0:
47,240,41478,1,0,1:1:0:0:
47,240,41685,6,1,P|64:199|48:155,1,93.2266635371095,2|0,1:2|0:0,0:0:0:0:
0,63,42303,2,1,P|41:80|83:60,1,93.2266635371095,6|0,2:2|0:0,0:0:0:0:
140,0,42921,1,10,2:2:0:0:
260,97,43334,1,0,1:1:0:0:
260,97,43540,6,1,B|238:114|208:120|208:120|197:144|197:144|168:149|141:170,1,139.839995305664,2|0,1:1|0:0,0:0:0:0:
0,254,44571,1,0,1:1:0:0:
0,254,44777,1,8,2:2:0:0:
63,320,44983,1,0,0:0:0:0:
63,320,45189,1,0,0:0:0:0:
129,380,45395,1,0,1:1:0:0:
