osu file format v14

[General]
AudioFilename: audio.mp3
AudioLeadIn: 0
PreviewTime: 65795
Countdown: 0
SampleSet: Normal
StackLeniency: 0.7
Mode: 1
LetterboxInBreaks: 0
WidescreenStoryboard: 1

[Editor]
Bookmarks: 526,4890,13617,22344,31071,35435,37355,52715,57078,61442,65805,74533,83260,91987,100715,102896,111623,120350,124714
DistanceSpacing: 1
BeatDivisor: 4
GridSize: 32
TimelineZoom: 1

[Metadata]
Title:Guru Guru DJ TURN!! (Anime OP Ver.)
TitleUnicode:ぐるぐるDJ TURN!! (Anime OP Ver.)
Artist:Happy Around! feat. KYOKO & SAKI
ArtistUnicode:Happy Around! feat. KYOKO & SAKI
Creator:DakeDekaane
Version:Futsuu
Source:D4DJ First Mix
Tags:hapiara ハピアラ! Rinku Aimoto 愛本 りんく Nishio Yuka 西尾 夕香 Maho Akashi 明石 真秀 Kagami Karin 各務 華梨 Muni Ohnaruto 大鳴門 むに Mimura Haruka 三村 遙佳 Rei Togetsu 渡月 麗 Shizaki Kanon 志崎 樺音 Kyoko Yamate 山手 響子 Terakawa Aimi 寺川 愛美 Saki Izumo 出雲 咲姫 Tsumugi Risa 紡木 吏佐 PandaBoY electronic anime jpop j-pop edm japanese Dig Delight Direct Drive DJ opening op death threats
BeatmapID:3625618
BeatmapSetID:1771093

[Difficulty]
HPDrainRate:7
CircleSize:2
OverallDifficulty:4
ApproachRate:10
SliderMultiplier:1.4
SliderTickRate:1

[Events]
//Background and Video events
0,0,"bg.png",0,70
//Break Periods
//Storyboard Layer 0 (Background)
//Storyboard Layer 1 (Fail)
//Storyboard Layer 2 (Pass)
//Storyboard Layer 3 (Foreground)
//Storyboard Layer 4 (Overlay)
//Storyboard Sound Samples

[TimingPoints]
4886,272.727272727273,4,1,0,90,1,0
13613,-100,4,1,0,85,0,0
20158,-100,4,1,0,90,0,0
22340,-100,4,1,0,85,0,0
28886,-100,4,1,0,90,0,0
35431,480,4,1,0,75,1,0
35431,-56.8181818181818,4,1,0,75,0,0
37351,480,4,1,0,80,1,0
52711,272.727272727273,4,1,0,85,1,0
57074,-100,4,1,0,90,0,0
61438,-100,4,1,0,95,0,0
65801,-100,4,1,0,100,0,1
83256,-100,4,1,0,100,0,0
85438,-100,4,1,0,90,0,0
96347,-100,4,1,0,95,0,0
102347,-111.111111111111,4,1,0,95,0,0
102892,272.727272727273,4,1,0,80,1,0
102892,-111.111111111111,4,1,0,80,0,0
109437,-111.111111111111,4,1,0,90,0,0
111619,-100,4,1,0,100,0,1
124710,-100,4,1,0,100,0,0

[HitObjects]
256,192,522,8,0,3795,0:0:0:0:
256,192,4886,5,4,0:0:0:0:
256,192,5158,1,8,0:0:0:0:
256,192,5431,1,8,0:0:0:0:
256,192,5704,1,8,0:0:0:0:
262,191,5840,1,8,0:0:0:0:
256,192,5976,1,0,0:0:0:0:
256,192,6249,1,0,0:0:0:0:
256,192,6522,1,8,0:0:0:0:
256,192,7067,1,0,0:0:0:0:
256,192,7340,1,8,0:0:0:0:
256,192,7613,1,8,0:0:0:0:
256,192,7886,1,8,0:0:0:0:
256,192,8022,1,8,0:0:0:0:
256,192,8158,1,0,0:0:0:0:
256,192,8431,1,8,0:0:0:0:
256,192,8704,1,8,0:0:0:0:
256,192,9249,1,4,0:0:0:0:
256,192,9522,1,8,0:0:0:0:
256,192,9795,1,8,0:0:0:0:
256,192,10067,1,8,0:0:0:0:
256,192,10204,1,8,0:0:0:0:
256,192,10340,1,0,0:0:0:0:
256,192,10613,1,0,0:0:0:0:
256,192,10886,1,8,0:0:0:0:
256,192,11431,8,0,13067,0:0:0:0:
256,192,13613,5,0,0:0:0:0:
256,192,13886,1,8,0:0:0:0:
256,192,14158,1,0,0:0:0:0:
256,192,14567,1,0,0:0:0:0:
256,192,15113,1,8,0:0:0:0:
256,192,15249,1,0,0:0:0:0:
256,192,15795,1,0,0:0:0:0:
256,192,16204,1,0,0:0:0:0:
256,192,16886,1,8,0:0:0:0:
256,192,17295,1,8,0:0:0:0:
256,192,17976,1,0,0:0:0:0:
256,192,18249,1,8,0:0:0:0:
256,192,18522,1,0,0:0:0:0:
256,192,18931,1,0,0:0:0:0:
256,192,19476,1,8,0:0:0:0:
256,192,19613,1,0,0:0:0:0:
256,192,20158,1,0,0:0:0:0:
256,192,20431,1,0,0:0:0:0:
256,192,20704,1,0,0:0:0:0:
256,192,20840,1,0,0:0:0:0:
256,192,21113,1,0,0:0:0:0:
263,193,21386,1,0,0:0:0:0:
256,192,21795,1,8,0:0:0:0:
256,192,22067,1,8,0:0:0:0:
256,192,22340,5,0,0:0:0:0:
256,192,22613,1,8,0:0:0:0:
256,192,22886,1,0,0:0:0:0:
256,192,23295,1,0,0:0:0:0:
256,192,23840,1,8,0:0:0:0:
256,192,23976,1,0,0:0:0:0:
256,192,24522,1,0,0:0:0:0:
256,192,24931,1,0,0:0:0:0:
256,192,25613,1,8,0:0:0:0:
256,192,26022,1,8,0:0:0:0:
256,192,26704,1,0,0:0:0:0:
256,192,26976,1,8,0:0:0:0:
256,192,27249,1,0,0:0:0:0:
256,192,27522,1,8,0:0:0:0:
256,192,27795,1,0,0:0:0:0:
256,192,28067,1,8,0:0:0:0:
256,192,28340,1,0,0:0:0:0:
256,192,28886,1,0,0:0:0:0:
256,192,29158,1,0,0:0:0:0:
256,192,29431,1,0,0:0:0:0:
256,192,29567,1,0,0:0:0:0:
256,192,29840,1,0,0:0:0:0:
256,192,30113,1,0,0:0:0:0:
256,192,30522,1,8,0:0:0:0:
256,192,30795,1,8,0:0:0:0:
256,192,31067,5,4,0:0:0:0:
256,192,32158,1,4,0:0:0:0:
256,192,33249,1,4,0:0:0:0:
256,192,33795,1,4,0:0:0:0:
256,192,34340,1,4,0:0:0:0:
256,192,34613,1,4,0:0:0:0:
256,192,34886,1,12,0:0:0:0:
256,192,35158,1,12,0:0:0:0:
256,192,35431,8,0,36871,0:0:0:0:
256,192,37351,5,0,0:0:0:0:
256,192,37831,1,0,0:0:0:0:
256,192,38311,1,0,0:0:0:0:
256,192,38551,1,0,0:0:0:0:
256,192,38791,1,0,0:0:0:0:
256,192,39271,1,0,0:0:0:0:
256,192,39751,1,0,0:0:0:0:
256,192,39991,1,0,0:0:0:0:
256,192,40231,1,0,0:0:0:0:
256,192,40711,1,0,0:0:0:0:
256,192,41191,1,8,0:0:0:0:
256,192,41671,1,8,0:0:0:0:
256,192,42151,1,8,0:0:0:0:
256,192,42391,1,8,0:0:0:0:
256,192,42631,1,8,0:0:0:0:
256,192,43111,1,8,0:0:0:0:
256,192,43591,1,8,0:0:0:0:
256,192,43831,1,8,0:0:0:0:
256,192,44071,1,8,0:0:0:0:
256,192,45031,1,0,0:0:0:0:
256,192,45511,1,0,0:0:0:0:
256,192,45991,1,0,0:0:0:0:
256,192,46231,1,0,0:0:0:0:
256,192,46471,1,0,0:0:0:0:
256,192,46951,1,0,0:0:0:0:
256,192,47431,1,0,0:0:0:0:
256,192,47911,1,0,0:0:0:0:
256,192,48151,1,0,0:0:0:0:
256,192,48391,1,0,0:0:0:0:
256,192,48871,1,8,0:0:0:0:
256,192,49351,1,8,0:0:0:0:
256,192,49831,1,8,0:0:0:0:
256,192,50311,1,8,0:0:0:0:
256,192,50791,1,0,0:0:0:0:
256,192,51271,1,8,0:0:0:0:
256,192,51751,1,0,0:0:0:0:
256,192,51991,1,8,0:0:0:0:
256,192,52231,1,8,0:0:0:0:
256,192,52711,8,0,54347,0:0:0:0:
256,192,54892,6,0,B|512:192|512:192|512:0|512:0|384:0,1,560
256,192,57074,5,4,0:0:0:0:
256,192,57620,1,12,0:0:0:0:
256,192,58165,1,4,0:0:0:0:
256,192,58711,1,12,0:0:0:0:
256,192,59256,1,4,0:0:0:0:
256,192,59801,1,12,0:0:0:0:
256,192,60347,1,4,0:0:0:0:
256,192,60620,1,4,0:0:0:0:
256,192,60892,1,12,0:0:0:0:
256,192,61438,5,0,0:0:0:0:
256,192,61983,1,8,0:0:0:0:
256,192,62529,1,0,0:0:0:0:
256,192,62801,1,0,0:0:0:0:
256,192,63074,1,8,0:0:0:0:
256,192,63347,1,8,0:0:0:0:
256,192,63620,8,0,65256,0:0:0:0:
256,192,65801,5,4,0:0:0:0:
256,192,66074,1,12,0:0:0:0:
256,192,66620,1,8,0:0:0:0:
256,192,66892,1,0,0:0:0:0:
256,192,67165,1,8,0:0:0:0:
256,192,67438,1,0,0:0:0:0:
256,192,67983,1,4,0:0:0:0:
256,192,68256,1,12,0:0:0:0:
256,192,68801,1,0,0:0:0:0:
256,192,69074,1,8,0:0:0:0:
256,192,69347,1,0,0:0:0:0:
256,192,69620,1,8,0:0:0:0:
256,192,70165,1,4,0:0:0:0:
256,192,70438,1,12,0:0:0:0:
256,192,70983,1,8,0:0:0:0:
256,192,71256,1,0,0:0:0:0:
256,192,71529,1,8,0:0:0:0:
256,192,71801,1,0,0:0:0:0:
256,192,72347,1,4,0:0:0:0:
256,192,72620,1,4,0:0:0:0:
256,192,72756,1,4,0:0:0:0:
256,192,73301,1,12,0:0:0:0:
256,192,73574,1,12,0:0:0:0:
256,192,73847,1,12,0:0:0:0:
256,192,73983,1,12,0:0:0:0:
256,192,74529,5,4,0:0:0:0:
256,192,74801,1,12,0:0:0:0:
256,192,75347,1,8,0:0:0:0:
256,192,75620,1,0,0:0:0:0:
256,192,75892,1,8,0:0:0:0:
256,192,76165,1,0,0:0:0:0:
256,192,76711,1,4,0:0:0:0:
256,192,76983,1,4,0:0:0:0:
256,192,77120,1,4,0:0:0:0:
256,192,77665,1,12,0:0:0:0:
256,192,77938,1,12,0:0:0:0:
256,192,78211,1,4,0:0:0:0:
256,192,78483,1,12,0:0:0:0:
256,192,78892,1,4,0:0:0:0:
256,192,79711,1,12,0:0:0:0:
256,192,80529,1,4,0:0:0:0:
256,192,81347,1,12,0:0:0:0:
256,192,83256,12,0,84892,0:0:0:0:
256,192,85438,5,0,0:0:0:0:
256,192,85711,1,8,0:0:0:0:
256,192,85847,1,0,0:0:0:0:
256,192,85983,1,8,0:0:0:0:
256,192,86256,1,8,0:0:0:0:
256,192,86392,1,0,0:0:0:0:
256,192,86529,1,8,0:0:0:0:
256,192,86801,1,0,0:0:0:0:
256,192,86938,1,0,0:0:0:0:
256,192,87074,1,8,0:0:0:0:
256,192,87620,1,0,0:0:0:0:
256,192,87892,1,8,0:0:0:0:
256,192,88165,1,0,0:0:0:0:
256,192,88438,1,8,0:0:0:0:
256,192,88711,1,8,0:0:0:0:
256,192,88847,1,8,0:0:0:0:
256,192,88983,1,8,0:0:0:0:
256,192,89120,1,8,0:0:0:0:
256,192,89256,1,0,0:0:0:0:
256,192,89529,1,8,0:0:0:0:
256,192,89801,1,0,0:0:0:0:
256,192,90211,1,8,0:0:0:0:
256,192,90483,1,8,0:0:0:0:
256,192,90756,1,0,0:0:0:0:
256,192,91301,1,8,0:0:0:0:
256,192,91438,1,0,0:0:0:0:
256,192,91983,5,0,0:0:0:0:
256,192,92256,1,8,0:0:0:0:
256,192,92529,1,0,0:0:0:0:
256,192,92801,1,8,0:0:0:0:
256,192,93074,1,0,0:0:0:0:
256,192,93211,1,0,0:0:0:0:
256,192,93347,1,8,0:0:0:0:
256,192,93483,1,8,0:0:0:0:
256,192,93620,1,0,0:0:0:0:
256,192,93892,1,8,0:0:0:0:
256,192,94165,1,0,0:0:0:0:
256,192,94574,1,8,0:0:0:0:
256,192,94847,1,8,0:0:0:0:
256,192,95120,1,0,0:0:0:0:
256,192,95392,1,0,0:0:0:0:
256,192,95665,1,8,0:0:0:0:
256,192,96347,1,4,0:0:0:0:
256,192,96756,1,4,0:0:0:0:
256,192,97165,1,4,0:0:0:0:
256,192,97574,1,4,0:0:0:0:
256,192,97983,1,4,0:0:0:0:
256,192,98256,1,12,0:0:0:0:
256,192,98529,1,4,0:0:0:0:
256,192,98938,1,4,0:0:0:0:
256,192,99347,1,4,0:0:0:0:
256,192,99756,1,4,0:0:0:0:
256,192,100165,1,4,0:0:0:0:
256,192,100438,1,12,0:0:0:0:
256,192,100711,6,4,B|512:192|512:192|512:0|512:0|384:0,1,560,0|0,0:0|0:0,0:0:0:0:
256,192,102892,5,4,0:0:0:0:
256,192,103164,1,12,0:0:0:0:
256,192,105073,1,4,0:0:0:0:
256,192,105346,1,12,0:0:0:0:
256,192,107255,1,4,0:0:0:0:
256,192,107528,1,12,0:0:0:0:
256,192,109437,1,0,0:0:0:0:
256,192,109710,1,0,0:0:0:0:
256,192,109846,1,0,0:0:0:0:
256,192,110392,1,8,0:0:0:0:
256,192,110664,1,8,0:0:0:0:
256,192,110937,1,8,0:0:0:0:
256,192,111073,1,8,0:0:0:0:
256,192,111619,5,4,0:0:0:0:
256,192,111892,1,12,0:0:0:0:
256,192,112437,1,8,0:0:0:0:
256,192,112710,1,0,0:0:0:0:
256,192,112982,1,8,0:0:0:0:
256,192,113255,1,0,0:0:0:0:
256,192,113801,1,4,0:0:0:0:
256,192,114073,1,4,0:0:0:0:
256,192,114210,1,4,0:0:0:0:
256,192,114755,1,12,0:0:0:0:
256,192,115028,1,12,0:0:0:0:
256,192,115301,1,4,0:0:0:0:
256,192,115573,1,12,0:0:0:0:
256,192,115982,1,4,0:0:0:0:
256,192,116801,1,12,0:0:0:0:
256,192,117619,1,4,0:0:0:0:
256,192,118437,1,12,0:0:0:0:
256,192,119801,1,8,0:0:0:0:
256,192,120073,1,8,0:0:0:0:
256,192,120346,5,4,0:0:0:0:
256,192,121164,1,12,0:0:0:0:
256,192,121982,1,4,0:0:0:0:
256,192,122801,1,12,0:0:0:0:
256,192,124710,12,0,126346,0:0:0:0:
256,192,126892,5,0,0:0:0:0:
256,192,127164,1,0,0:0:0:0:
256,192,127437,1,0,0:0:0:0:
256,192,127573,1,0,0:0:0:0:
256,192,127846,1,0,0:0:0:0:
256,192,128528,1,12,0:0:0:0:
