osu file format v14

[General]
AudioFilename: audio.mp3
AudioLeadIn: 0
PreviewTime: 57487
Countdown: 0
SampleSet: Normal
StackLeniency: 0.3
Mode: 1
LetterboxInBreaks: 0
WidescreenStoryboard: 1

[Editor]
Bookmarks: 108501
DistanceSpacing: 1
BeatDivisor: 4
GridSize: 32
TimelineZoom: 1.526001

[Metadata]
Title:Brand New World
TitleUnicode:Brand New World
Artist:Happy Around!
ArtistUnicode:Happy Around!
Creator:Chitanda Eru
Version:Kantan
Source:D4DJ First Mix
Tags:BlackBN BlackBq hapiara ハピアラ ハッピーアラウンド! season s1 1 insert song episode ep 10 canon in d fu_mou hifumi,inc. dig delight direct drive dj groovy mix gurumiku グルミク グルーヴィーミクス anime japanese j-pop pop jpop videogame video game Aimoto Rinku 愛本りんく Nishio Yuka 西尾 夕香 Akashi Maho 明石真秀 Kagami Karin 各務 華梨 Ohnaruto Muni 大鳴門むに Mimura Haruka 三村遙佳 Togetsu Rei 渡月麗 Shizaki Kanon 志崎 樺音 sanzigen 株式会社サンジゲン
BeatmapID:3275610
BeatmapSetID:1603991

[Difficulty]
HPDrainRate:8
CircleSize:2
OverallDifficulty:2
ApproachRate:6
SliderMultiplier:1.4
SliderTickRate:1

[Events]
//Background and Video events
0,0,"Ohnaruto.Muni.full.3133425.jpg",0,100
//Break Periods
//Storyboard Layer 0 (Background)
//Storyboard Layer 1 (Fail)
//Storyboard Layer 2 (Pass)
//Storyboard Layer 3 (Foreground)
//Storyboard Layer 4 (Overlay)
//Storyboard Sound Samples

[TimingPoints]
487,461.538461538462,4,1,0,20,1,0
15256,-100,4,1,0,60,0,0
30487,-100,4,1,0,60,0,0
44794,-100,4,1,0,60,0,0
52179,-100,4,1,0,70,0,0
57660,-100,4,1,0,40,0,0
59563,-100,4,1,0,80,0,1
87256,-100,4,1,0,60,0,0
89102,-100,4,1,0,80,0,1
102025,-100,4,1,0,60,0,0

[HitObjects]
256,41,15256,5,4,0:0:0:0:
126,137,15948,1,8,0:0:0:0:
126,137,16872,1,8,0:0:0:0:
126,137,17795,1,0,0:0:0:0:
126,137,18256,1,0,0:0:0:0:
126,137,18718,1,8,0:0:0:0:
126,137,20564,1,0,0:0:0:0:
126,137,21718,1,0,0:0:0:0:
126,137,22179,1,0,0:0:0:0:
126,137,22641,1,8,0:0:0:0:
126,137,23333,1,8,0:0:0:0:
126,137,24025,1,0,0:0:0:0:
126,137,25410,1,8,0:0:0:0:
126,137,25872,1,8,0:0:0:0:
126,137,26333,1,0,0:0:0:0:
126,137,27025,1,0,0:0:0:0:
126,137,27487,1,0,0:0:0:0:
256,192,27948,12,0,29794,0:0:0:0:
256,41,30025,5,4,0:0:0:0:
126,137,30718,1,8,0:0:0:0:
126,137,31641,1,8,0:0:0:0:
126,137,32564,1,0,0:0:0:0:
126,137,33025,1,0,0:0:0:0:
126,137,33487,1,8,0:0:0:0:
126,137,35564,1,0,0:0:0:0:
126,137,36487,1,8,0:0:0:0:
126,137,36948,1,0,0:0:0:0:
126,137,37410,1,8,0:0:0:0:
126,137,38102,1,0,0:0:0:0:
126,137,38795,1,8,0:0:0:0:
126,137,40179,1,8,0:0:0:0:
126,137,40641,1,8,0:0:0:0:
126,137,41102,1,0,0:0:0:0:
126,137,42487,1,0,0:0:0:0:
126,137,42948,1,8,0:0:0:0:
126,137,43872,1,0,0:0:0:0:
256,41,44795,1,12,0:0:0:0:
126,137,45487,1,0,0:0:0:0:
126,137,46179,1,8,0:0:0:0:
126,137,48025,1,0,0:0:0:0:
126,137,48487,1,8,0:0:0:0:
126,137,49179,1,8,0:0:0:0:
126,137,49872,1,0,0:0:0:0:
126,137,51718,1,8,0:0:0:0:
126,137,52179,1,4,0:0:0:0:
126,137,52872,1,8,0:0:0:0:
126,137,53333,1,8,0:0:0:0:
126,137,53795,1,0,0:0:0:0:
126,137,54487,1,0,0:0:0:0:
126,137,54948,1,0,0:0:0:0:
126,137,55410,1,8,0:0:0:0:
126,137,55872,1,0,0:0:0:0:
126,137,57718,1,8,0:0:0:0:
256,41,59564,1,4,0:0:0:0:
126,137,60025,1,0,0:0:0:0:
126,137,60487,1,8,0:0:0:0:
126,137,60948,1,8,0:0:0:0:
126,137,61872,1,0,0:0:0:0:
126,137,62333,1,8,0:0:0:0:
126,137,62795,1,8,0:0:0:0:
126,137,63718,1,0,0:0:0:0:
126,137,64179,1,8,0:0:0:0:
126,137,64872,1,0,0:0:0:0:
126,137,66025,1,0,0:0:0:0:
126,137,66487,1,0,0:0:0:0:
126,137,66948,1,8,0:0:0:0:
126,137,67872,1,8,0:0:0:0:
126,137,68333,1,0,0:0:0:0:
126,137,68795,1,0,0:0:0:0:
126,137,69718,1,8,0:0:0:0:
126,137,70641,1,0,0:0:0:0:
126,137,71564,1,8,0:0:0:0:
126,137,72487,1,0,0:0:0:0:
126,137,73410,1,0,0:0:0:0:
126,137,73872,1,8,0:0:0:0:
256,41,74333,1,12,0:0:0:0:
126,137,74795,1,8,0:0:0:0:
126,137,75256,1,0,0:0:0:0:
126,137,75718,1,0,0:0:0:0:
126,137,76641,1,0,0:0:0:0:
126,137,77102,1,8,0:0:0:0:
126,137,77564,1,0,0:0:0:0:
126,137,78025,1,8,0:0:0:0:
126,137,78718,1,0,0:0:0:0:
126,137,79410,1,8,0:0:0:0:
126,137,80795,1,0,0:0:0:0:
126,137,81256,1,0,0:0:0:0:
126,137,81718,1,8,0:0:0:0:
126,137,82641,1,0,0:0:0:0:
126,137,83564,1,8,0:0:0:0:
126,137,84487,1,0,0:0:0:0:
126,137,84948,1,0,0:0:0:0:
126,137,85410,1,8,0:0:0:0:
126,137,85872,1,8,0:0:0:0:
126,137,86333,1,0,0:0:0:0:
126,137,87256,1,8,0:0:0:0:
256,41,89102,1,4,0:0:0:0:
126,137,89564,1,0,0:0:0:0:
126,137,90025,1,8,0:0:0:0:
126,137,90487,1,8,0:0:0:0:
126,137,90948,1,0,0:0:0:0:
126,137,92333,1,8,0:0:0:0:
126,137,92795,1,0,0:0:0:0:
126,137,93256,1,8,0:0:0:0:
126,137,93718,1,8,0:0:0:0:
126,137,94179,1,0,0:0:0:0:
126,137,94641,1,8,0:0:0:0:
256,41,96025,1,12,0:0:0:0:
126,137,96487,1,8,0:0:0:0:
126,137,96948,1,8,0:0:0:0:
126,137,97410,1,8,0:0:0:0:
126,137,97872,1,8,0:0:0:0:
126,137,98333,1,0,0:0:0:0:
126,137,99025,1,8,0:0:0:0:
126,137,99718,1,8,0:0:0:0:
126,137,100179,1,0,0:0:0:0:
126,137,100641,1,0,0:0:0:0:
126,137,101102,1,0,0:0:0:0:
126,137,101564,1,0,0:0:0:0:
126,137,102025,1,8,0:0:0:0:
126,137,103410,1,8,0:0:0:0:
126,137,103872,1,0,0:0:0:0:
