osu file format v14

[General]
AudioFilename: audio.mp3
AudioLeadIn: 0
PreviewTime: 88438
Countdown: 1
SampleSet: Soft
StackLeniency: 0.7
Mode: 0
LetterboxInBreaks: 0
SkinPreference:Default
WidescreenStoryboard: 0

[Editor]
DistanceSpacing: 1.4
BeatDivisor: 4
GridSize: 4
TimelineZoom: 1

[Metadata]
Title:Nano Desu*
TitleUnicode:なのです☆
Artist:Hanyuu (CV: Horie Yui)
ArtistUnicode:羽入(CV: 堀江由衣)
Creator:Bloxi
Version:Hauauau~!
Source:ひぐらしのなく頃に解
Tags:higurashi no naku koro ni when they cry kai 07th expansion nipah ~character case book~ vol. volume japanese video game visual novel anime vn pop electronic ebata ikuko 江幡 育子 Ōyama yō yoh ohyama 大山 曜 古手 梨花 rika furude hanyu hanyū nanodesu it is so -ryosuke
BeatmapID:4018775
BeatmapSetID:1942804

[Difficulty]
HPDrainRate:6
CircleSize:4
OverallDifficulty:8
ApproachRate:8
SliderMultiplier:1.8
SliderTickRate:1

[Events]
//Background and Video events
0,0,"bg.jpg",0,0
//Break Periods
//Storyboard Layer 0 (Background)
//Storyboard Layer 1 (Fail)
//Storyboard Layer 2 (Pass)
//Storyboard Layer 3 (Foreground)
//Storyboard Layer 4 (Overlay)
//Storyboard Sound Samples

[TimingPoints]
1010,428.571428571429,4,1,1,60,1,0
21581,-111.111111111111,4,2,1,75,0,0
23295,-100,4,1,1,55,0,0
37010,-90.9090909090909,4,2,1,70,0,0
43867,-100,4,1,1,55,0,0
57581,-90.9090909090909,4,2,1,70,0,0
66152,-90.9090909090909,4,1,1,55,0,0
67867,-83.3333333333333,4,1,1,80,0,1
88438,-100,4,1,1,60,0,0
102152,-111.111111111111,4,2,1,75,0,0
103867,-100,4,1,1,55,0,0
117581,-100,4,2,1,70,0,0
124438,-100,4,1,1,55,0,0
129795,-100,4,2,1,60,0,0
130867,-111.111111111111,4,2,1,60,0,0
131295,-100,4,1,1,55,0,0
138152,-90.9090909090909,4,2,1,70,0,0
146724,-90.9090909090909,4,1,1,55,0,0
148438,-83.3333333333333,4,1,1,65,0,1
169010,-111.111111111111,4,2,1,60,0,0
174581,-125,4,2,1,60,0,0
175010,-142.857142857143,4,2,1,60,0,0
175438,-166.666666666667,4,2,1,60,0,0
175867,-111.111111111111,4,2,1,65,0,0
181438,-125,4,2,1,65,0,0
181867,-142.857142857143,4,2,1,65,0,0
182295,-166.666666666667,4,2,1,65,0,0
182724,-125,4,2,1,55,0,0
188295,-117.647058823529,4,2,1,55,0,0
188724,-111.111111111111,4,2,1,55,0,0
189152,-105.263157894737,4,2,1,55,0,0
189581,-100,4,2,1,55,0,0
190010,-90.9090909090909,4,2,1,55,0,0
190652,-90.9090909090909,4,2,1,45,0,0
190760,-90.9090909090909,4,2,1,50,0,0
190867,-90.9090909090909,4,2,1,55,0,0
190974,-90.9090909090909,4,2,1,60,0,0
191081,-90.9090909090909,4,2,1,65,0,0
191188,-90.9090909090909,4,2,1,70,0,0
191295,-111.111111111111,4,2,1,60,0,0
210152,-111.111111111111,4,2,1,70,0,0
211867,-83.3333333333333,4,1,1,65,0,1
232438,-100,4,1,1,60,0,0
246152,-111.111111111111,4,2,1,60,0,0
259867,-125,4,2,1,55,0,0
263081,-125,4,2,1,5,0,0
263295,-142.857142857143,4,2,1,50,0,0
267152,-142.857142857143,4,2,1,5,0,0

[Colours]
Combo1 : 242,150,145
Combo2 : 234,168,216
Combo3 : 174,169,235
Combo4 : 249,173,128
SliderBorder : 255,255,255

[HitObjects]
62,166,6152,6,0,P|47:82|117:52,1,135
121,41,6581,1,0,0:0:0:0:
254,75,6795,2,0,P|252:140|265:217,1,135,8|0,3:0|0:0,0:0:0:0:
285,249,7224,1,0,0:0:0:0:
507,309,7438,2,0,P|464:348|392:344,1,135,8|0,3:0|0:0,0:0:0:0:
390,343,7867,6,0,B|372:368|346:375|346:375|312:370,1,90,4|0,0:0|0:0,0:0:0:0:
207,276,8295,2,0,B|224:250|250:243|250:243|284:248,1,90,8|0,0:0|0:0,0:0:0:0:
329,255,8617,1,0,0:0:0:0:
369,236,8724,1,0,0:0:0:0:
309,144,8938,1,0,0:0:0:0:
290,104,9045,1,0,0:0:0:0:
297,59,9152,2,0,L|386:42,2,90,8|0|0,0:0|0:0|0:0,0:0:0:0:
196,159,9795,2,0,L|107:142,2,90,0|8|0,0:0|0:0|0:0,0:0:0:0:
284,248,10438,6,0,P|302:288|306:333,1,90
112,337,10867,2,0,P|157:333|198:315,1,90,8|0,0:0|0:0,0:0:0:0:
108,143,11295,2,0,P|112:187|130:228,1,90
301,138,11724,2,0,P|256:142|216:161,1,90,8|0,0:0|0:0,0:0:0:0:
204,204,12045,1,0,0:0:0:0:
225,243,12152,1,0,0:0:0:0:
334,216,12367,5,0,0:0:0:0:
355,255,12474,1,0,0:0:0:0:
343,298,12581,2,0,P|387:293|428:275,1,90,8|0,0:0|0:0,0:0:0:0:
461,108,13010,2,0,B|485:119|500:137|500:137|499:157|493:177,2,90,0|0|8,0:0|0:0|0:0,0:0:0:0:
363,138,13652,1,0,0:0:0:0:
285,69,13867,2,0,B|261:58|246:40|246:40|247:20|252:0,1,90
209,13,14188,1,0,0:0:0:0:
165,1,14295,2,0,P|170:51|173:107,1,90,8|0,0:0|0:0,0:0:0:0:
29,281,14724,6,0,P|23:230|21:175,1,90,4|0,0:0|0:0,0:0:0:0:
54,160,15045,1,0,0:0:0:0:
97,149,15152,1,8,0:0:0:0:
290,172,15367,2,0,B|246:189|246:189|187:176,1,90
251,85,15795,1,0,0:0:0:0:
251,85,15902,1,0,0:0:0:0:
251,85,16010,2,0,B|295:68|295:68|354:81,1,90,8|0,0:0|0:0,0:0:0:0:
396,155,16438,1,0,0:0:0:0:
490,129,16652,6,0,B|507:179|482:163|499:217,1,90,0|8,0:0|0:0,0:0:0:0:
477,256,16974,1,0,0:0:0:0:
432,254,17081,1,0,0:0:0:0:
330,383,17295,2,0,B|347:333|322:349|339:295,1,90
312,196,17724,1,8,0:0:0:0:
312,196,17831,1,0,0:0:0:0:
312,196,17938,1,0,0:0:0:0:
400,129,18152,6,0,P|452:130|500:128,1,90
327,47,18581,2,0,P|275:46|227:48,1,90,8|0,0:0|0:0,0:0:0:0:
216,87,18902,1,0,0:0:0:0:
235,127,19010,1,0,0:0:0:0:
127,19,19224,1,0,0:0:0:0:
87,0,19331,1,0,0:0:0:0:
47,21,19438,2,0,B|25:59|25:59|44:102,1,90,8|0,0:0|0:0,0:0:0:0:
123,184,19867,2,0,B|142:227|142:227|120:265,1,90
67,336,20295,5,8,0:0:0:0:
155,354,20510,1,0,0:0:0:0:
208,246,20724,5,0,0:0:0:0:
120,264,20939,1,0,0:0:0:0:
71,164,21152,5,8,0:0:0:0:
159,182,21367,1,0,0:0:0:0:
212,74,21581,5,10,0:0:0:0:
292,134,21795,1,2,0:0:0:0:
292,134,21902,1,8,0:0:0:0:
292,134,22010,1,10,0:0:0:0:
371,176,22224,1,10,0:0:0:0:
386,138,22331,1,8,0:0:0:0:
404,102,22438,2,0,L|454:112,1,40.4999987640381,2|8,0:0|0:0,0:0:0:0:
491,183,22652,2,0,L|441:193,1,40.4999987640381,10|0,0:0|0:0,0:0:0:0:
371,176,22867,6,8,P|369:189|374:213,7,20.2499993820191
356,242,23295,6,0,P|315:261|258:252,1,90,4|0,0:0|0:0,0:0:0:0:
242,222,23617,1,0,0:0:0:0:
237,177,23724,1,8,0:0:0:0:
152,208,23938,1,0,0:0:0:0:
74,252,24152,2,0,L|64:341,1,90
98,371,24474,1,0,0:0:0:0:
141,358,24581,2,0,P|171:330|220:314,1,90,8|0,0:0|0:0,0:0:0:0:
224,224,25010,6,0,P|228:174|225:135,2,90,0|0|8,0:0|0:0|0:0,0:0:0:0:
298,274,25652,2,0,P|363:276|442:196,1,180
442,154,26188,1,0,0:0:0:0:
429,110,26295,2,0,L|410:6,1,90,8|0,0:0|0:0,0:0:0:0:
322,0,26724,5,0,0:0:0:0:
238,32,26938,1,0,0:0:0:0:
231,121,27152,1,8,0:0:0:0:
308,168,27367,1,0,0:0:0:0:
397,165,27581,2,0,B|412:151|432:143|432:143|480:143,1,90
347,241,28010,2,0,B|332:255|312:263|312:263|264:263,1,90,8|0,0:0|0:0,0:0:0:0:
174,272,28438,1,0,0:0:0:0:
86,290,28652,6,0,P|75:334|81:379,1,90,0|8,0:0|0:0,0:0:0:0:
18,230,29081,1,0,0:0:0:0:
84,168,29295,1,0,0:0:0:0:
18,105,29510,2,0,P|62:111|125:91,1,90,0|8,0:0|0:0,0:0:0:0:
145,80,29831,1,0,0:0:0:0:
151,35,29938,1,0,0:0:0:0:
323,0,30152,6,0,P|278:-6|235:3,1,90,4|0,0:0|0:0,0:0:0:0:
264,88,30581,2,0,P|228:115|204:153,1,90,8|0,0:0|0:0,0:0:0:0:
225,240,31010,2,0,L|315:255,1,90
348,225,31331,1,0,0:0:0:0:
376,189,31438,2,0,L|466:174,1,90,8|0,0:0|0:0,0:0:0:0:
512,250,31867,1,0,0:0:0:0:
449,314,32081,1,0,0:0:0:0:
505,383,32295,1,8,0:0:0:0:
414,383,32510,6,0,P|333:368|203:380,1,180
196,350,33045,1,0,0:0:0:0:
152,361,33152,2,0,P|155:339|150:305,2,45,8|0|0,0:0|0:0|0:0,0:0:0:0:
64,383,33581,2,0,P|21:370|0:332,1,90
0,242,34010,2,0,P|21:203|63:191,1,90,8|0,0:0|0:0,0:0:0:0:
152,191,34438,2,0,P|194:203|214:242,1,90
215,287,34760,1,0,0:0:0:0:
215,331,34867,1,8,0:0:0:0:
302,351,35081,6,0,P|329:295|277:166,1,180
226,133,35724,1,8,0:0:0:0:
245,45,35938,1,0,0:0:0:0:
332,26,36152,2,0,P|386:33|434:51,1,90
434,87,36474,1,0,0:0:0:0:
433,131,36581,1,8,0:0:0:0:
381,204,36795,1,0,0:0:0:0:
453,272,37010,6,0,L|504:266,3,49.5000015106202,6|2|2|2,0:0|0:0|0:0|0:0,0:0:0:0:
389,315,37438,2,0,L|338:309,3,49.5000015106202,10|2|2|2,0:0|0:0|0:0|0:0,0:0:0:0:
290,367,37867,2,0,B|254:350|254:350|144:362,1,148.50000453186,2|2,0:0|0:0,0:0:0:0:
101,382,38295,2,0,P|101:357|98:332,1,49.5000015106202,10|2,0:0|0:0,0:0:0:0:
86,284,38510,2,0,P|84:259|87:234,1,49.5000015106202,2|2,0:0|0:0,0:0:0:0:
120,198,38724,2,0,P|149:203|179:203,3,49.5000015106202,2|2|2|2,0:0|0:0|0:0|0:0,0:0:0:0:
76,136,39152,2,0,P|47:131|17:131,3,49.5000015106202,10|2|2|2,0:0|0:0|0:0|0:0,0:0:0:0:
157,79,39581,5,2,0:0:0:0:
225,200,39795,1,2,0:0:0:0:
355,151,40010,1,10,0:0:0:0:
287,30,40224,1,2,0:0:0:0:
392,77,40438,6,0,P|417:74|460:73,1,49.5000015106202,2|2,0:0|0:0,0:0:0:0:
490,74,40652,1,2,0:0:0:0:
512,174,40867,1,10,0:0:0:0:
512,174,40974,2,0,P|468:193|418:223,1,99.0000030212403,2|2,0:0|0:0,0:0:0:0:
378,237,41295,1,2,0:0:0:0:
318,158,41510,1,2,0:0:0:0:
269,150,41617,1,2,0:0:0:0:
229,180,41724,2,0,L|181:172,1,49.5000015106202,10|2,0:0|0:0,0:0:0:0:
114,384,42152,6,0,P|147:356|153:274,1,99.0000030212403,2|2,0:0|0:0,0:0:0:0:
141,257,42474,1,2,0:0:0:0:
50,291,42688,1,2,0:0:0:0:
50,291,42795,1,2,0:0:0:0:
0,204,43010,2,0,P|3:154|19:95,2,99.0000030212403,2|4|4,0:0|0:0|0:0,0:0:0:0:
203,70,43867,6,0,B|209:45|193:21|193:21|161:0,1,90,4|0,0:0|0:0,0:0:0:0:
117,8,44189,1,0,0:0:0:0:
89,42,44296,1,8,0:0:0:0:
131,120,44510,1,0,0:0:0:0:
56,169,44724,2,0,P|100:173|143:187,1,90
161,228,45045,1,0,0:0:0:0:
141,268,45152,2,0,P|110:300|101:347,1,90,8|0,0:0|0:0,0:0:0:0:
181,383,45581,6,0,L|285:364,2,90,0|0|8,0:0|0:0|0:0,0:0:0:0:
101,344,46224,2,0,B|40:336|14:272|14:272|33:201,1,180
58,178,46760,1,0,0:0:0:0:
95,152,46867,2,0,L|199:171,1,90,8|0,0:0|0:0,0:0:0:0:
262,125,47296,5,0,0:0:0:0:
256,35,47510,1,0,0:0:0:0:
338,0,47724,1,8,0:0:0:0:
344,89,47938,1,0,0:0:0:0:
410,149,48153,6,0,P|454:133|518:126,1,90
512,171,48474,1,0,0:0:0:0:
494,212,48581,1,8,0:0:0:0:
508,300,48795,1,0,0:0:0:0:
428,342,49010,1,0,0:0:0:0:
351,295,49224,6,0,P|338:338|347:382,1,90,0|8,0:0|0:0,0:0:0:0:
256,365,49653,1,0,0:0:0:0:
165,381,49867,2,0,P|173:337|161:295,1,90
116,288,50188,1,0,0:0:0:0:
74,304,50295,1,8,0:0:0:0:
2,248,50510,1,0,0:0:0:0:
85,123,50724,6,0,B|68:92|68:92|82:34,1,90,4|0,0:0|0:0,0:0:0:0:
163,3,51152,1,8,0:0:0:0:
229,63,51367,1,0,0:0:0:0:
308,20,51582,2,0,P|355:19|398:35,1,90
426,65,51902,1,0,0:0:0:0:
448,104,52010,2,0,L|423:207,1,90,8|0,0:0|0:0,0:0:0:0:
489,256,52439,5,0,0:0:0:0:
453,338,52653,1,0,0:0:0:0:
377,289,52867,1,8,0:0:0:0:
336,369,53082,2,0,P|331:279|331:189,1,180
314,147,53617,1,0,0:0:0:0:
289,109,53724,2,0,L|342:117,2,45,8|0|0,0:0|0:0|0:0,0:0:0:0:
229,50,54152,6,0,L|133:64,1,90
66,116,54582,2,0,P|50:70|59:21,1,90,8|0,0:0|0:0,0:0:0:0:
82,206,55010,2,0,P|34:200|-5:172,1,90
15,282,55439,1,8,0:0:0:0:
96,320,55653,6,0,P|165:293|281:295,1,180
321,366,56296,1,8,0:0:0:0:
410,372,56510,1,0,0:0:0:0:
482,319,56724,2,0,L|500:227,1,90
494,185,57046,1,0,0:0:0:0:
478,142,57153,1,8,0:0:0:0:
408,199,57367,1,0,0:0:0:0:
320,152,57582,6,0,P|298:165|279:183,3,49.5000015106202,6|2|2|2,0:0|0:0|0:0|0:0,0:0:0:0:
353,82,58010,2,0,P|328:76|302:76,3,49.5000015106202,10|2|2|2,0:0|0:0|0:0|0:0,0:0:0:0:
409,25,58438,2,0,P|432:61|426:118,1,99.0000030212403,2|2,0:0|0:0,0:0:0:0:
409,161,58760,1,2,0:0:0:0:
391,207,58867,2,0,L|414:301,1,49.5000015106202,10|2,0:0|0:0,0:0:0:0:
432,294,59081,2,0,L|409:388,1,49.5000015106202,2|2,0:0|0:0,0:0:0:0:
384,376,59296,2,0,P|355:371|325:371,3,49.5000015106202,2|2|2|2,0:0|0:0|0:0|0:0,0:0:0:0:
234,315,59724,2,0,P|263:310|293:310,3,49.5000015106202,10|2|2|2,0:0|0:0|0:0|0:0,0:0:0:0:
186,375,60153,5,2,0:0:0:0:
208,238,60367,1,2,0:0:0:0:
95,318,60581,1,10,0:0:0:0:
73,181,60795,1,2,0:0:0:0:
234,315,61010,6,0,P|263:310|332:315,1,99.0000030212403,2|2,0:0|0:0,0:0:0:0:
374,289,61331,1,2,0:0:0:0:
417,264,61439,2,0,P|476:303|481:375,1,148.50000453186,10|2,0:0|0:0,0:0:0:0:
431,379,61867,2,0,P|402:374|372:374,3,49.5000015106202,2|2|2|2,0:0|0:0|0:0|0:0,0:0:0:0:
332,315,62295,2,0,P|339:267|345:217,1,99.0000030212403,10|2,0:0|0:0,0:0:0:0:
419,151,62724,5,2,0:0:0:0:
419,151,62831,1,2,0:0:0:0:
366,75,63045,1,2,0:0:0:0:
366,75,63152,1,10,0:0:0:0:
272,107,63367,1,2,0:0:0:0:
227,129,63474,1,2,0:0:0:0:
183,105,63581,2,0,L|202:-4,1,99.0000030212403,2|4,0:0|0:0,0:0:0:0:
299,13,64010,5,6,0:0:0:0:
345,30,64117,1,2,0:0:0:0:
366,75,64224,1,2,0:0:0:0:
359,124,64331,1,2,0:0:0:0:
340,169,64438,2,2,B|161:103|75:139|57:268|91:340|231:366|341:290|269:184|269:184|221:102|250:-1,1,792.000024169923,6|0,1:0|1:0,1:0:0:0:
450,236,66474,5,0,0:0:0:0:
487,204,66581,2,0,P|485:152|476:104,1,99.0000030212403,0|0,0:0|0:0,0:0:0:0:
413,37,67010,1,0,0:0:0:0:
413,37,67117,1,0,0:0:0:0:
343,106,67331,1,0,0:0:0:0:
308,70,67438,2,0,P|235:45|160:53,1,148.50000453186,8|0,0:0|0:0,0:0:0:0:
115,73,67867,6,0,B|81:92|56:134|56:134|64:177|84:209,1,161.999995056153,6|0,0:0|0:0,0:0:0:0:
114,249,68295,1,8,0:0:0:0:
206,193,68510,1,0,0:0:0:0:
277,273,68724,2,0,P|334:256|390:253,1,107.999996704102
380,199,69045,1,0,0:0:0:0:
344,159,69152,2,0,P|318:114|302:49,1,107.999996704102,8|0,0:0|0:0,0:0:0:0:
332,14,69474,1,0,0:0:0:0:
385,11,69581,6,0,L|496:26,1,107.999996704102
344,159,70010,2,0,L|233:174,1,107.999996704102,8|0,0:0|0:0,0:0:0:0:
152,105,70438,1,0,0:0:0:0:
56,154,70652,1,0,0:0:0:0:
71,269,70867,1,8,0:0:0:0:
71,269,70974,1,0,0:0:0:0:
71,269,71081,1,0,0:0:0:0:
291,358,71295,6,0,P|308:307|275:199,1,161.999995056153,2|0,0:0|0:0,0:0:0:0:
236,173,71724,1,8,0:0:0:0:
288,78,71938,2,0,P|339:87|405:87,1,107.999996704102
414,138,72260,1,0,0:0:0:0:
410,191,72367,1,0,0:0:0:0:
512,297,72581,2,0,P|461:288|395:288,1,107.999996704102,8|0,0:0|0:0,0:0:0:0:
338,373,73010,5,0,0:0:0:0:
230,377,73224,1,0,0:0:0:0:
168,288,73438,1,8,0:0:0:0:
228,198,73652,2,0,P|241:162|215:94,1,107.999996704102
167,80,73974,1,0,0:0:0:0:
113,85,74081,1,0,0:0:0:0:
244,278,74295,2,0,P|278:261|308:196,1,107.999996704102,8|0,0:0|0:0,0:0:0:0:
111,237,74724,6,0,P|112:320|156:383,1,161.999995056153,6|0,0:0|0:0,0:0:0:0:
209,382,75152,1,8,0:0:0:0:
312,349,75367,1,0,0:0:0:0:
358,376,75474,1,0,0:0:0:0:
408,355,75581,2,0,L|514:329,1,107.999996704102
509,275,75902,1,0,0:0:0:0:
476,231,76010,2,0,B|458:209|465:183|465:183|478:164|486:114,1,107.999996704102,8|0,0:0|0:0,0:0:0:0:
337,0,76438,6,0,P|349:70|391:92,1,107.999996704102
304,169,76867,1,8,0:0:0:0:
222,97,77081,2,0,P|169:97|109:189,1,161.999995056153
119,233,77510,1,0,0:0:0:0:
54,319,77724,2,0,L|-7:313,2,53.9999983520508,8|0|0,0:0|0:0|0:0,0:0:0:0:
186,380,78152,6,0,P|239:366|293:368,1,107.999996704102,2|0,0:0|0:0,0:0:0:0:
480,280,78581,2,0,P|427:293|373:291,1,107.999996704102,8|0,0:0|0:0,0:0:0:0:
288,224,79010,1,0,0:0:0:0:
226,135,79224,1,0,0:0:0:0:
275,39,79438,1,8,0:0:0:0:
382,36,79652,1,0,0:0:0:0:
359,85,79760,1,0,0:0:0:0:
380,134,79867,6,0,L|488:112,1,107.999996704102
288,224,80295,2,0,L|180:246,1,107.999996704102,8|0,0:0|0:0,0:0:0:0:
159,294,80617,1,0,0:0:0:0:
156,347,80724,1,0,0:0:0:0:
44,384,80938,1,0,0:0:0:0:
41,331,81045,1,0,0:0:0:0:
18,282,81152,2,0,P|23:243|20:162,1,107.999996704102,8|0,0:0|0:0,0:0:0:0:
42,0,81581,6,0,B|92:44|139:-10|192:18|192:18|229:120|147:162,1,323.999990112305,6|0,0:0|0:0,0:0:0:0:
365,162,82438,2,0,B|283:120|320:18|320:18|373:-10|398:42,1,215.999993408203,0|8,0:0|0:0,0:0:0:0:
420,18,82974,1,0,0:0:0:0:
470,0,83081,1,0,0:0:0:0:
499,126,83295,6,0,P|485:230|402:295,2,215.999993408203,0|8|0,0:0|0:0|0:0,0:0:0:0:
379,132,84367,1,0,0:0:0:0:
317,236,84581,1,8,0:0:0:0:
317,236,84688,1,0,0:0:0:0:
317,236,84795,1,0,0:0:0:0:
311,355,85010,6,0,P|258:327|104:364,1,215.999993408203,2|8,0:0|0:0,0:0:0:0:
23,294,85652,1,0,0:0:0:0:
118,242,85867,2,0,B|143:230|167:226|167:226|78:170|96:85,1,215.999993408203,0|8,0:0|0:0,0:0:0:0:
123,44,86402,1,0,0:0:0:0:
174,26,86510,1,0,0:0:0:0:
436,123,86724,6,0,B|381:111|331:144|331:144|292:109|232:118,1,215.999993408203,4|8,0:0|0:0,0:0:0:0:
219,243,87367,1,0,0:0:0:0:
167,226,87474,1,0,0:0:0:0:
114,236,87581,1,0,0:0:0:0:
78,276,87688,1,0,0:0:0:0:
67,328,87795,2,0,P|41:264|8:217,2,107.999996704102,0|8|0,0:0|0:0|0:0,0:0:0:0:
336,384,88438,6,0,P|315:345|300:303,1,90,4|0,0:0|0:0,0:0:0:0:
219,243,88867,2,0,P|256:211|297:201,1,90,8|0,0:0|0:0,0:0:0:0:
339,209,89189,1,0,0:0:0:0:
374,235,89296,1,0,0:0:0:0:
432,153,89510,1,0,0:0:0:0:
467,127,89617,1,0,0:0:0:0:
510,118,89724,2,0,P|469:101|432:76,2,90,8|0|0,0:0|0:0|0:0,0:0:0:0:
510,265,90367,2,0,P|469:282|432:307,2,90,0|8|0,0:0|0:0|0:0,0:0:0:0:
327,271,91010,6,0,L|322:361,1,90
220,288,91438,2,0,L|153:348,1,90,8|0,0:0|0:0,0:0:0:0:
130,223,91867,2,0,L|41:218,1,90
194,136,92296,2,0,B|199:93|199:93|179:47,1,90,8|0,0:0|0:0,0:0:0:0:
138,37,92617,1,0,0:0:0:0:
93,37,92724,1,0,0:0:0:0:
0,25,92938,6,0,B|-5:68|-5:68|15:114,1,90,0|8,0:0|0:0,0:0:0:0:
56,124,93259,1,0,0:0:0:0:
101,124,93366,1,0,0:0:0:0:
130,223,93582,2,0,B|124:257|124:257|127:276|127:276|120:311,2,90,0|0|8,0:0|0:0|0:0,0:0:0:0:
201,149,94224,1,0,0:0:0:0:
272,223,94438,2,0,B|278:257|278:257|275:276|275:276|282:311,1,90
316,340,94760,1,0,0:0:0:0:
357,357,94867,2,0,P|407:352|463:349,1,90,8|0,0:0|0:0,0:0:0:0:
512,94,95295,6,0,P|516:140|505:183,1,90,4|0,0:0|0:0,0:0:0:0:
481,219,95617,1,0,0:0:0:0:
436,222,95724,1,8,0:0:0:0:
373,82,95939,2,0,P|342:64|274:51,1,90
291,162,96367,1,0,0:0:0:0:
291,162,96474,1,0,0:0:0:0:
291,162,96581,2,0,P|257:171|199:210,1,90,8|0,0:0|0:0,0:0:0:0:
150,116,97010,1,0,0:0:0:0:
54,152,97224,6,0,B|41:180|41:180|45:240,1,90,0|8,0:0|0:0,0:0:0:0:
73,274,97546,1,0,0:0:0:0:
118,273,97653,1,0,0:0:0:0:
227,376,97867,2,0,B|214:348|214:348|218:288,1,90
297,223,98295,1,8,0:0:0:0:
297,223,98403,1,0,0:0:0:0:
297,223,98510,1,0,0:0:0:0:
383,278,98724,6,0,P|376:322|383:366,1,90
476,231,99152,2,0,P|483:186|476:142,1,90,8|0,0:0|0:0,0:0:0:0:
469,97,99474,1,0,0:0:0:0:
450,55,99582,1,0,0:0:0:0:
319,95,99796,1,0,0:0:0:0:
300,137,99903,1,0,0:0:0:0:
293,182,100010,2,0,B|333:175|333:175|382:180,1,90,8|0,0:0|0:0,0:0:0:0:
238,267,100438,2,0,B|198:274|198:274|148:268,1,90
132,181,100867,5,8,0:0:0:0:
123,91,101082,1,0,0:0:0:0:
43,42,101295,5,0,0:0:0:0:
34,132,101510,1,0,0:0:0:0:
207,128,101724,5,8,0:0:0:0:
216,38,101939,1,0,0:0:0:0:
342,91,102152,5,10,0:0:0:0:
434,69,102367,1,2,0:0:0:0:
434,69,102474,1,8,0:0:0:0:
434,69,102581,1,10,0:0:0:0:
471,152,102796,1,10,0:0:0:0:
474,192,102903,1,8,0:0:0:0:
473,231,103010,2,0,P|493:234|512:238,1,40.4999987640381,2|8,0:0|0:0,0:0:0:0:
415,283,103224,2,0,P|394:280|375:276,1,40.4999987640381,10|0,0:0|0:0,0:0:0:0:
318,224,103438,6,8,L|314:198,7,20.2499993820191
337,154,103867,6,0,B|313:149|313:149|285:159|248:151,1,90,4|0,0:0|0:0,0:0:0:0:
184,106,104295,1,8,0:0:0:0:
184,106,104402,1,0,0:0:0:0:
184,106,104510,1,0,0:0:0:0:
107,152,104724,2,0,P|104:199|108:242,1,90
73,271,105045,1,0,0:0:0:0:
35,295,105152,2,0,P|38:342|34:385,1,90,8|0,0:0|0:0,0:0:0:0:
124,380,105581,6,0,B|158:373|158:373|187:375|187:375|219:368,2,90,0|0|8,0:0|0:0|0:0,0:0:0:0:
123,284,106224,2,0,B|89:291|89:291|60:289|60:289|28:296,1,90
8,257,106545,1,0,0:0:0:0:
1,212,106652,1,0,0:0:0:0:
19,123,106867,2,0,L|73:113,3,45,8|0|0|0,0:0|0:0|0:0|0:0,0:0:0:0:
108,117,107295,6,0,B|91:163|91:163|97:203,1,90
178,162,107724,2,0,B|224:179|224:179|264:172,1,90,8|0,0:0|0:0,0:0:0:0:
193,86,108152,2,0,B|210:40|210:40|203:0,1,90
123,41,108581,2,0,B|77:24|77:24|37:31,1,90,8|0,0:0|0:0,0:0:0:0:
11,68,108902,1,0,0:0:0:0:
5,112,109010,1,0,0:0:0:0:
71,172,109224,5,0,0:0:0:0:
19,245,109438,1,8,0:0:0:0:
85,305,109652,1,0,0:0:0:0:
28,375,109867,2,0,P|70:365|122:369,1,90
160,356,110188,2,0,L|166:303,1,45,0|8,0:0|0:0,0:0:0:0:
227,245,110510,1,0,0:0:0:0:
386,289,110724,6,0,L|297:300,1,90,4|0,0:0|0:0,0:0:0:0:
431,211,111152,2,0,L|341:200,1,90,8|0,0:0|0:0,0:0:0:0:
302,119,111581,1,0,0:0:0:0:
223,154,111795,1,0,0:0:0:0:
223,154,111902,1,0,0:0:0:0:
223,154,112010,1,8,0:0:0:0:
161,88,112224,1,0,0:0:0:0:
83,39,112438,6,0,P|39:47|3:72,1,90
74,128,112867,1,8,0:0:0:0:
83,217,113081,2,0,P|39:209|3:184,1,90
4,289,113510,1,0,0:0:0:0:
23,329,113617,1,0,0:0:0:0:
43,369,113724,2,0,L|99:367,3,45,8|0|0|0,0:0|0:0|0:0|0:0,0:0:0:0:
118,334,114152,6,0,B|142:339|142:339|170:329|207:337,1,90
287,375,114581,2,0,P|295:331|283:288,1,90,8|0,0:0|0:0,0:0:0:0:
257,251,114902,1,0,0:0:0:0:
238,209,115010,2,0,P|225:166|233:122,1,90
285,49,115438,1,8,0:0:0:0:
376,31,115652,6,0,B|419:90|419:90|390:145|396:194,1,180
445,269,116295,1,8,0:0:0:0:
396,344,116510,1,0,0:0:0:0:
306,351,116724,2,0,L|201:328,1,90
176,349,117045,1,0,0:0:0:0:
138,374,117152,1,8,0:0:0:0:
49,358,117367,1,0,0:0:0:0:
42,268,117581,6,0,L|-5:251,3,45,6|2|2|2,0:0|0:0|0:0|0:0,0:0:0:0:
101,212,118010,2,0,L|79:166,3,45,10|2|2|2,0:0|0:0|0:0|0:0,0:0:0:0:
165,268,118438,1,2,0:0:0:0:
165,268,118545,2,0,P|209:255|253:251,1,90,2|2,0:0|0:0,0:0:0:0:
288,222,118866,2,0,P|278:174|278:114,1,90,10|2,0:0|0:0,0:0:0:0:
287,89,119188,1,2,0:0:0:0:
321,59,119295,2,0,B|349:65|349:65|380:64,3,45,2|2|2|2,0:0|0:0|0:0|0:0,0:0:0:0:
248,24,119724,2,0,B|220:30|220:30|189:29,3,45,10|2|2|2,0:0|0:0|0:0|0:0,0:0:0:0:
142,79,120152,5,2,0:0:0:0:
41,154,120366,1,2,0:0:0:0:
156,205,120581,1,10,0:0:0:0:
54,278,120795,1,2,0:0:0:0:
251,289,121010,6,0,P|235:332|252:375,1,90,2|2,0:0|0:0,0:0:0:0:
293,380,121331,1,2,0:0:0:0:
338,378,121438,2,0,L|431:377,1,90,10|2,0:0|0:0,0:0:0:0:
470,362,121759,1,2,0:0:0:0:
480,317,121867,1,2,0:0:0:0:
450,237,122081,1,2,0:0:0:0:
450,237,122188,2,0,P|406:225|343:294,1,135,2|2,0:0|0:0,0:0:0:0:
288,210,122723,5,2,0:0:0:0:
328,129,122938,1,2,0:0:0:0:
328,129,123044,1,2,0:0:0:0:
255,73,123260,1,2,0:0:0:0:
255,73,123366,1,2,0:0:0:0:
176,29,123580,6,0,B|142:32|142:32|73:24,1,90,2|4,0:0|0:0,0:0:0:0:
23,90,124009,1,6,0:0:0:0:
4,136,124116,1,2,0:0:0:0:
20,183,124223,1,2,0:0:0:0:
60,212,124330,1,2,0:0:0:0:
105,207,124438,6,0,L|223:180,1,90,4|0,0:0|0:0,0:0:0:0:
273,227,124867,2,0,P|272:250|278:271,2,45,8|0|0,0:0|0:0|0:0,0:0:0:0:
281,138,125295,2,0,P|250:105|205:89,1,90
163,92,125617,1,0,0:0:0:0:
118,97,125724,1,8,0:0:0:0:
136,184,125938,1,0,0:0:0:0:
84,257,126152,1,0,0:0:0:0:
104,344,126367,1,0,0:0:0:0:
193,353,126581,6,0,P|243:349|313:350,1,90,8|0,0:0|0:0,0:0:0:0:
367,379,127010,1,0,0:0:0:0:
350,290,127224,1,0,0:0:0:0:
334,248,127331,1,0,0:0:0:0:
355,208,127438,2,0,P|332:211|310:211,2,45,8|0|0,0:0|0:0|0:0,0:0:0:0:
301,135,127867,6,0,P|346:131|390:136,1,90
234,195,128295,2,0,P|189:201|145:197,1,90,8|0,0:0|0:0,0:0:0:0:
274,58,128724,2,0,P|318:54|363:59,1,90
206,117,129152,2,0,P|161:122|116:119,1,90,8|0,0:0|0:0,0:0:0:0:
40,70,129581,1,0,0:0:0:0:
122,30,129795,5,2,0:0:0:0:
122,30,130010,1,2,0:0:0:0:
256,272,130438,1,2,0:0:0:0:
256,272,130653,1,2,0:0:0:0:
390,30,131081,1,2,0:0:0:0:
501,166,131295,6,0,L|414:145,1,90,4|0,0:0|0:0,0:0:0:0:
368,148,131617,1,0,0:0:0:0:
323,152,131724,1,8,0:0:0:0:
279,73,131938,1,0,0:0:0:0:
202,26,132152,2,0,P|158:30|115:44,1,90
89,81,132474,2,0,L|101:138,1,45,0|8,0:0|0:0,0:0:0:0:
48,200,132795,1,0,0:0:0:0:
207,271,133009,6,0,P|164:257|120:253,2,90,0|0|8,0:0|0:0|0:0,0:0:0:0:
92,338,133652,2,0,B|210:344|123:371|262:384,1,180
301,361,134188,1,0,0:0:0:0:
338,336,134295,2,0,B|352:304|352:304|338:245,1,90,8|0,0:0|0:0,0:0:0:0:
387,174,134724,5,0,0:0:0:0:
315,118,134938,1,0,0:0:0:0:
267,194,135152,1,8,0:0:0:0:
339,250,135366,1,0,0:0:0:0:
426,273,135581,6,0,P|459:302|480:342,1,90
453,378,135902,1,0,0:0:0:0:
408,383,136009,1,8,0:0:0:0:
327,343,136223,1,0,0:0:0:0:
244,378,136438,1,0,0:0:0:0:
166,332,136652,6,0,L|69:328,1,90,0|8,0:0|0:0,0:0:0:0:
25,253,137081,1,0,0:0:0:0:
91,192,137295,2,0,P|99:148|87:106,1,90
67,64,137616,1,0,0:0:0:0:
25,46,137723,1,8,0:0:0:0:
3,133,137938,1,0,0:0:0:0:
157,37,138152,6,0,B|183:34|207:46|207:46|228:35|252:35,1,99.0000030212403,6|2,0:0|0:0,0:0:0:0:
292,65,138474,1,2,0:0:0:0:
324,102,138581,2,0,L|372:111,3,49.5000015106202,10|2|2|2,0:0|0:0|0:0|0:0,0:0:0:0:
269,153,139010,2,0,L|221:144,1,49.5000015106202,2|2,0:0|0:0,0:0:0:0:
175,122,139224,2,0,L|127:131,1,49.5000015106202,2|2,0:0|0:0,0:0:0:0:
85,159,139438,2,0,L|37:150,3,49.5000015106202,10|2|2|2,0:0|0:0|0:0|0:0,0:0:0:0:
111,231,139867,2,0,P|108:280|124:326,1,99.0000030212403,2|2,0:0|0:0,0:0:0:0:
171,340,140188,1,2,0:0:0:0:
219,327,140295,2,0,P|235:280|232:231,1,99.0000030212403,10|2,0:0|0:0,0:0:0:0:
175,149,140724,5,2,0:0:0:0:
311,171,140938,1,2,0:0:0:0:
345,304,141152,1,10,0:0:0:0:
481,282,141366,1,2,0:0:0:0:
512,146,141581,6,0,P|438:137|395:130,1,99.0000030212403,2|2,0:0|0:0,0:0:0:0:
398,86,141902,1,2,0:0:0:0:
383,38,142010,2,0,P|309:47|266:54,1,99.0000030212403,10|2,0:0|0:0,0:0:0:0:
169,9,142438,5,2,0:0:0:0:
169,9,142545,1,2,0:0:0:0:
185,111,142760,1,2,0:0:0:0:
185,111,142867,1,10,0:0:0:0:
69,168,143081,5,2,0:0:0:0:
69,168,143188,1,2,0:0:0:0:
85,66,143403,1,2,0:0:0:0:
85,66,143510,1,2,0:0:0:0:
169,9,143724,5,10,0:0:0:0:
169,9,143831,1,2,0:0:0:0:
185,111,144046,1,2,0:0:0:0:
185,111,144153,1,2,0:0:0:0:
311,139,144367,5,4,0:0:0:0:
355,16,144581,1,4,0:0:0:0:
404,16,144688,1,2,0:0:0:0:
446,40,144795,1,2,0:0:0:0:
473,80,144902,1,2,0:0:0:0:
466,129,145010,2,2,B|416:108|311:126|350:309|240:348|119:284|119:284|141:175|255:139|411:251,1,792.000024169923,6|0,1:0|1:0,1:0:0:0:
308,359,147045,5,0,0:0:0:0:
308,359,147153,2,0,P|264:386|213:382,1,99.0000030212403
240,289,147582,1,0,0:0:0:0:
240,289,147689,1,0,0:0:0:0:
157,234,147902,1,0,0:0:0:0:
107,240,148010,2,0,P|113:254|70:374,1,148.50000453186,8|0,0:0|0:0,0:0:0:0:
19,369,148438,6,0,B|18:309|18:309|0:274|0:274|-2:210,1,161.999995056153,6|0,0:0|0:0,0:0:0:0:
0,157,148867,1,8,0:0:0:0:
84,90,149081,1,0,0:0:0:0:
193,91,149295,2,0,L|301:80,1,107.999996704102
343,113,149616,1,0,0:0:0:0:
395,99,149723,2,0,P|369:144|353:209,1,107.999996704102,8|0,0:0|0:0,0:0:0:0:
401,361,150152,6,0,P|427:316|443:251,1,107.999996704102
398,230,150474,1,0,0:0:0:0:
354,197,150581,2,0,B|329:206|304:220|304:220|278:208|249:203,1,107.999996704102,8|0,0:0|0:0,0:0:0:0:
175,278,151009,1,0,0:0:0:0:
103,197,151223,1,0,0:0:0:0:
29,276,151438,1,8,0:0:0:0:
29,276,151545,1,0,0:0:0:0:
29,276,151652,1,0,0:0:0:0:
168,0,151866,6,0,P|166:53|149:104,1,107.999996704102,2|0,0:0|0:0,0:0:0:0:
234,171,152295,1,8,0:0:0:0:
288,78,152509,2,0,B|340:97|340:97|405:87,1,107.999996704102
442,67,152831,1,0,0:0:0:0:
458,15,152938,1,0,0:0:0:0:
512,179,153152,2,0,L|396:198,1,107.999996704102,8|0,0:0|0:0,0:0:0:0:
370,298,153581,5,0,0:0:0:0:
272,344,153795,1,0,0:0:0:0:
188,275,154009,1,8,0:0:0:0:
171,168,154223,2,0,P|126:173|58:178,1,107.999996704102
39,226,154545,1,0,0:0:0:0:
25,278,154652,1,0,0:0:0:0:
257,210,154867,2,0,P|267:163|243:105,1,107.999996704102,8|0,0:0|0:0,0:0:0:0:
272,344,155295,6,0,P|317:339|385:334,1,107.999996704102,6|0,0:0|0:0,0:0:0:0:
442,246,155723,1,8,0:0:0:0:
502,156,155938,1,0,0:0:0:0:
512,103,156045,1,0,0:0:0:0:
501,51,156152,2,0,B|437:63|454:40|392:51,1,107.999996704102
361,96,156474,1,0,0:0:0:0:
333,142,156581,2,0,P|335:196|327:252,1,107.999996704102,8|0,0:0|0:0,0:0:0:0:
151,332,157010,5,0,0:0:0:0:
242,275,157224,1,0,0:0:0:0:
330,336,157438,1,8,0:0:0:0:
431,299,157652,2,0,P|451:224|446:133,1,161.999995056153
402,110,158081,1,0,0:0:0:0:
493,53,158295,2,0,P|502:25|499:-8,2,53.9999983520508,8|0|0,0:0|0:0|0:0,0:0:0:0:
287,0,158723,6,0,P|341:-2|393:11,1,107.999996704102,2|0,0:0|0:0,0:0:0:0:
180,45,159152,2,0,P|126:46|74:32,1,107.999996704102,8|0,0:0|0:0,0:0:0:0:
2,113,159581,1,0,0:0:0:0:
22,218,159795,1,0,0:0:0:0:
122,256,160009,1,8,0:0:0:0:
198,179,160223,1,0,0:0:0:0:
247,201,160331,1,0,0:0:0:0:
300,193,160438,6,0,B|287:214|279:241|279:241|284:269|298:293,1,107.999996704102
416,219,160867,2,0,B|429:198|437:171|437:171|432:143|418:119,1,107.999996704102,8|0,0:0|0:0,0:0:0:0:
371,92,161188,1,0,0:0:0:0:
317,91,161295,1,0,0:0:0:0:
216,30,161509,1,0,0:0:0:0:
162,29,161616,1,0,0:0:0:0:
115,7,161723,2,0,P|122:47|115:114,1,107.999996704102,8|0,0:0|0:0,0:0:0:0:
59,206,162152,6,0,B|121:252|169:193|204:221|204:221|144:258|130:310|166:376,1,323.999990112305,6|0,0:0|0:0,0:0:0:0:
350,367,163010,2,0,B|382:310|368:258|307:221|307:221|326:210|356:217,1,215.999993408203,0|8,0:0|0:0,0:0:0:0:
403,225,163545,1,0,0:0:0:0:
453,206,163652,1,0,0:0:0:0:
492,82,163866,6,0,B|456:102|395:111|395:111|338:101|290:67,2,215.999993408203,0|8|0,0:0|0:0|0:0,0:0:0:0:
453,206,164938,1,0,0:0:0:0:
505,334,165152,1,8,0:0:0:0:
505,334,165259,1,0,0:0:0:0:
505,334,165366,1,0,0:0:0:0:
384,383,165581,6,0,B|331:355|331:355|293:299|336:205,1,215.999993408203,6|8,0:0|0:0,0:0:0:0:
256,132,166223,1,0,0:0:0:0:
175,205,166438,2,0,B|219:299|181:355|181:355|128:383,1,215.999993408203,0|8,0:0|0:0,0:0:0:0:
74,383,166973,1,0,0:0:0:0:
19,383,167081,1,0,0:0:0:0:
129,91,167295,6,0,P|51:185|79:285,1,215.999993408203,4|8,0:0|0:0,0:0:0:0:
175,205,167938,1,0,0:0:0:0:
227,188,168045,1,0,0:0:0:0:
280,198,168152,1,0,0:0:0:0:
316,238,168259,1,0,0:0:0:0:
327,290,168367,2,0,L|217:279,2,107.999996704102,0|8|0,0:0|0:0|0:0,0:0:0:0:
407,302,169010,5,2,0:0:0:0:
442,374,169224,2,0,L|496:368,2,40.4999987640381,2|2|2,0:0|0:0|0:0,0:0:0:0:
407,302,169652,1,2,0:0:0:0:
454,236,169867,5,2,0:0:0:0:
419,164,170081,2,0,L|365:170,2,40.4999987640381,2|2|2,0:0|0:0|0:0,0:0:0:0:
454,236,170509,1,2,0:0:0:0:
407,302,170724,5,2,0:0:0:0:
335,337,170938,2,0,L|341:391,2,40.4999987640381,2|2|2,0:0|0:0|0:0,0:0:0:0:
407,302,171367,1,2,0:0:0:0:
252,323,171581,1,2,0:0:0:0:
276,246,171796,1,2,0:0:0:0:
357,237,172010,1,2,0:0:0:0:
0,343,172438,5,2,0:0:0:0:
38,271,172652,2,0,P|21:262|1:256,2,40.4999987640381,2|2|2,0:0|0:0|0:0,0:0:0:0:
111,234,173081,1,2,0:0:0:0:
191,233,173295,2,0,L|204:312,1,80.9999975280763,2|2,0:0|0:0,0:0:0:0:
150,162,173724,2,0,L|136:82,1,80.9999975280763,2|2,0:0|0:0,0:0:0:0:
124,2,174152,6,0,P|184:0|244:25,1,121.499996292114,2|0,0:0|0:0,0:0:0:0:
276,16,174581,6,0,P|313:51|334:102,1,108,2|0,0:0|0:0,0:0:0:0:
363,116,175010,6,0,P|364:162|345:207,1,94.499997116089,2|0,0:0|0:0,0:0:0:0:
355,231,175438,6,0,P|327:259|288:275,1,80.9999975280763,2|0,0:0|0:0,0:0:0:0:
225,244,175867,5,2,0:0:0:0:
196,168,176081,1,2,0:0:0:0:
179,88,176295,2,0,B|109:116|109:116|27:90,1,161.999995056153,10|2,0:0|0:0,0:0:0:0:
2,167,176938,2,0,P|3:211|-1:255,1,80.9999975280763,2|10,0:0|0:0,0:0:0:0:
53,309,177367,1,2,0:0:0:0:
132,296,177581,2,0,P|206:239|275:230,1,161.999995056153,2|10,0:0|0:0,0:0:0:0:
353,236,178224,1,2,0:0:0:0:
433,250,178438,2,0,P|434:294|430:338,1,80.9999975280763,2|2,0:0|0:0,0:0:0:0:
369,384,178867,1,10,0:0:0:0:
511,218,179295,6,0,P|490:185|455:166,1,80.9999975280763,2|2,0:0|0:0,0:0:0:0:
428,89,179724,2,0,P|463:70|485:37,1,80.9999975280763,10|2,0:0|0:0,0:0:0:0:
375,152,180152,1,2,0:0:0:0:
296,137,180367,2,0,P|287:83|349:-2,1,161.999995056153,2|2,0:0|0:0,0:0:0:0:
229,0,181010,6,0,P|210:41|208:118,1,121.499996292114,2|0,0:0|0:0,0:0:0:0:
156,176,181438,6,0,P|179:209|238:245,1,108,10|0,0:0|0:0,0:0:0:0:
272,310,181867,6,0,P|306:306|358:278,1,94.499997116089,2|0,0:0|0:0,0:0:0:0:
431,264,182295,6,0,P|443:236|444:185,1,80.9999975280763,10|0,0:0|0:0,0:0:0:0:
444,186,182724,6,0,B|385:167|330:184|330:184|314:102|359:68|421:83,1,288,2|2,0:0|0:0,0:0:0:0:
256,0,184010,1,0,0:0:0:0:
91,83,184438,2,0,B|153:67|198:101|182:183|182:183|127:166|68:185,1,288,2|2,0:0|0:0,0:0:0:0:
256,298,185724,6,0,L|256:226,1,72,2|2,0:0|0:0,0:0:0:0:
172,262,186152,2,0,P|257:389|340:262,1,360,2|2,0:0|0:0,0:0:0:0:
452,33,187867,6,0,L|344:46,1,108,2|0,0:0|0:0,0:0:0:0:
319,17,188295,6,0,L|239:119,1,114.750002188683,2|0,0:0|0:0,0:0:0:0:
209,96,188724,6,0,L|225:227,1,121.499996292114,2|0,0:0|0:0,0:0:0:0:
181,216,189152,6,0,L|284:297,1,128.249996575356,2|0,0:0|0:0,0:0:0:0:
321,316,189581,6,0,P|251:316|189:334,1,135,2|0,0:0|0:0,0:0:0:0:
173,381,190010,6,0,P|137:345|95:322,1,99.0000030212403,2|0,0:0|0:0,0:0:0:0:
69,279,190331,1,8,0:0:0:0:
62,230,190438,1,8,0:0:0:0:
1,152,190652,1,8,0:0:0:0:
1,152,190760,1,8,0:0:0:0:
1,152,190867,1,8,0:0:0:0:
25,133,190974,1,8,0:0:0:0:
60,129,191081,1,8,0:0:0:0:
99,138,191188,1,8,0:0:0:0:
137,162,191295,6,0,L|306:168,1,161.999995056153,2|2,0:0|0:0,0:0:0:0:
381,28,192152,2,0,L|212:22,1,161.999995056153,2|10,0:0|0:0,0:0:0:0:
298,167,193010,2,0,P|345:197|336:304,1,161.999995056153,2|2,0:0|0:0,0:0:0:0:
205,375,193867,1,2,0:0:0:0:
205,375,194081,1,2,0:0:0:0:
219,265,194295,1,10,0:0:0:0:
337,375,194724,6,0,B|395:373|416:346|416:346|427:272,1,161.999995056153,2|2,0:0|0:0,0:0:0:0:
316,153,195581,2,0,B|376:162|376:162|413:143|413:143|474:150,1,161.999995056153,2|10,0:0|0:0,0:0:0:0:
392,8,196438,2,0,B|356:27|356:27|236:8,1,161.999995056153,2|2,0:0|0:0,0:0:0:0:
78,17,197295,1,2,0:0:0:0:
78,17,197510,1,2,0:0:0:0:
1,77,197724,1,10,0:0:0:0:
22,171,197938,1,2,0:0:0:0:
114,200,198152,6,0,P|125:277|78:340,1,161.999995056153,2|2,0:0|0:0,0:0:0:0:
240,358,199010,2,0,B|290:332|290:332|337:321|394:340,1,161.999995056153,2|10,0:0|0:0,0:0:0:0:
496,215,199867,2,0,B|517:116|480:158|498:55,1,161.999995056153,2|2,0:0|0:0,0:0:0:0:
369,152,200724,1,2,0:0:0:0:
369,152,200938,1,2,0:0:0:0:
269,104,201152,1,10,0:0:0:0:
22,166,201581,6,0,B|62:168|95:188|95:188|133:167|174:159,1,161.999995056153,2|2,0:0|0:0,0:0:0:0:
322,226,202438,2,0,P|274:262|173:244,1,161.999995056153,2|10,0:0|0:0,0:0:0:0:
210,0,203295,2,0,L|237:160,1,161.999995056153,2|2,0:0|0:0,0:0:0:0:
403,164,204152,1,2,0:0:0:0:
403,164,204367,1,2,0:0:0:0:
441,58,204581,1,10,0:0:0:0:
512,309,205010,5,2,0:0:0:0:
363,372,205438,2,0,B|319:333|319:333|327:208,2,161.999995056153,2|2|10,0:0|0:0|0:0,0:0:0:0:
200,381,206724,2,0,L|26:370,1,161.999995056153,2|2,0:0|0:0,0:0:0:0:
161,264,207581,1,2,0:0:0:0:
161,264,207795,1,2,0:0:0:0:
57,220,208010,1,10,0:0:0:0:
294,331,208438,6,0,B|299:264|299:264|314:245|314:245|319:174,1,161.999995056153,2|2,0:0|0:0,0:0:0:0:
247,135,209081,1,2,0:0:0:0:
260,55,209295,2,0,P|179:58|96:48,1,161.999995056153,2|10,0:0|0:0,0:0:0:0:
412,0,210152,6,0,P|421:59|413:119,1,121.499996292114,10|2,0:0|0:0,0:0:0:0:
399,158,210581,1,10,0:0:0:0:
223,288,210795,2,0,P|213:228|221:168,1,121.499996292114,8|2,3:0|0:0,0:0:0:0:
236,130,211224,1,10,0:0:0:0:
115,22,211438,6,8,L|79:28,7,20.2499993820191
115,22,211867,6,0,B|124:68|145:90|145:90|148:138|120:170,1,161.999995056153,6|0,0:0|0:0,0:0:0:0:
77,204,212295,1,8,0:0:0:0:
159,273,212510,1,0,0:0:0:0:
78,344,212724,2,0,P|148:318|235:323,1,161.999995056153
283,344,213152,1,8,0:0:0:0:
385,379,213367,1,0,0:0:0:0:
465,204,213581,6,0,P|477:256|467:308,1,107.999996704102
372,258,214010,1,8,0:0:0:0:
279,201,214224,2,0,P|266:148|340:55,1,161.999995056153
371,41,214652,1,0,0:0:0:0:
474,97,214867,1,8,0:0:0:0:
474,97,214974,1,0,0:0:0:0:
474,97,215081,1,0,0:0:0:0:
212,24,215295,6,0,B|160:9|160:9|107:19,1,107.999996704102,2|0,0:0|0:0,0:0:0:0:
266,157,215724,2,0,B|318:172|318:172|401:155,1,107.999996704102,8|0,0:0|0:0,0:0:0:0:
164,121,216152,1,0,0:0:0:0:
75,184,216367,1,0,0:0:0:0:
98,297,216581,1,8,0:0:0:0:
98,297,216688,1,0,0:0:0:0:
98,297,216795,1,0,0:0:0:0:
206,297,217010,6,0,B|205:266|193:245|193:245|205:226|203:192,1,107.999996704102
297,354,217438,1,8,0:0:0:0:
388,297,217652,2,0,B|389:266|401:245|401:245|389:226|390:192,1,107.999996704102
426,152,217974,1,0,0:0:0:0:
479,142,218081,1,0,0:0:0:0:
347,21,218295,2,0,P|399:14|448:37,1,107.999996704102,8|0,0:0|0:0,0:0:0:0:
215,101,218724,6,0,P|192:52|199:0,1,107.999996704102,6|0,0:0|0:0,0:0:0:0:
168,200,219152,1,8,0:0:0:0:
237,283,219367,1,0,0:0:0:0:
155,353,219581,2,0,L|44:334,1,107.999996704102
58,281,219902,1,0,0:0:0:0:
17,245,220010,2,0,P|29:192|75:131,1,107.999996704102,8|0,0:0|0:0,0:0:0:0:
111,0,220438,5,0,0:0:0:0:
152,99,220652,1,0,0:0:0:0:
260,95,220867,1,8,0:0:0:0:
320,5,221081,2,0,B|379:5|424:24|424:24|432:74|416:132,1,215.999993408203
405,185,221617,1,0,0:0:0:0:
388,236,221724,2,0,L|446:225,2,53.9999983520508,8|0|0,0:0|0:0|0:0,0:0:0:0:
220,268,222152,6,0,L|10:307,1,161.999995056153,2|0,0:0|0:0,0:0:0:0:
31,343,222581,1,8,0:0:0:0:
1,239,222795,1,0,0:0:0:0:
99,193,223010,2,0,P|108:139|94:80,1,107.999996704102
54,6,223438,1,8,0:0:0:0:
160,22,223652,1,0,0:0:0:0:
209,44,223760,1,0,0:0:0:0:
257,21,223867,6,0,L|371:12,1,107.999996704102
422,103,224295,1,8,0:0:0:0:
367,196,224510,2,0,L|259:187,1,107.999996704102
238,237,224831,1,0,0:0:0:0:
218,287,224938,1,0,0:0:0:0:
280,374,225152,2,0,P|307:314|336:274,1,107.999996704102,8|0,0:0|0:0,0:0:0:0:
422,103,225581,6,0,B|414:178|493:230|493:230|488:327|394:351,1,323.999990112305,6|0,0:0|0:0,0:0:0:0:
118,351,226438,2,0,B|24:327|19:230|19:230|90:172,1,215.999993408203,6|8,0:0|0:0,0:0:0:0:
86,156,226974,1,0,0:0:0:0:
90,103,227081,1,0,0:0:0:0:
256,103,227295,6,0,B|256:188|256:188|248:196|248:196|264:196|264:196|256:204|256:204|256:296,2,215.999993408203,0|8|0,0:0|0:0|0:0,0:0:0:0:
412,103,228367,1,0,0:0:0:0:
488,0,228581,1,8,0:0:0:0:
488,0,228688,1,0,0:0:0:0:
488,0,228795,1,0,0:0:0:0:
357,10,229010,6,0,B|296:108|420:108|341:210,1,215.999993408203,6|8,0:0|0:0,0:0:0:0:
256,288,229652,1,0,0:0:0:0:
155,374,229867,2,0,B|216:276|92:276|170:173,1,215.999993408203,0|8,0:0|0:0,0:0:0:0:
172,120,230402,1,0,0:0:0:0:
122,98,230510,1,0,0:0:0:0:
344,32,230724,6,0,B|288:48|256:91|256:91|224:48|168:32,1,215.999993408203,4|8,0:0|0:0,0:0:0:0:
42,97,231367,1,0,0:0:0:0:
31,150,231474,1,0,0:0:0:0:
41,203,231581,1,0,0:0:0:0:
81,239,231688,1,0,0:0:0:0:
133,250,231795,2,0,P|125:194|122:140,2,107.999996704102,0|8|0,0:0|0:0|0:0,0:0:0:0:
250,295,232438,6,0,P|257:339|261:384,1,90,4|0,0:0|0:0,0:0:0:0:
280,209,232867,2,0,P|316:235|350:264,1,90,8|0,0:0|0:0,0:0:0:0:
385,293,233189,1,0,0:0:0:0:
418,323,233296,1,0,0:0:0:0:
446,228,233510,1,0,0:0:0:0:
479,198,233617,1,0,0:0:0:0:
511,169,233724,2,0,L|492:77,2,90,8|0|0,0:0|0:0|0:0,0:0:0:0:
360,13,234367,2,0,L|379:105,2,90,0|8|0,0:0|0:0|0:0,0:0:0:0:
263,84,235010,6,0,L|212:162,1,90
143,50,235438,2,0,L|55:68,1,90,8|0,0:0|0:0,0:0:0:0:
92,150,235867,1,0,0:0:0:0:
34,218,236081,1,0,0:0:0:0:
115,259,236296,2,0,B|135:307|116:356,1,90,8|0,0:0|0:0,0:0:0:0:
84,374,236617,1,0,0:0:0:0:
41,384,236724,1,0,0:0:0:0:
211,384,236938,6,0,B|299:362,1,90,0|8,0:0|0:0,0:0:0:0:
344,363,237259,1,0,0:0:0:0:
387,374,237366,1,0,0:0:0:0:
454,294,237582,2,0,B|467:234|447:260|460:205,2,90,0|0|8,0:0|0:0|0:0,0:0:0:0:
387,374,238224,1,0,0:0:0:0:
322,294,238438,2,0,B|309:234|329:260|317:205,1,90
279,180,238760,1,0,0:0:0:0:
237,166,238867,2,0,P|228:122|238:71,1,90,8|0,0:0|0:0,0:0:0:0:
10,2,239296,6,0,B|59:11|59:11|101:2,1,90,4|0,0:0|0:0,0:0:0:0:
134,29,239617,1,0,0:0:0:0:
146,72,239724,1,8,0:0:0:0:
67,115,239938,2,0,P|58:159|68:210,1,90
26,284,240367,1,0,0:0:0:0:
12,326,240474,1,0,0:0:0:0:
31,366,240581,2,0,L|120:353,1,90,8|0,0:0|0:0,0:0:0:0:
199,307,241010,1,0,0:0:0:0:
271,360,241224,6,0,L|360:373,1,90,0|8,0:0|0:0,0:0:0:0:
379,333,241545,1,0,0:0:0:0:
365,291,241652,1,0,0:0:0:0:
451,264,241867,2,0,B|464:236|464:236|460:176,1,90
455,94,242296,1,8,0:0:0:0:
455,94,242403,1,0,0:0:0:0:
455,94,242510,1,0,0:0:0:0:
388,23,242724,6,0,P|428:5|473:1,1,90
340,100,243152,2,0,P|299:118|254:122,1,90,8|0,0:0|0:0,0:0:0:0:
172,84,243582,1,0,0:0:0:0:
97,34,243796,1,0,0:0:0:0:
59,58,243903,1,0,0:0:0:0:
15,57,244010,2,0,B|24:94|24:94|17:146,1,90,8|0,0:0|0:0,0:0:0:0:
98,276,244438,2,0,B|89:239|89:239|96:187,1,90
172,84,244867,5,4,0:0:0:0:
476,17,245295,5,4,0:0:0:0:
443,216,245617,5,4,0:0:0:0:
324,52,245938,5,4,0:0:0:0:
276,240,246152,6,0,P|277:199|277:159,1,80.9999975280763,2|2,0:0|0:0,0:0:0:0:
357,143,246581,2,0,P|357:183|355:223,1,80.9999975280763,2|2,0:0|0:0,0:0:0:0:
274,367,247224,6,0,P|228:363|165:364,1,80.9999975280763,2|10,0:0|0:0,0:0:0:0:
114,378,247652,1,2,0:0:0:0:
4,256,248081,6,0,P|50:251|113:252,1,80.9999975280763,2|2,0:0|0:0,0:0:0:0:
165,266,248509,1,2,0:0:0:0:
236,227,248724,2,0,P|245:188|244:148,1,80.9999975280763,2|2,0:0|0:0,0:0:0:0:
223,74,249152,1,10,0:0:0:0:
223,74,249367,1,2,0:0:0:0:
273,11,249581,6,0,P|301:8|361:13,1,80.9999975280763,2|2,0:0|0:0,0:0:0:0:
423,54,250010,1,2,0:0:0:0:
502,37,250224,1,2,0:0:0:0:
471,218,250652,5,2,0:0:0:0:
392,201,250866,1,10,0:0:0:0:
323,243,251081,2,0,P|282:246|242:244,1,80.9999975280763,2|2,0:0|0:0,0:0:0:0:
131,95,251724,5,2,0:0:0:0:
64,140,251938,1,2,0:0:0:0:
9,199,252152,2,0,B|19:231|19:231|3:291,1,80.9999975280763,2|2,0:0|0:0,0:0:0:0:
66,339,252581,1,10,0:0:0:0:
66,339,252795,1,2,0:0:0:0:
224,322,253010,6,0,P|184:316|145:322,1,80.9999975280763,6|2,0:0|0:0,0:0:0:0:
281,379,253438,2,0,P|320:385|360:379,1,80.9999975280763,2|2,0:0|0:0,0:0:0:0:
491,283,254081,6,0,L|482:170,1,80.9999975280763,2|10,0:0|0:0,0:0:0:0:
476,121,254510,1,2,0:0:0:0:
352,16,254938,6,0,L|343:129,1,80.9999975280763,2|2,0:0|0:0,0:0:0:0:
337,178,255367,1,2,0:0:0:0:
211,141,255581,5,2,2:1:0:0:
211,141,255795,1,2,0:0:0:0:
220,241,256010,1,10,2:1:0:0:
220,241,256224,1,2,0:0:0:0:
91,209,256438,6,0,P|51:200|11:196,1,80.9999975280763,2|2,0:0|0:0,0:0:0:0:
20,276,256867,2,0,P|59:284|99:288,1,80.9999975280763,2|2,0:0|0:0,0:0:0:0:
136,130,257510,6,0,B|129:108|126:89|126:89|129:71|136:51,1,80.9999975280763,2|10,0:0|0:0,0:0:0:0:
202,4,257938,1,2,0:0:0:0:
267,52,258152,2,0,B|274:74|277:93|277:93|274:111|266:130,1,80.9999975280763,2|2,0:0|0:0,0:0:0:0:
320,197,258581,5,2,0:0:0:0:
392,161,258795,1,2,0:0:0:0:
467,191,259010,1,2,0:0:0:0:
486,269,259224,1,2,0:0:0:0:
446,340,259438,1,10,0:0:0:0:
446,340,259652,1,2,0:0:0:0:
256,192,259867,12,0,263081,0:0:0:0:
413,357,263295,6,0,P|428:323|430:284,1,62.9999980773926,2|2,0:0|0:0,0:0:0:0:
421,225,263723,1,2,0:0:0:0:
361,182,263938,1,2,0:0:0:0:
151,202,264367,5,2,0:0:0:0:
91,159,264581,1,2,0:0:0:0:
80,86,264795,2,0,P|85:55|99:27,1,62.9999980773926,2|2,0:0|0:0,0:0:0:0:
256,192,265438,12,0,267152,0:0:0:0:
