osu file format v14

[General]
AudioFilename: audio.mp3
AudioLeadIn: 0
PreviewTime: 48744
Countdown: 0
SampleSet: Soft
StackLeniency: 0.7
Mode: 0
LetterboxInBreaks: 0
WidescreenStoryboard: 0

[Editor]
DistanceSpacing: 0.9
BeatDivisor: 2
GridSize: 32
TimelineZoom: 0.9

[Metadata]
Title:Urushi Yoru Yuki
TitleUnicode:漆夜雪
Artist:Hanser, Pao Pao
ArtistUnicode:Hanser,泡泡
Creator:Gaia
Version:Normal
Source:崩壊学園
Tags:Sekai-nyan sekai sekaii 崩坏学园2 Houkai Gakuen MiHoYo Guns Girl School DayZ ggz Honkai Impact Collapse of the school 崩坏3rd: 绀海篇 Cyanotic Sea Bronya Zaychik ブローニャ・ザイチク
BeatmapID:1140521
BeatmapSetID:536984

[Difficulty]
HPDrainRate:2.5
CircleSize:3.2
OverallDifficulty:3
ApproachRate:4
SliderMultiplier:1.2
SliderTickRate:1

[Events]
//Background and Video events
0,0,"bronyan.jpg",0,0
//Break Periods
//Storyboard Layer 0 (Background)
//Storyboard Layer 1 (Fail)
//Storyboard Layer 2 (Pass)
//Storyboard Layer 3 (Foreground)
//Storyboard Sound Samples

[TimingPoints]
2188,444.444444444444,3,2,1,30,1,0
2410,-125,3,2,1,30,0,0
12854,-125,3,2,1,10,0,0
14187,-125,3,2,1,30,0,0
24854,-125,3,2,1,30,0,0
43520,-125,3,2,1,30,0,0
48187,-125,3,2,1,30,0,0
48855,-111.111111111111,3,2,1,50,0,0
59521,-111.111111111111,3,2,1,50,0,0
78299,-111.111111111111,3,2,1,30,0,0
81077,-111.111111111111,3,2,1,20,0,0
83743,-111.111111111111,3,2,1,10,0,0

[Colours]
Combo1 : 103,66,253
Combo2 : 255,128,128
Combo3 : 170,170,255
Combo4 : 242,24,57

[HitObjects]
136,107,2410,21,2,0:0:0:0:
81,185,2854,2,0,P|100:258|121:327,1,144,2|2,0:0|0:0,0:0:0:0:
160,348,3743,2,0,B|206:362|251:318|251:318|221:274|272:200,1,192,2|2,0:0|0:0,0:0:0:0:
292,202,4854,2,0,B|371:200|422:243|422:243|441:231|414:186,1,192,2|2,0:0|0:0,0:0:0:0:
438,100,6187,2,0,P|390:106|343:116,2,96,2|0|2,0:0|0:0|0:0,0:0:0:0:
503,29,7521,37,0,0:0:0:0:
468,118,7965,2,0,L|489:233,1,96,2|2,0:0|0:0,0:0:0:0:
437,295,8854,1,0,0:0:0:0:
358,240,9299,2,0,L|340:145,1,96,2|2,0:0|0:0,0:0:0:0:
256,192,10187,12,0,12854,0:0:0:0:
179,134,14187,6,0,P|118:155|142:283,1,192,2|2,0:0|0:0,0:0:0:0:
201,315,15521,2,0,P|236:305|304:292,1,96,2|2,0:0|0:0,0:0:0:0:
374,347,16410,1,2,0:0:0:0:
463,312,16854,2,0,B|498:215|431:215|472:81,1,192,2|0,0:0|0:0,0:0:0:0:
405,45,18187,2,0,P|428:31|454:27,2,48,2|2|2,0:0|0:0|0:0,0:0:0:0:
330,105,19076,2,0,L|260:91,1,48,0|2,0:0|0:0,0:0:0:0:
242,69,19521,38,0,P|152:42|63:137,1,192,2|2,0:0|0:0,0:0:0:0:
59,139,20632,1,2,0:0:0:0:
59,139,20854,2,0,B|81:286|81:286|71:304|30:338,1,192,2|2,0:0|0:0,0:0:0:0:
5,308,21965,1,2,0:0:0:0:
5,308,22187,2,0,B|125:274|125:274|148:243|167:194,1,192,2|0,0:0|0:0,0:0:0:0:
201,130,23521,2,0,P|191:85|176:29,2,96,2|2|2,0:0|0:0|0:0,0:0:0:0:
274,191,24854,6,0,P|316:112|435:139,1,192,2|0,0:0|0:0,0:0:0:0:
414,209,26187,2,0,P|457:198|545:187,2,96,2|2|2,0:0|0:0|0:0,0:0:0:0:
368,293,27521,2,0,L|233:278,1,96,2|0,0:0|0:0,0:0:0:0:
186,239,28410,1,0,0:0:0:0:
106,292,28854,1,2,0:0:0:0:
38,224,29299,2,0,P|26:165|73:87,1,144,2|2,0:0|0:0,0:0:0:0:
92,55,30187,38,0,B|137:62|160:72|160:72|193:56|256:49,1,144,2|0,0:0|0:0,0:0:0:0:
277,39,31076,1,0,0:0:0:0:
370,16,31521,2,0,B|351:144|351:144|319:150|286:183,1,192,2|0,0:0|0:0,0:0:0:0:
367,239,32854,2,0,L|184:207,1,144,2|0,0:0|0:0,0:0:0:0:
178,202,33743,1,0,0:0:0:0:
84,182,34187,1,2,0:0:0:0:
230,52,35076,1,0,0:0:0:0:
308,108,35521,6,0,B|371:117|434:80|434:80|429:107|410:144,1,192,2|0,0:0|0:0,0:0:0:0:
397,231,36854,2,0,P|448:229|500:184,2,96,2|2|2,0:0|0:0|0:0,0:0:0:0:
302,212,38187,2,0,L|327:316,1,96,2|0,0:0|0:0,0:0:0:0:
249,365,39076,1,0,0:0:0:0:
161,324,39521,1,2,0:0:0:0:
72,360,39965,2,0,P|34:316|90:227,1,144,2|2,0:0|0:0,0:0:0:0:
103,223,40854,38,0,P|141:179|85:90,1,144,2|0,0:0|0:0,0:0:0:0:
78,73,41743,1,0,0:0:0:0:
155,16,42187,2,0,B|253:2|253:2|304:46,1,144,2|0,0:0|0:0,0:0:0:0:
322,63,43076,1,0,0:0:0:0:
382,138,43521,2,0,B|356:174|298:173|298:173|272:135|207:130,1,192,2|0,0:0|0:0,0:0:0:0:
150,200,44854,2,0,P|93:228|33:194,1,96,2|2,0:0|0:0,0:0:0:0:
3,146,45743,1,2,0:0:0:0:
94,117,46187,6,0,B|80:260|80:260|99:336,1,192,2|0,0:0|0:0,0:0:0:0:
185,328,47521,2,0,P|170:359|160:384,2,48,2|2|2,0:0|0:0|0:0,0:0:0:0:
229,311,48187,2,0,L|217:204,1,96
214,172,48854,5,6,3:2:0:0:
254,83,49299,2,0,P|317:75|384:147,1,161.999995056153,2|2,0:0|0:0,0:0:0:0:
413,177,50187,2,0,L|392:295,1,107.999996704102,10|0,3:2|0:0,0:0:0:0:
322,349,51076,2,0,P|304:323|296:287,1,53.9999983520508,2|0,0:0|3:2,0:0:0:0:
264,265,51521,6,0,P|206:281|147:263,1,107.999996704102,2|0,3:2|0:0,0:0:0:0:
81,213,52410,1,0,0:0:0:0:
29,130,52854,2,0,B|47:53|47:53|29:15,2,107.999996704102,10|2|2,3:2|0:0|0:0,0:0:0:0:
115,175,54187,38,0,P|168:114|293:144,1,215.999993408203,4|2,3:2|0:0,0:0:0:0:
312,182,55299,1,0,3:2:0:0:
312,182,55521,2,0,P|365:173|426:167,1,107.999996704102,10|0,3:2|3:0,0:0:0:0:
485,238,56410,1,2,0:0:0:0:
453,330,56854,1,2,3:2:0:0:
354,343,57299,6,0,P|300:334|240:328,1,107.999996704102,2|2,0:0|0:0,0:0:0:0:
205,353,57965,1,0,3:0:0:0:
205,353,58187,2,0,P|158:335|93:318,1,107.999996704102,14|8,3:2|3:0,0:0:0:0:
74,280,58854,2,0,L|9:294,1,53.9999983520508,8|0,3:0|3:0,0:0:0:0:
31,194,59521,38,0,B|38:143|3:96|3:96|53:34|130:79,1,215.999993408203,6|2,3:2|0:0,0:0:0:0:
145,86,60632,1,0,0:0:0:0:
145,86,60854,2,0,P|200:111|273:89,1,107.999996704102,8|0,3:2|0:0,0:0:0:0:
313,34,61743,2,0,P|355:46|387:62,1,53.9999983520508,2|0,0:0|3:2,0:0:0:0:
385,94,62187,6,0,P|428:82|508:73,2,107.999996704102,2|2|2,3:2|0:0|0:0,0:0:0:0:
334,177,63521,2,0,P|417:195|464:209,2,107.999996704102,10|2|2,3:2|0:0|0:0,0:0:0:0:
236,180,64854,38,0,L|258:246,1,53.9999983520508,0|0,3:0|3:0,0:0:0:0:
287,265,65299,2,0,L|264:326,1,53.9999983520508,0|0,3:0|3:0,0:0:0:0:
247,359,65743,1,12,3:2:0:0:
149,359,66187,2,0,P|124:347|96:332,1,53.9999983520508,0|0,3:2|3:2,0:0:0:0:
53,321,66632,2,0,P|37:296|17:255,1,53.9999983520508,0|0,3:2|3:2,0:0:0:0:
15,227,67076,1,12,3:2:0:0:
1,130,67521,6,0,P|40:60|96:73,1,107.999996704102,4|8,3:2|3:2,0:0:0:0:
102,35,68187,2,0,L|229:53,1,107.999996704102,8|0,3:0|3:0,0:0:0:0:
248,78,68854,2,0,P|257:117|264:160,1,53.9999983520508,12|0,3:2|3:0,0:0:0:0:
301,156,69299,2,0,L|374:150,2,53.9999983520508,8|0|0,3:2|3:0|3:0,0:0:0:0:
244,235,70187,38,0,P|255:292|268:351,2,107.999996704102,6|2|2,3:2|3:2|3:2,0:0:0:0:
169,171,71521,2,0,P|154:201|141:246,1,53.9999983520508,10|0,3:2|0:0,0:0:0:0:
147,268,71965,2,0,P|105:256|23:242,1,107.999996704102,2|2,3:2|3:2,0:0:0:0:
10,151,72854,6,0,P|1:87|52:29,1,107.999996704102,0|2,3:0|3:2,0:0:0:0:
65,32,73521,2,0,L|121:50,1,53.9999983520508,0|2,0:0|3:2,0:0:0:0:
204,89,74187,2,0,P|252:75|337:60,2,107.999996704102,6|2|2,3:2|3:2|3:2,0:0:0:0:
145,166,75521,38,0,L|164:229,1,53.9999983520508,0|0,3:0|3:2,0:0:0:0:
204,238,75965,2,0,L|182:316,1,53.9999983520508,2|0,3:2|3:0,0:0:0:0:
189,338,76410,1,6,3:2:0:0:
281,368,76854,2,0,P|335:357|391:344,1,107.999996704102,0|8,3:0|3:2,0:0:0:0:
417,307,77521,1,8,3:2:0:0:
417,307,77743,2,0,L|396:238,1,53.9999983520508,8|8,3:2|3:2,0:0:0:0:
390,209,78187,37,4,3:2:0:0:
256,192,78410,12,0,83743,0:0:0:0:
