osu file format v14

[General]
AudioFilename: audio.mp3
AudioLeadIn: 0
PreviewTime: 48744
Countdown: 0
SampleSet: Soft
StackLeniency: 0.7
Mode: 0
LetterboxInBreaks: 0
WidescreenStoryboard: 0

[Editor]
DistanceSpacing: 1.5
BeatDivisor: 4
GridSize: 32
TimelineZoom: 1

[Metadata]
Title:Urushi Yoru Yuki
TitleUnicode:漆夜雪
Artist:Hanser, Pao Pao
ArtistUnicode:Hanser,泡泡
Creator:Gaia
Version:Hard
Source:崩壊学園
Tags:Sekai-nyan sekai sekaii 崩坏学园2 Houkai Gakuen MiHoYo Guns Girl School DayZ ggz Honkai Impact Collapse of the school 崩坏3rd: 绀海篇 Cyanotic Sea Bronya Zaychik ブローニャ・ザイチク
BeatmapID:1138665
BeatmapSetID:536984

[Difficulty]
HPDrainRate:4
CircleSize:4
OverallDifficulty:5
ApproachRate:7
SliderMultiplier:1.5
SliderTickRate:1

[Events]
//Background and Video events
0,0,"bronyan.jpg",0,0
//Break Periods
//Storyboard Layer 0 (Background)
//Storyboard Layer 1 (Fail)
//Storyboard Layer 2 (Pass)
//Storyboard Layer 3 (Foreground)
//Storyboard Sound Samples

[TimingPoints]
2188,444.444444444444,3,2,1,30,1,0
2410,-125,3,2,1,30,0,0
13743,-125,3,2,1,10,0,0
14187,-125,3,2,1,30,0,0
24854,-111.111111111111,3,2,1,30,0,0
43520,-111.111111111111,3,2,1,30,0,0
48187,-142.857142857143,3,2,1,30,0,0
48855,-100,3,2,1,50,0,0
59521,-100,3,2,1,50,0,0
78299,-142.857142857143,3,2,1,30,0,0
81077,-142.857142857143,3,2,1,20,0,0
83743,-142.857142857143,3,2,1,10,0,0

[Colours]
Combo1 : 103,66,253
Combo2 : 255,128,128
Combo3 : 170,170,255
Combo4 : 242,24,57

[HitObjects]
182,229,2410,6,0,P|148:265|143:298,1,60,2|0,0:0|0:0,0:0:0:0:
207,330,2854,2,0,B|192:193|192:193|164:155,1,180,2|2,0:0|0:0,0:0:0:0:
121,88,3743,2,0,B|157:129|205:139|205:139|268:64|349:100,1,240,2|2,0:0|0:0,0:0:0:0:
409,115,4854,6,0,B|401:143|387:165|387:165|411:213|411:213|386:250|406:293,1,180,2|0,0:0|0:0,0:0:0:0:
446,351,5743,2,0,P|476:348|515:343,1,60,2|0,0:0|0:0,0:0:0:0:
364,281,6187,2,0,P|304:273|223:265,1,120,2|0,0:0|0:0,0:0:0:0:
136,138,7075,1,2,0:0:0:0:
136,138,7520,37,0,0:0:0:0:
136,138,7964,2,0,P|145:174|159:216,1,60,2|0,0:0|0:0,0:0:0:0:
68,67,8409,2,0,L|-11:47,1,60,2|0,0:0|0:0,0:0:0:0:
185,54,8853,1,0,0:0:0:0:
185,54,9299,2,0,P|222:45|262:44,1,60,2|0,0:0|0:0,0:0:0:0:
355,145,9743,2,0,P|325:142|296:134,1,60,2|0,0:0|0:0,0:0:0:0:
234,198,10186,5,0,0:0:0:0:
256,192,10299,12,0,13743,0:0:0:0:
311,57,14188,38,0,P|334:122|296:172,1,120,2|0,0:0|0:0,0:0:0:0:
224,134,14854,1,0,0:0:0:0:
165,202,15077,2,0,P|174:233|188:271,1,60,2|0,0:0|0:0,0:0:0:0:
262,301,15520,2,0,P|249:340|238:384,2,60,2|0|2,0:0|0:0|0:0,0:0:0:0:
323,234,16187,2,0,P|303:220|248:208,2,60,0|2|0,0:0|0:0|0:0,0:0:0:0:
409,209,16854,6,0,P|398:165|383:80,1,120,2|0,0:0|0:0,0:0:0:0:
425,11,17520,1,0,0:0:0:0:
354,67,17742,2,0,P|330:61|268:52,1,60,0|0,0:0|0:0,0:0:0:0:
161,97,18187,1,2,0:0:0:0:
86,45,18409,2,0,L|46:36,2,30,2|0|2,0:0|0:0|0:0,0:0:0:0:
52,128,18854,2,0,P|12:142|-22:159,2,60,2|0|2,0:0|0:0|0:0,0:0:0:0:
164,186,19520,38,0,P|119:220|40:205,1,120,2|0,0:0|0:0,0:0:0:0:
5,289,20187,1,0,0:0:0:0:
5,289,20409,2,0,P|12:328|23:366,1,60,2|0,0:0|0:0,0:0:0:0:
149,352,20854,2,0,B|175:329|175:329|213:322|265:315,1,120,2|0,0:0|0:0,0:0:0:0:
287,230,21520,1,0,0:0:0:0:
287,230,21742,2,0,P|332:243|366:252,1,60,2|0,0:0|0:0,0:0:0:0:
454,182,22187,6,0,P|471:131|415:73,1,120,2|0,0:0|0:0,0:0:0:0:
346,69,22854,2,0,P|338:37|331:-2,2,60,2|0|2,0:0|0:0|0:0,0:0:0:0:
264,156,23520,1,2,0:0:0:0:
185,111,23742,1,0,0:0:0:0:
101,145,23965,2,0,L|27:137,1,60,2|0,0:0|0:0,0:0:0:0:
11,223,24409,2,0,L|70:229,1,60,2|0,0:0|0:0,0:0:0:0:
189,167,24854,38,0,P|231:205|204:290,1,134.999995880127,2|0,0:0|0:0,0:0:0:0:
144,334,25520,1,0,0:0:0:0:
230,372,25742,2,0,L|325:353,1,67.4999979400635
362,291,26187,2,0,P|438:310|508:324,2,134.999995880127,2|2|2,0:0|0:0|0:0,0:0:0:0:
319,104,27520,6,0,P|301:153|305:192,1,67.4999979400635,2|0,0:0|0:0,0:0:0:0:
267,256,27965,2,0,P|227:267|182:278,1,67.4999979400635
129,212,28409,2,0,L|56:196,1,67.4999979400635
19,113,28854,2,0,P|31:172|45:260,1,134.999995880127,2|2,0:0|0:0,0:0:0:0:
222,25,29965,1,2,0:0:0:0:
156,93,30187,38,0,P|205:117|292:86,1,134.999995880127,2|0,0:0|0:0,0:0:0:0:
347,30,30854,1,0,0:0:0:0:
423,85,31076,2,0,P|423:114|410:168,1,67.4999979400635,0|0,0:0|0:0,0:0:0:0:
344,212,31520,2,0,L|488:193,1,134.999995880127,2|0,0:0|0:0,0:0:0:0:
492,288,32187,1,0,0:0:0:0:
492,288,32409,2,0,L|401:303,1,67.4999979400635,0|0,0:0|0:0,0:0:0:0:
285,262,32854,6,0,P|289:320|206:353,1,134.999995880127,2|0,0:0|0:0,0:0:0:0:
143,318,33520,1,0,0:0:0:0:
110,229,33742,2,0,L|125:152,1,67.4999979400635,0|0,0:0|0:0,0:0:0:0:
146,70,34187,1,2,0:0:0:0:
385,174,35076,1,0,0:0:0:0:
385,174,35520,38,0,P|319:159|253:145,1,134.999995880127,2|0,0:0|0:0,0:0:0:0:
186,77,36187,1,0,0:0:0:0:
95,49,36409,2,0,P|56:59|22:90,1,67.4999979400635,0|0,0:0|0:0,0:0:0:0:
6,165,36854,2,0,B|-2:269|-2:269|35:310,2,134.999995880127,2|2|2,0:0|0:0|0:0,0:0:0:0:
181,235,38187,6,0,P|213:227|259:217,1,67.4999979400635,2|0,0:0|0:0,0:0:0:0:
302,143,38631,2,0,P|272:134|233:121,1,67.4999979400635,0|0,0:0|0:0,0:0:0:0:
160,67,39076,2,0,P|146:119|146:157,1,67.4999979400635,0|0,0:0|0:0,0:0:0:0:
176,254,39520,2,0,P|203:304|154:380,1,134.999995880127,2|2,0:0|0:0,0:0:0:0:
16,133,40631,1,2,0:0:0:0:
101,175,40854,38,0,L|185:158,1,67.4999979400635,2|0,0:0|0:0,0:0:0:0:
188,69,41298,2,0,P|242:86|273:99,1,67.4999979400635
337,50,41742,2,0,P|348:97|354:133,1,67.4999979400635,0|0,0:0|0:0,0:0:0:0:
283,182,42187,2,0,P|352:152|417:192,1,134.999995880127,2|0,0:0|0:0,0:0:0:0:
470,242,42854,1,0,0:0:0:0:
470,242,43076,2,0,P|461:277|455:322,1,67.4999979400635,0|0,0:0|0:0,0:0:0:0:
366,383,43520,6,0,L|349:242,1,134.999995880127,2|0,0:0|0:0,0:0:0:0:
283,182,44187,1,0,0:0:0:0:
190,161,44409,2,0,P|196:204|211:254,1,67.4999979400635,0|0,0:0|0:0,0:0:0:0:
273,290,44854,2,0,P|240:304|195:332,2,67.4999979400635,2|0|2,0:0|0:0|0:0,0:0:0:0:
182,230,45520,2,0,P|149:226|88:221,2,67.4999979400635,0|2|0,0:0|0:0|0:0,0:0:0:0:
292,173,46187,38,0,P|303:125|234:54,1,134.999995880127,2|0,0:0|0:0,0:0:0:0:
163,36,46854,1,0,0:0:0:0:
163,36,47076,2,0,P|174:71|186:119,1,67.4999979400635,0|0,0:0|0:0,0:0:0:0:
91,168,47520,1,2,0:0:0:0:
12,112,47742,2,0,L|24:57,2,33.7499989700318,2|0|2,0:0|0:0|0:0,0:0:0:0:
1,203,48187,6,0,P|13:260|34:335,1,131.249995994568
70,356,48855,6,0,P|79:323|105:268,1,75,6|0,3:2|0:0,0:0:0:0:
114,167,49299,2,0,P|189:192|280:217,1,150,2|0,0:0|0:0,0:0:0:0:
335,165,49966,1,2,0:0:0:0:
420,138,50188,2,0,P|387:92|279:95,1,150,10|0,3:2|0:0,0:0:0:0:
250,158,50855,1,0,0:0:0:0:
388,230,51077,2,0,P|423:225|487:213,1,75,2|0,0:0|3:2,0:0:0:0:
335,165,51521,6,0,P|354:256|366:340,1,150,2|0,3:2|0:0,0:0:0:0:
292,368,52188,1,0,0:0:0:0:
292,368,52410,2,0,L|210:354,1,75
155,291,52854,2,0,P|81:323|-8:315,2,150,10|2|2,3:2|0:0|0:0,0:0:0:0:
187,206,53966,1,0,0:0:0:0:
150,86,54188,38,0,B|202:89|251:111|251:111|269:95|303:93,1,150,4|0,3:2|0:0,0:0:0:0:
377,64,54854,1,0,0:0:0:0:
377,64,55077,2,0,P|380:113|362:159,1,75,2|0,0:0|3:2,0:0:0:0:
304,195,55521,2,0,B|417:173|417:173|404:198|402:219,2,150,10|0|2,3:2|3:0|0:0,0:0:0:0:
244,262,56632,1,0,0:0:0:0:
177,202,56854,6,0,P|181:163|194:113,1,75,2|0,3:2|0:0,0:0:0:0:
207,27,57299,2,0,P|171:43|121:56,1,75,2|0,0:0|0:0,0:0:0:0:
38,86,57743,2,0,P|69:108|106:145,1,75,2|0,0:0|3:0,0:0:0:0:
112,175,58077,1,0,3:2:0:0:
112,175,58188,2,0,L|281:157,1,150,14|8,3:2|3:0,0:0:0:0:
328,98,58854,1,8,3:0:0:0:
328,98,59077,2,0,P|391:111|441:119,1,112.5,0|0,3:0|0:0,0:0:0:0:
471,148,59521,38,0,P|506:217|442:279,1,150,6|0,3:2|0:0,0:0:0:0:
391,317,60188,1,0,0:0:0:0:
329,251,60410,2,0,P|331:224|335:153,1,75,2|0,0:0|0:0,0:0:0:0:
226,74,60854,2,0,P|205:155|270:210,1,150,8|0,3:2|0:0,0:0:0:0:
249,291,61521,1,0,0:0:0:0:
249,291,61743,2,0,P|216:287|162:278,1,75,2|0,0:0|3:2,0:0:0:0:
62,213,62188,6,0,P|76:263|92:302,1,75,2|0,3:2|0:0,0:0:0:0:
166,127,62632,2,0,P|161:172|151:211,1,75,2|0,0:0|0:0,0:0:0:0:
8,137,63077,2,0,P|46:132|93:126,1,75,2|0,0:0|0:0,0:0:0:0:
251,88,63521,2,0,P|218:47|114:48,2,150,10|2|2,3:2|0:0|0:0,0:0:0:0:
311,154,64632,1,0,0:0:0:0:
192,214,64854,37,0,3:0:0:0:
192,214,65077,1,0,3:0:0:0:
244,286,65299,1,0,3:0:0:0:
183,352,65521,1,0,3:0:0:0:
183,352,65632,1,0,3:0:0:0:
183,352,65743,2,0,P|144:343|51:324,1,112.5,12|0,3:2|0:0,0:0:0:0:
31,346,66188,5,0,3:2:0:0:
5,259,66410,1,0,3:2:0:0:
70,185,66632,1,0,3:2:0:0:
83,96,66854,1,0,3:2:0:0:
195,22,67077,2,0,L|214:144,1,112.5,12|0,3:2|0:0,0:0:0:0:
244,164,67521,38,0,P|306:184|357:145,1,112.5,4|0,3:2|0:0,0:0:0:0:
380,134,67966,1,8,3:2:0:0:
481,70,68188,2,0,P|466:165|457:219,1,150,8|0,3:0|3:0,0:0:0:0:
472,260,68743,1,0,3:0:0:0:
472,260,68854,5,12,3:2:0:0:
419,333,69077,1,0,3:0:0:0:
349,275,69299,2,0,L|256:256,1,75,8|0,3:2|3:0,0:0:0:0:
201,310,69743,2,0,L|63:324,1,112.5,0|0,3:0|0:0,0:0:0:0:
51,296,70188,38,0,P|28:254|38:219,1,75,6|0,3:2|0:0,0:0:0:0:
83,155,70632,2,0,P|101:115|96:78,1,75,2|0,3:2|0:0,0:0:0:0:
188,15,71077,2,0,P|196:80|208:151,1,112.5,2|0,3:2|0:0,0:0:0:0:
233,160,71521,2,0,P|270:160|320:129,1,75,10|0,3:2|0:0,0:0:0:0:
392,161,71966,2,0,P|457:152|501:220,2,150,2|2|0,3:2|3:2|3:0,0:0:0:0:
366,247,73077,5,0,0:0:0:0:
432,307,73299,2,0,P|473:301|527:295,1,75,2|0,3:2|0:0,0:0:0:0:
388,384,73743,2,0,L|263:365,1,112.5,2|0,3:2|0:0,0:0:0:0:
264,323,74188,2,0,P|223:335|182:342,1,75,6|0,3:2|0:0,0:0:0:0:
131,274,74632,2,0,P|101:266|46:254,1,75,2|0,3:2|0:0,0:0:0:0:
64,166,75077,2,0,P|46:145|16:104,1,75,2|0,3:2|0:0,0:0:0:0:
98,15,75521,37,0,3:0:0:0:
98,15,75743,1,0,3:2:0:0:
176,59,75966,2,0,P|172:97|163:147,1,75,2|0,3:2|3:0,0:0:0:0:
208,148,76299,1,0,3:0:0:0:
208,148,76410,2,0,L|337:131,1,112.5,6|0,3:2|0:0,0:0:0:0:
359,153,76854,2,0,P|370:198|354:233,1,75,0|0,3:0|3:0,0:0:0:0:
290,287,77299,1,8,3:2:0:0:
290,287,77521,1,8,3:2:0:0:
217,233,77743,1,8,3:2:0:0:
131,270,77966,1,8,3:2:0:0:
135,362,78188,37,4,3:2:0:0:
256,192,78299,12,0,81077,0:0:0:0:
256,192,81188,12,0,83743,0:0:0:0:
