osu file format v14

[General]
AudioFilename: audio.mp3
AudioLeadIn: 0
PreviewTime: 70800
Countdown: 0
SampleSet: Drum
StackLeniency: 0.7
Mode: 3
LetterboxInBreaks: 0
SpecialStyle: 0
WidescreenStoryboard: 0

[Editor]
Bookmarks: 91500,103200,144000,172800
DistanceSpacing: 1
BeatDivisor: 8
GridSize: 4
TimelineZoom: 1.1

[Metadata]
Title:Mang Zhong
TitleUnicode:芒种
Artist:Hanser
ArtistUnicode:Hanser
Creator:Seiran-
Version:Summer
Source:
Tags:cpop c-pop 腾格尔 殇小谨 音阙诗听 赵方婧 梦幻西游 Drum-Hitnormal dudehacker FLeVI Chinese pop female vocal cover the 24 solar terms
BeatmapID:2778762
BeatmapSetID:1341498

[Difficulty]
HPDrainRate:8
CircleSize:4
OverallDifficulty:7.5
ApproachRate:5
SliderMultiplier:1.4
SliderTickRate:1

[Events]
//Background and Video events
0,0,"bg summer.jpg",0,0
//Break Periods
//Storyboard Layer 0 (Background)
//Storyboard Layer 1 (Fail)
//Storyboard Layer 2 (Pass)
//Storyboard Layer 3 (Foreground)
//Storyboard Layer 4 (Overlay)
//Storyboard Sound Samples
Sample,67250,0,"LR_Snare Drum .wav",30
Sample,67250,0,"LR_Snare Drum .wav",30
Sample,67285,0,"LR_Snare Drum .wav",30
Sample,67285,0,"LR_Snare Drum .wav",30
Sample,89100,0,"LR_HiHat Synth Fast.wav",70
Sample,89100,0,"LR_HiHat Synth Fast.wav",70
Sample,133500,0,"LR_Snare Drum .wav",30
Sample,137400,0,"LR_Snare Drum .wav",30
Sample,137400,0,"LR_Snare Drum .wav",30
Sample,137435,0,"LR_Snare Drum .wav",30
Sample,137435,0,"LR_Snare Drum .wav",30
Sample,138600,0,"LR_Snare Drum .wav",30
Sample,138600,0,"LR_Snare Drum .wav",30
Sample,138635,0,"LR_Snare Drum .wav",30
Sample,138635,0,"LR_Snare Drum .wav",30

[TimingPoints]
2435,600,4,3,1,40,1,0
72035,-100,4,3,1,40,0,1
91535,-100,4,3,1,40,0,0
172835,-100,4,3,1,40,0,1
210935,-100,4,3,1,40,0,0

[HitObjects]
448,192,2435,5,0,0:0:0:0:
64,192,2435,1,0,0:0:0:0:
192,192,2735,1,0,0:0:0:0:
448,192,3035,1,0,0:0:0:0:
320,192,3335,1,0,0:0:0:0:
192,192,3935,1,0,0:0:0:0:
64,192,4235,1,0,0:0:0:0:
448,192,4235,1,0,0:0:0:0:
320,192,4535,1,0,0:0:0:0:
192,192,4835,1,0,0:0:0:0:
448,192,4835,1,0,0:0:0:0:
64,192,4835,1,0,0:0:0:0:
64,192,6635,1,0,0:0:0:0:
320,192,6635,1,0,0:0:0:0:
192,192,6935,1,0,0:0:0:0:
448,192,7235,1,0,0:0:0:0:
64,192,7235,1,0,0:0:0:0:
320,192,7235,1,0,0:0:0:0:
192,192,7535,1,0,0:0:0:0:
320,192,7835,1,0,0:0:0:0:
64,192,8135,1,0,0:0:0:0:
192,192,8735,1,0,0:0:0:0:
64,192,9035,1,0,0:0:0:0:
448,192,9035,1,0,0:0:0:0:
320,192,9335,1,0,0:0:0:0:
64,192,9635,1,0,0:0:0:0:
192,192,9635,1,0,0:0:0:0:
448,192,9635,1,0,0:0:0:0:
448,192,11435,1,0,0:0:0:0:
192,192,11435,1,0,0:0:0:0:
64,192,13835,1,0,0:0:0:0:
192,192,13910,1,0,0:0:0:0:
448,192,13985,1,0,0:0:0:0:
320,192,14060,1,0,0:0:0:0:
64,192,14135,1,0,0:0:0:0:
192,192,14210,1,0,0:0:0:0:
320,192,14285,1,0,0:0:0:0:
64,192,14360,1,0,0:0:0:0:
192,192,14435,1,2,0:0:0:0:
448,192,14435,1,0,0:0:0:0:
320,192,14735,1,0,0:0:0:0:
64,192,15035,1,0,0:0:0:40:LR_Clap hollow echo.wav
192,192,15035,1,0,0:0:0:0:
320,192,15335,1,2,0:0:0:0:
448,192,15335,1,0,0:0:0:0:
64,192,15935,1,2,0:0:0:0:
320,192,15935,1,0,0:0:0:0:
448,192,16235,1,0,0:0:0:40:LR_Clap hollow echo.wav
192,192,16235,1,0,0:0:0:0:
64,192,16535,1,0,0:0:0:0:
64,192,16835,1,2,0:0:0:0:
320,192,16835,1,0,0:0:0:0:
448,192,16835,1,0,0:0:0:0:
64,192,17435,1,0,0:0:0:40:LR_Clap hollow echo.wav
320,192,17435,1,0,0:0:0:0:
320,192,17735,1,2,0:0:0:0:
448,192,17735,1,0,0:0:0:0:
320,192,18335,1,2,0:0:0:0:
448,192,18335,1,0,0:0:0:0:
64,192,18485,1,0,0:0:0:0:
192,192,18635,1,0,0:0:0:40:LR_Clap hollow echo.wav
448,192,18635,1,0,0:0:0:0:
320,192,18935,1,2,0:0:0:0:
64,192,18935,1,0,0:0:0:0:
320,192,19235,1,2,0:0:0:0:
448,192,19235,1,0,0:0:0:0:
64,192,19235,1,0,0:0:0:0:
192,192,19535,1,0,0:0:0:0:
448,192,19835,1,0,0:0:0:40:LR_Clap hollow echo.wav
320,192,19835,1,0,0:0:0:0:
192,192,20135,1,2,0:0:0:0:
64,192,20135,1,0,0:0:0:0:
64,192,20735,1,2,0:0:0:0:
320,192,20735,1,0,0:0:0:0:
448,192,21035,1,0,0:0:0:40:LR_Clap hollow echo.wav
192,192,21035,1,0,0:0:0:0:
320,192,21335,1,0,0:0:0:0:
448,192,21635,1,2,0:0:0:0:
64,192,21635,1,0,0:0:0:0:
192,192,21635,1,0,0:0:0:0:
448,192,22235,1,0,0:0:0:40:LR_Clap hollow echo.wav
64,192,22235,1,0,0:0:0:0:
320,192,22310,1,0,0:0:0:0:
192,192,22385,1,0,0:0:0:0:
448,192,22460,1,0,0:0:0:0:
64,192,22535,1,2,0:0:0:0:
320,192,22535,1,0,0:0:0:0:
192,192,22610,1,0,0:0:0:0:
448,192,22685,1,0,0:0:0:0:
320,192,22760,1,0,0:0:0:0:
64,192,22835,1,0,0:0:0:0:
192,192,22910,1,0,0:0:0:0:
320,192,22985,1,0,0:0:0:0:
64,192,23060,1,0,0:0:0:0:
448,192,23135,1,2,0:0:0:0:
192,192,23135,1,0,0:0:0:0:
320,192,23435,1,0,0:0:0:40:LR_Clap hollow echo.wav
64,192,23435,1,0,0:0:0:0:
448,192,23735,1,2,0:0:0:0:
320,192,23735,1,0,0:0:0:0:
192,192,24035,1,2,0:0:0:0:
448,192,24035,1,0,0:0:0:0:
64,192,24035,1,0,0:0:0:0:
192,192,24335,1,0,0:0:0:0:
448,192,24635,1,0,0:0:0:40:LR_Clap hollow echo.wav
320,192,24635,1,0,0:0:0:0:
64,192,24935,1,2,0:0:0:0:
320,192,24935,1,0,0:0:0:0:
64,192,25535,1,2,0:0:0:0:
448,192,25535,1,0,0:0:0:0:
320,192,25835,1,0,0:0:0:40:LR_Clap hollow echo.wav
448,192,25835,1,0,0:0:0:0:
192,192,26135,1,0,0:0:0:0:
64,192,26435,1,2,0:0:0:0:
448,192,26435,1,0,0:0:0:0:
320,192,26435,1,0,0:0:0:0:
64,192,27035,1,0,0:0:0:40:LR_Clap hollow echo.wav
448,192,27035,1,0,0:0:0:0:
192,192,27110,1,0,0:0:0:0:
320,192,27185,1,0,0:0:0:0:
64,192,27260,1,0,0:0:0:0:
192,192,27335,1,2,0:0:0:0:
448,192,27335,1,0,0:0:0:0:
320,192,27410,1,0,0:0:0:0:
64,192,27485,1,0,0:0:0:0:
192,192,27560,1,0,0:0:0:0:
448,192,27635,1,0,0:0:0:0:
320,192,27710,1,0,0:0:0:0:
64,192,27785,1,0,0:0:0:0:
192,192,27860,1,0,0:0:0:0:
320,192,27935,1,2,0:0:0:0:
448,192,27935,1,0,0:0:0:0:
192,192,28235,1,0,0:0:0:40:LR_Clap hollow echo.wav
64,192,28235,1,0,0:0:0:0:
448,192,28535,1,2,0:0:0:0:
320,192,28535,1,0,0:0:0:0:
64,192,28835,1,2,0:0:0:0:
320,192,28835,1,0,0:0:0:0:
448,192,28835,1,0,0:0:0:0:
192,192,29135,1,0,0:0:0:0:
64,192,29435,1,0,0:0:0:40:LR_Clap hollow echo.wav
448,192,29435,1,0,0:0:0:0:
320,192,29735,1,2,0:0:0:0:
448,192,29735,1,0,0:0:0:0:
64,192,30335,1,2,0:0:0:0:
320,192,30335,1,0,0:0:0:0:
192,192,30635,1,0,0:0:0:40:LR_Clap hollow echo.wav
448,192,30635,1,0,0:0:0:0:
320,192,30935,1,0,0:0:0:0:
64,192,31235,1,2,0:0:0:0:
448,192,31235,1,0,0:0:0:0:
192,192,31235,1,0,0:0:0:0:
64,192,31835,1,0,0:0:0:40:LR_Clap hollow echo.wav
448,192,31835,1,0,0:0:0:0:
192,192,31910,1,0,0:0:0:0:
320,192,31985,1,0,0:0:0:0:
64,192,32060,1,0,0:0:0:0:
448,192,32135,1,2,0:0:0:0:
192,192,32135,1,0,0:0:0:0:
320,192,32210,1,0,0:0:0:0:
64,192,32285,1,0,0:0:0:0:
192,192,32360,1,0,0:0:0:0:
448,192,32435,1,0,0:0:0:0:
320,192,32510,1,0,0:0:0:0:
64,192,32585,1,0,0:0:0:0:
192,192,32660,1,0,0:0:0:0:
320,192,32735,1,2,0:0:0:0:
448,192,32735,1,0,0:0:0:0:
64,192,32810,1,0,0:0:0:0:
192,192,32885,1,0,0:0:0:0:
320,192,32960,1,0,0:0:0:0:
448,192,33035,1,0,0:0:0:40:LR_Clap hollow echo.wav
64,192,33035,1,0,0:0:0:0:
192,192,33335,1,2,0:0:0:0:
320,192,33335,1,0,0:0:0:0:
64,192,33635,128,2,34235:0:0:0:0:
320,192,33635,1,0,0:0:0:0:
448,192,33635,1,0,0:0:0:0:
192,192,33935,1,0,0:0:0:0:
448,192,34235,1,0,0:0:0:40:LR_Clap hollow echo.wav
320,192,34235,1,0,0:0:0:0:
320,192,34535,1,2,0:0:0:0:
64,192,34535,1,0,0:0:0:0:
192,192,34835,1,0,0:0:0:0:
448,192,35135,1,2,0:0:0:0:
320,192,35135,1,0,0:0:0:0:
320,192,35435,1,0,0:0:0:40:LR_Clap hollow echo.wav
64,192,35435,1,0,0:0:0:0:
192,192,35735,1,2,0:0:0:0:
448,192,35735,1,0,0:0:0:0:
448,192,36035,128,2,36635:0:0:0:0:
64,192,36035,1,0,0:0:0:0:
320,192,36035,1,0,0:0:0:0:
320,192,36635,1,0,0:0:0:40:LR_Clap hollow echo.wav
64,192,36635,1,0,0:0:0:0:
192,192,36935,1,2,0:0:0:0:
448,192,36935,1,0,0:0:0:0:
64,192,37235,1,0,0:0:0:0:
192,192,37535,1,2,0:0:0:0:
448,192,37535,1,0,0:0:0:0:
64,192,37835,1,0,0:0:0:40:LR_Clap hollow echo.wav
320,192,37835,1,0,0:0:0:0:
448,192,38135,1,0,0:0:0:0:
448,192,38435,1,2,0:0:0:0:
64,192,38435,128,0,39035:0:0:0:0:
192,192,38435,1,0,0:0:0:0:
192,192,39035,1,0,0:0:0:40:LR_Clap hollow echo.wav
448,192,39035,1,0,0:0:0:0:
320,192,39335,1,2,0:0:0:0:
64,192,39335,1,0,0:0:0:0:
192,192,39635,1,0,0:0:0:0:
64,192,39935,1,2,0:0:0:0:
320,192,39935,1,0,0:0:0:0:
448,192,40235,1,0,0:0:0:40:LR_Clap hollow echo.wav
192,192,40235,1,0,0:0:0:0:
64,192,40535,1,2,0:0:0:0:
192,192,40535,1,0,0:0:0:0:
320,192,40835,1,2,0:0:0:0:
64,192,40835,1,0,0:0:0:0:
448,192,40835,128,0,41435:0:0:0:0:
192,192,41135,1,0,0:0:0:0:
192,192,41435,1,0,0:0:0:40:LR_Clap hollow echo.wav
64,192,41435,1,0,0:0:0:0:
448,192,41735,1,2,0:0:0:0:
320,192,41735,1,0,0:0:0:0:
192,192,42035,1,0,0:0:0:0:
64,192,42335,1,2,0:0:0:0:
448,192,42335,1,0,0:0:0:0:
448,192,42635,1,0,0:0:0:40:LR_Clap hollow echo.wav
320,192,42635,1,0,0:0:0:0:
192,192,42935,1,2,0:0:0:0:
64,192,42935,1,0,0:0:0:0:
320,192,43235,1,2,0:0:0:0:
448,192,43235,1,0,0:0:0:0:
64,192,43235,128,0,43835:0:0:0:0:
192,192,43535,1,0,0:0:0:0:
448,192,43835,1,0,0:0:0:40:LR_Clap hollow echo.wav
320,192,43835,1,0,0:0:0:0:
448,192,44135,1,2,0:0:0:0:
192,192,44135,1,0,0:0:0:0:
64,192,44435,1,0,0:0:0:0:
448,192,44735,1,2,0:0:0:0:
192,192,44735,1,0,0:0:0:0:
64,192,45035,1,0,0:0:0:40:LR_Clap hollow echo.wav
320,192,45035,1,0,0:0:0:0:
192,192,45335,1,0,0:0:0:0:
320,192,45635,1,2,0:0:0:0:
64,192,45635,1,0,0:0:0:0:
448,192,45635,128,0,46235:0:0:0:0:
64,192,45935,1,0,0:0:0:0:
320,192,46235,1,0,0:0:0:40:LR_Clap hollow echo.wav
192,192,46235,1,0,0:0:0:0:
64,192,46535,1,2,0:0:0:0:
448,192,46535,1,0,0:0:0:0:
192,192,46835,1,0,0:0:0:0:
320,192,47135,1,2,0:0:0:0:
64,192,47135,1,0,0:0:0:0:
192,192,47435,1,0,0:0:0:40:LR_Clap hollow echo.wav
448,192,47435,1,0,0:0:0:0:
192,192,47735,1,2,0:0:0:0:
64,192,47735,1,0,0:0:0:0:
320,192,48035,1,2,0:0:0:0:
448,192,48035,1,0,0:0:0:0:
64,192,48035,128,0,48635:0:0:0:0:
192,192,48335,1,0,0:0:0:0:
448,192,48635,1,0,0:0:0:40:LR_Clap hollow echo.wav
320,192,48635,1,0,0:0:0:0:
320,192,48935,1,2,0:0:0:0:
64,192,48935,1,0,0:0:0:0:
448,192,49235,1,0,0:0:0:0:
192,192,49535,1,2,0:0:0:0:
64,192,49535,1,0,0:0:0:0:
192,192,49835,1,0,0:0:0:40:LR_Clap hollow echo.wav
448,192,49835,1,0,0:0:0:0:
64,192,50135,1,2,0:0:0:0:
320,192,50135,1,0,0:0:0:0:
64,192,50435,1,2,0:0:0:0:
192,192,50435,1,0,0:0:0:0:
448,192,50435,128,0,51035:0:0:0:0:
320,192,50735,1,0,0:0:0:0:
192,192,51035,1,0,0:0:0:40:LR_Clap hollow echo.wav
64,192,51035,1,0,0:0:0:0:
192,192,51335,1,2,0:0:0:0:
64,192,51335,1,0,0:0:0:0:
320,192,51635,1,0,0:0:0:0:
192,192,51935,1,2,0:0:0:0:
64,192,51935,1,0,0:0:0:0:
448,192,52235,1,0,0:0:0:40:LR_Clap hollow echo.wav
320,192,52235,1,0,0:0:0:0:
192,192,52535,1,0,0:0:0:0:
64,192,52835,1,0,0:0:0:0:
448,192,52835,128,0,54035:0:0:0:0:
64,192,53135,128,0,53435:0:0:0:0:
192,192,53435,128,0,53735:0:0:0:0:
320,192,53735,128,0,54035:0:0:0:0:
64,192,54035,128,0,54635:0:0:0:0:
448,192,54635,1,0,0:0:0:0:
448,192,55235,1,0,0:0:0:0:
64,192,55235,128,0,56435:0:0:0:0:
320,192,55535,128,0,55835:0:0:0:0:
192,192,55835,128,0,56135:0:0:0:0:
448,192,56135,128,0,56435:0:0:0:0:
320,192,56435,128,0,57035:0:0:0:0:
448,192,57035,1,0,0:0:0:0:
64,192,57635,1,0,0:0:0:0:
448,192,57635,128,0,58835:0:0:0:0:
320,192,57935,1,0,0:0:0:0:
64,192,58235,1,0,0:0:0:0:
192,192,58535,1,0,0:0:0:0:
320,192,59135,1,0,0:0:0:0:
192,192,59435,1,0,0:0:0:0:
320,192,60035,1,0,0:0:0:0:
448,192,60035,1,0,0:0:0:0:
64,192,60035,128,0,61235:0:0:0:0:
320,192,60635,1,0,0:0:0:0:
448,192,60935,1,0,0:0:0:0:
320,192,61235,1,0,0:0:0:0:
320,192,61835,1,0,0:0:0:0:
64,192,62435,1,0,0:0:0:30:LR_Snare Drum .wav
448,192,62435,1,0,0:0:0:0:
192,192,62735,1,0,0:0:0:30:LR_Snare Drum .wav
320,192,62735,128,0,63035:0:0:0:0:
64,192,63035,1,0,0:0:0:30:LR_Snare Drum .wav
448,192,63035,128,0,63335:0:0:0:0:
192,192,63335,1,0,0:0:0:30:LR_Snare Drum .wav
320,192,63335,128,0,63635:0:0:0:0:
64,192,63635,1,0,0:0:0:30:LR_Snare Drum .wav
448,192,63635,128,0,64235:0:0:0:0:
192,192,63935,1,0,0:0:0:30:LR_Snare Drum .wav
320,192,63935,1,0,0:0:0:0:
192,192,64235,1,0,0:0:0:30:LR_Snare Drum .wav
320,192,64235,1,0,0:0:0:0:
448,192,64535,1,0,0:0:0:30:LR_Snare Drum .wav
64,192,64535,1,0,0:0:0:0:
448,192,64835,1,0,0:0:0:40:LR_Snare Drum .wav
64,192,64835,1,0,0:0:0:0:
320,192,65135,1,0,0:0:0:40:LR_Snare Drum .wav
192,192,65135,128,0,65435:0:0:0:0:
448,192,65435,1,0,0:0:0:40:LR_Snare Drum .wav
64,192,65435,128,0,65735:0:0:0:0:
320,192,65735,1,0,0:0:0:40:LR_Snare Drum .wav
192,192,65735,128,0,66035:0:0:0:0:
448,192,66035,1,0,0:0:0:40:LR_Snare Drum .wav
64,192,66035,128,0,66635:0:0:0:0:
320,192,66335,1,0,0:0:0:40:LR_Snare Drum .wav
192,192,66335,1,0,0:0:0:0:
448,192,66635,1,0,0:0:0:40:LR_Snare Drum .wav
320,192,66635,1,0,0:0:0:0:
64,192,66935,1,0,0:0:0:40:LR_Snare Drum .wav
192,192,66935,1,0,0:0:0:0:
448,192,67235,1,0,0:0:0:30:LR_Snare Drum .wav
64,192,67235,1,0,0:0:0:0:
192,192,67335,1,0,0:0:0:30:LR_Snare Drum .wav
320,192,67435,1,0,0:0:0:30:LR_Snare Drum .wav
448,192,67535,1,0,0:0:0:30:LR_Snare Drum .wav
64,192,67635,1,0,0:0:0:30:LR_Snare Drum .wav
192,192,67735,1,0,0:0:0:30:LR_Snare Drum .wav
448,192,67835,1,0,0:0:0:30:LR_Snare Drum .wav
320,192,67935,1,0,0:0:0:30:LR_Snare Drum .wav
64,192,68035,1,0,0:0:0:30:LR_Snare Drum .wav
448,192,68135,1,0,0:0:0:30:LR_Snare Drum .wav
320,192,68235,1,0,0:0:0:30:LR_Snare Drum .wav
64,192,68335,1,0,0:0:0:30:LR_Snare Drum .wav
192,192,68435,1,0,0:0:0:30:LR_Snare Drum .wav
320,192,68535,1,0,0:0:0:30:LR_Snare Drum .wav
64,192,68635,1,0,0:0:0:30:LR_Snare Drum .wav
448,192,68735,1,0,0:0:0:30:LR_Snare Drum .wav
320,192,68835,1,0,0:0:0:30:LR_Snare Drum .wav
64,192,68935,1,0,0:0:0:30:LR_Snare Drum .wav
192,192,69035,1,0,0:0:0:30:LR_Snare Drum .wav
448,192,69135,1,0,0:0:0:30:LR_Snare Drum .wav
320,192,69235,1,0,0:0:0:30:LR_Snare Drum .wav
64,192,69335,1,0,0:0:0:30:LR_Snare Drum .wav
192,192,69435,1,0,0:0:0:30:LR_Snare Drum .wav
320,192,69535,1,0,0:0:0:30:LR_Snare Drum .wav
192,192,69635,1,0,0:0:0:30:LR_Snare Drum .wav
64,192,69635,1,0,0:0:0:0:
448,192,69735,1,0,0:0:0:30:LR_Snare Drum .wav
320,192,69835,1,0,0:0:0:30:LR_Snare Drum .wav
192,192,69935,1,0,0:0:0:30:LR_Snare Drum .wav
64,192,69935,1,0,0:0:0:0:
448,192,70035,1,0,0:0:0:30:LR_Snare Drum .wav
320,192,70135,1,0,0:0:0:30:LR_Snare Drum .wav
192,192,70235,1,0,0:0:0:30:LR_Snare Drum .wav
64,192,70235,1,0,0:0:0:0:
320,192,70335,1,0,0:0:0:30:LR_Snare Drum .wav
448,192,70435,1,0,0:0:0:30:LR_Snare Drum .wav
192,192,70535,1,0,0:0:0:30:LR_Snare Drum .wav
64,192,70535,1,0,0:0:0:0:
320,192,70635,1,0,0:0:0:30:LR_Snare Drum .wav
448,192,70735,1,0,0:0:0:30:LR_Snare Drum .wav
192,192,70835,1,0,0:0:0:30:LR_Snare Drum .wav
64,192,70835,1,0,0:0:0:0:
448,192,70935,1,0,0:0:0:30:LR_Snare Drum .wav
320,192,71035,1,0,0:0:0:30:LR_Snare Drum .wav
192,192,71135,1,0,0:0:0:30:LR_Snare Drum .wav
64,192,71135,1,0,0:0:0:0:
448,192,71235,1,0,0:0:0:30:LR_Snare Drum .wav
320,192,71335,1,0,0:0:0:30:LR_Snare Drum .wav
64,192,71435,1,0,0:0:0:70:LR_Snare Drum .wav
192,192,71435,1,0,0:0:0:0:
448,192,71735,1,0,0:0:0:0:
320,192,71810,1,0,0:0:0:0:
192,192,71885,1,0,0:0:0:0:
64,192,71960,1,0,0:0:0:0:
320,192,72035,1,2,0:0:0:0:
448,192,72035,128,0,72635:0:0:0:0:
64,192,72335,1,0,0:0:0:70:LR_HiHat Synth Fast.wav
64,192,72635,1,8,0:0:0:0:
192,192,72635,128,2,72785:0:0:0:0:
320,192,72635,1,0,0:0:0:0:
192,192,72935,128,0,73235:0:0:0:70:LR_HiHat Synth Fast.wav
448,192,73235,128,2,73385:0:0:0:0:
64,192,73235,1,0,0:0:0:0:
448,192,73535,128,0,73835:0:0:0:70:LR_HiHat Synth Fast.wav
320,192,73835,128,8,74135:0:0:0:0:
64,192,73835,1,2,0:0:0:0:
192,192,73835,1,0,0:0:0:0:
64,192,74135,1,0,0:0:0:70:LR_HiHat Synth Fast.wav
64,192,74435,128,2,74735:0:0:0:0:
320,192,74435,1,0,0:0:0:0:
448,192,74435,1,0,0:0:0:0:
448,192,74735,128,0,74885:0:0:0:70:LR_HiHat Synth Fast.wav
320,192,74885,128,0,75035:0:0:0:0:
192,192,75035,1,2,0:0:0:0:
64,192,75035,128,8,75335:0:0:0:0:
448,192,75035,1,0,0:0:0:0:
320,192,75335,128,0,75485:0:0:0:70:LR_HiHat Synth Fast.wav
448,192,75485,128,0,75635:0:0:0:0:
64,192,75635,128,2,75785:0:0:0:0:
192,192,75635,1,0,0:0:0:0:
64,192,75935,128,0,76085:0:0:0:70:LR_HiHat Synth Fast.wav
64,192,76235,128,2,76385:0:0:0:0:
320,192,76235,1,8,0:0:0:0:
448,192,76235,1,0,0:0:0:0:
192,192,76535,1,0,0:0:0:70:LR_HiHat Synth Fast.wav
192,192,76835,1,2,0:0:0:0:
448,192,76835,128,0,77435:0:0:0:0:
64,192,76835,1,0,0:0:0:0:
64,192,77135,1,0,0:0:0:70:LR_HiHat Synth Fast.wav
64,192,77435,128,2,77585:0:0:0:0:
320,192,77435,1,8,0:0:0:0:
192,192,77435,1,0,0:0:0:0:
64,192,77735,128,0,78035:0:0:0:70:LR_HiHat Synth Fast.wav
320,192,78035,1,2,0:0:0:0:
448,192,78035,1,0,0:0:0:0:
448,192,78335,128,0,78635:0:0:0:70:LR_HiHat Synth Fast.wav
192,192,78635,128,2,78935:0:0:0:0:
320,192,78635,1,8,0:0:0:0:
64,192,78635,1,0,0:0:0:0:
448,192,78935,1,0,0:0:0:70:LR_HiHat Synth Fast.wav
448,192,79235,1,2,0:0:0:0:
64,192,79235,1,0,0:0:0:0:
192,192,79235,128,0,79385:0:0:0:0:
320,192,79535,128,0,79685:0:0:0:70:LR_HiHat Synth Fast.wav
192,192,79685,128,0,79835:0:0:0:0:
64,192,79835,1,8,0:0:0:0:
448,192,79835,1,2,0:0:0:0:
320,192,79835,128,0,80135:0:0:0:0:
192,192,80135,128,0,80285:0:0:0:70:LR_HiHat Synth Fast.wav
320,192,80285,128,0,80435:0:0:0:0:
448,192,80435,128,2,80585:0:0:0:0:
64,192,80435,1,0,0:0:0:0:
448,192,80735,128,0,80885:0:0:0:70:LR_HiHat Synth Fast.wav
448,192,81035,128,8,81335:0:0:0:0:
192,192,81035,1,2,0:0:0:0:
64,192,81035,1,0,0:0:0:0:
192,192,81335,128,0,81635:0:0:0:70:LR_HiHat Synth Fast.wav
320,192,81635,1,2,0:0:0:0:
64,192,81635,128,0,82235:0:0:0:0:
448,192,81635,1,0,0:0:0:0:
320,192,81935,1,0,0:0:0:70:LR_HiHat Synth Fast.wav
192,192,82085,1,0,0:0:0:0:
448,192,82235,1,8,0:0:0:0:
320,192,82235,128,2,82385:0:0:0:0:
320,192,82535,128,0,82835:0:0:0:70:LR_HiHat Synth Fast.wav
192,192,82685,1,0,0:0:0:0:
64,192,82835,128,2,82985:0:0:0:0:
448,192,82835,1,0,0:0:0:0:
64,192,83135,128,0,83435:0:0:0:70:LR_HiHat Synth Fast.wav
320,192,83285,1,0,0:0:0:0:
192,192,83435,128,8,83735:0:0:0:0:
448,192,83435,1,2,0:0:0:0:
448,192,83735,1,0,0:0:0:70:LR_HiHat Synth Fast.wav
320,192,83885,1,0,0:0:0:0:
448,192,84035,128,2,84335:0:0:0:0:
192,192,84035,1,0,0:0:0:0:
64,192,84035,1,0,0:0:0:0:
64,192,84335,128,0,84485:0:0:0:70:LR_HiHat Synth Fast.wav
192,192,84485,128,0,84635:0:0:0:0:
320,192,84635,1,2,0:0:0:0:
448,192,84635,128,8,84935:0:0:0:0:
64,192,84635,1,0,0:0:0:0:
192,192,84935,128,0,85085:0:0:0:70:LR_HiHat Synth Fast.wav
64,192,85085,128,0,85235:0:0:0:0:
448,192,85235,128,2,85385:0:0:0:0:
320,192,85235,1,0,0:0:0:0:
448,192,85535,128,0,85685:0:0:0:70:LR_HiHat Synth Fast.wav
320,192,85685,1,0,0:0:0:0:
448,192,85835,128,2,85985:0:0:0:0:
192,192,85835,1,8,0:0:0:0:
64,192,85835,1,0,0:0:0:0:
320,192,86135,1,0,0:0:0:70:LR_HiHat Synth Fast.wav
192,192,86285,1,0,0:0:0:0:
64,192,86435,128,2,87035:0:0:0:0:
448,192,86435,1,0,0:0:0:0:
320,192,86435,1,0,0:0:0:0:
448,192,86735,1,0,0:0:0:70:LR_HiHat Synth Fast.wav
320,192,86885,1,0,0:0:0:0:
448,192,87035,128,2,87185:0:0:0:0:
192,192,87035,1,8,0:0:0:0:
448,192,87335,128,0,87935:0:0:0:70:LR_HiHat Synth Fast.wav
320,192,87485,1,0,0:0:0:0:
192,192,87635,1,2,0:0:0:0:
64,192,87635,1,0,0:0:0:0:
64,192,87935,1,0,0:0:0:70:LR_HiHat Synth Fast.wav
192,192,88085,1,0,0:0:0:0:
320,192,88235,128,2,88535:0:0:0:0:
448,192,88235,1,8,0:0:0:0:
64,192,88535,1,0,0:0:0:70:LR_HiHat Synth Fast.wav
192,192,88685,1,0,0:0:0:0:
320,192,88835,1,2,0:0:0:0:
448,192,88835,128,0,89435:0:0:0:0:
64,192,88835,1,0,0:0:0:0:
64,192,89135,1,0,0:0:0:70:LR_HiHat Synth Fast.wav
192,192,89285,1,0,0:0:0:0:
320,192,89435,1,8,0:0:0:0:
64,192,89435,1,2,0:0:0:0:
320,192,89735,1,0,0:0:0:70:LR_HiHat Synth Fast.wav
192,192,89885,1,0,0:0:0:0:
448,192,90035,1,2,0:0:0:0:
64,192,90035,128,0,90185:0:0:0:0:
448,192,90335,1,2,0:0:0:0:
64,192,90335,128,0,90485:0:0:0:0:
192,192,90485,1,0,0:0:0:0:
320,192,90635,1,8,0:0:0:0:
64,192,90635,128,2,91235:0:0:0:0:
448,192,90635,1,0,0:0:0:0:
320,192,90935,1,0,0:0:0:0:
192,192,91085,1,0,0:0:0:0:
320,192,91235,1,2,0:0:0:0:
448,192,91235,1,0,0:0:0:0:
192,192,91535,1,0,0:0:0:70:LR_HiHat Synth Fast.wav
448,192,91835,1,8,0:0:0:0:
64,192,91835,1,2,0:0:0:0:
192,192,91835,1,0,0:0:0:0:
320,192,91985,1,0,0:0:0:0:
448,192,92135,1,0,0:0:0:70:LR_HiHat Synth Fast.wav
64,192,92435,1,2,0:0:0:0:
320,192,92435,1,0,0:0:0:0:
448,192,92735,1,0,0:0:0:70:LR_HiHat Synth Fast.wav
192,192,92735,1,0,0:0:0:0:
320,192,92885,1,0,0:0:0:0:
64,192,93035,1,8,0:0:0:0:
192,192,93035,1,2,0:0:0:0:
448,192,93035,1,0,0:0:0:0:
64,192,93335,1,0,0:0:0:70:LR_HiHat Synth Fast.wav
192,192,93335,1,0,0:0:0:0:
320,192,93635,1,2,0:0:0:0:
448,192,93635,1,0,0:0:0:0:
448,192,93935,1,0,0:0:0:70:LR_HiHat Synth Fast.wav
192,192,93935,1,0,0:0:0:0:
320,192,94085,1,0,0:0:0:0:
192,192,94235,1,2,0:0:0:0:
64,192,94235,1,8,0:0:0:0:
448,192,94235,1,0,0:0:0:0:
192,192,94535,1,0,0:0:0:70:LR_HiHat Synth Fast.wav
320,192,94535,1,0,0:0:0:0:
64,192,94835,1,2,0:0:0:0:
320,192,94835,1,0,0:0:0:0:
192,192,95135,1,0,0:0:0:70:LR_HiHat Synth Fast.wav
448,192,95135,1,0,0:0:0:0:
320,192,95285,1,0,0:0:0:0:
64,192,95435,1,2,0:0:0:0:
448,192,95435,1,8,0:0:0:0:
192,192,95435,1,0,0:0:0:0:
64,192,95735,1,0,0:0:0:70:LR_HiHat Synth Fast.wav
448,192,95735,1,0,0:0:0:0:
320,192,96035,1,2,0:0:0:0:
192,192,96035,1,0,0:0:0:0:
64,192,96035,1,0,0:0:0:0:
448,192,96335,1,0,0:0:0:70:LR_HiHat Synth Fast.wav
64,192,96635,1,2,0:0:0:0:
448,192,96635,1,8,0:0:0:0:
320,192,96635,1,0,0:0:0:0:
192,192,96785,1,0,0:0:0:0:
448,192,96935,1,0,0:0:0:70:LR_HiHat Synth Fast.wav
192,192,97085,1,0,0:0:0:0:
64,192,97235,1,2,0:0:0:0:
320,192,97235,1,0,0:0:0:0:
448,192,97535,1,0,0:0:0:70:LR_HiHat Synth Fast.wav
192,192,97535,1,0,0:0:0:0:
320,192,97685,1,0,0:0:0:0:
192,192,97835,1,2,0:0:0:0:
448,192,97835,1,8,0:0:0:0:
64,192,97835,1,0,0:0:0:0:
320,192,98135,1,0,0:0:0:70:LR_HiHat Synth Fast.wav
64,192,98135,1,0,0:0:0:0:
64,192,98435,1,2,0:0:0:0:
448,192,98435,1,0,0:0:0:0:
192,192,98435,1,0,0:0:0:0:
320,192,98735,1,0,0:0:0:70:LR_HiHat Synth Fast.wav
192,192,98885,1,0,0:0:0:0:
64,192,99035,1,8,0:0:0:0:
448,192,99035,1,2,0:0:0:0:
192,192,99335,1,0,0:0:0:70:LR_HiHat Synth Fast.wav
320,192,99635,1,2,0:0:0:0:
448,192,99635,1,0,0:0:0:0:
192,192,99935,1,0,0:0:0:70:LR_HiHat Synth Fast.wav
64,192,99935,1,0,0:0:0:0:
448,192,100235,1,8,0:0:0:0:
64,192,100235,1,2,0:0:0:0:
320,192,100535,1,0,0:0:0:70:LR_HiHat Synth Fast.wav
64,192,100685,1,0,0:0:0:0:
448,192,100835,1,0,0:0:0:0:
192,192,100910,1,0,0:0:0:0:
320,192,100985,1,0,0:0:0:0:
64,192,101060,1,0,0:0:0:0:
192,192,101135,1,0,0:0:0:0:
320,192,101210,1,0,0:0:0:0:
448,192,101285,1,0,0:0:0:0:
192,192,101360,1,0,0:0:0:0:
64,192,101435,1,0,0:0:0:0:
448,192,101510,1,0,0:0:0:0:
192,192,101585,1,0,0:0:0:0:
320,192,101660,1,0,0:0:0:0:
64,192,101735,1,0,0:0:0:0:
448,192,101810,1,0,0:0:0:0:
320,192,101885,1,0,0:0:0:0:
64,192,101960,1,0,0:0:0:0:
192,192,102035,1,0,0:0:0:0:
320,192,102110,1,0,0:0:0:0:
448,192,102185,1,0,0:0:0:0:
192,192,102260,1,0,0:0:0:0:
64,192,102335,1,0,0:0:0:0:
320,192,102410,1,0,0:0:0:0:
192,192,102485,1,0,0:0:0:0:
64,192,102560,1,0,0:0:0:0:
448,192,102635,1,0,0:0:0:0:
320,192,102710,1,0,0:0:0:0:
192,192,102785,1,0,0:0:0:0:
448,192,102860,1,0,0:0:0:0:
320,192,102935,1,0,0:0:0:0:
192,192,103010,1,0,0:0:0:0:
64,192,103085,1,0,0:0:0:0:
192,192,103235,1,2,0:0:0:0:
448,192,103235,128,0,103535:0:0:0:0:
320,192,103235,1,0,0:0:0:0:
192,192,103535,1,0,0:0:0:0:
64,192,103835,1,0,0:0:0:40:LR_Clap hollow echo.wav
448,192,103835,128,0,104135:0:0:0:0:
64,192,104135,1,2,0:0:0:0:
192,192,104135,128,0,104435:0:0:0:0:
448,192,104435,128,0,104735:0:0:0:0:
64,192,104735,1,2,0:0:0:0:
320,192,104735,128,0,105035:0:0:0:0:
192,192,104885,1,0,0:0:0:0:
64,192,105035,1,0,0:0:0:40:LR_Clap hollow echo.wav
448,192,105035,128,0,105335:0:0:0:0:
320,192,105335,1,0,0:0:0:0:
64,192,105635,1,2,0:0:0:0:
192,192,105635,128,0,105935:0:0:0:0:
448,192,105635,1,0,0:0:0:0:
448,192,106235,1,0,0:0:0:40:LR_Clap hollow echo.wav
64,192,106235,1,0,0:0:0:0:
320,192,106310,1,0,0:0:0:0:
192,192,106385,1,0,0:0:0:0:
448,192,106460,1,0,0:0:0:0:
64,192,106535,1,2,0:0:0:0:
320,192,106535,1,0,0:0:0:0:
192,192,106610,1,0,0:0:0:0:
448,192,106685,1,0,0:0:0:0:
320,192,106760,1,0,0:0:0:0:
64,192,106835,1,0,0:0:0:0:
192,192,106910,1,0,0:0:0:0:
448,192,106985,1,0,0:0:0:0:
192,192,107135,1,2,0:0:0:0:
64,192,107135,1,0,0:0:0:0:
320,192,107285,1,0,0:0:0:0:
64,192,107435,1,0,0:0:0:40:LR_Clap hollow echo.wav
448,192,107435,1,0,0:0:0:0:
320,192,107735,1,2,0:0:0:0:
448,192,107735,1,0,0:0:0:0:
192,192,108035,1,2,0:0:0:0:
448,192,108035,128,0,108335:0:0:0:0:
64,192,108035,1,0,0:0:0:0:
320,192,108335,1,0,0:0:0:0:
192,192,108485,1,0,0:0:0:0:
448,192,108635,1,0,0:0:0:40:LR_Clap hollow echo.wav
320,192,108635,128,0,108935:0:0:0:0:
192,192,108935,1,2,0:0:0:0:
64,192,108935,128,0,109160:0:0:0:0:
448,192,109235,128,0,109535:0:0:0:0:
320,192,109535,128,2,109835:0:0:0:0:
64,192,109535,1,0,0:0:0:0:
448,192,109835,1,0,0:0:0:40:LR_Clap hollow echo.wav
64,192,109835,128,0,110135:0:0:0:0:
192,192,110135,128,0,110435:0:0:0:0:
64,192,110435,1,2,0:0:0:0:
320,192,110435,1,0,0:0:0:0:
448,192,110435,128,0,110735:0:0:0:0:
64,192,111035,1,0,0:0:0:40:LR_Clap hollow echo.wav
448,192,111035,1,0,0:0:0:0:
192,192,111110,1,0,0:0:0:0:
320,192,111185,1,0,0:0:0:0:
64,192,111260,1,0,0:0:0:0:
192,192,111335,1,2,0:0:0:0:
448,192,111335,1,0,0:0:0:0:
320,192,111410,1,0,0:0:0:0:
64,192,111485,1,0,0:0:0:0:
448,192,111560,1,0,0:0:0:0:
192,192,111635,1,0,0:0:0:0:
320,192,111710,1,0,0:0:0:0:
448,192,111785,1,0,0:0:0:0:
192,192,111860,1,0,0:0:0:0:
64,192,111935,1,2,0:0:0:0:
320,192,111935,1,0,0:0:0:0:
448,192,112010,1,0,0:0:0:0:
192,192,112085,1,0,0:0:0:0:
64,192,112160,1,0,0:0:0:0:
320,192,112235,1,0,0:0:0:40:LR_Clap hollow echo.wav
448,192,112235,1,0,0:0:0:0:
192,192,112310,1,0,0:0:0:0:
64,192,112385,1,0,0:0:0:0:
320,192,112460,1,0,0:0:0:0:
64,192,112535,1,2,0:0:0:0:
448,192,112535,1,0,0:0:0:0:
192,192,112610,1,0,0:0:0:0:
320,192,112685,1,0,0:0:0:0:
448,192,112835,128,2,113135:0:0:0:0:
192,192,112835,1,0,0:0:0:0:
64,192,112835,1,0,0:0:0:0:
64,192,113135,1,0,0:0:0:0:
448,192,113435,1,0,0:0:0:40:LR_Clap hollow echo.wav
64,192,113435,128,0,113735:0:0:0:0:
192,192,113735,1,2,0:0:0:0:
320,192,113735,128,0,114035:0:0:0:0:
64,192,114035,128,0,114335:0:0:0:0:
320,192,114335,1,2,0:0:0:0:
448,192,114335,1,0,0:0:0:0:
192,192,114485,1,0,0:0:0:0:
320,192,114635,1,0,0:0:0:40:LR_Clap hollow echo.wav
448,192,114635,128,0,114935:0:0:0:0:
192,192,114935,1,0,0:0:0:0:
64,192,115235,128,2,115535:0:0:0:0:
320,192,115235,1,0,0:0:0:0:
448,192,115235,1,0,0:0:0:0:
448,192,115835,1,0,0:0:0:40:LR_Clap hollow echo.wav
64,192,115835,1,0,0:0:0:0:
192,192,115910,1,0,0:0:0:0:
320,192,115985,1,0,0:0:0:0:
64,192,116060,1,0,0:0:0:0:
192,192,116135,1,2,0:0:0:0:
448,192,116135,1,0,0:0:0:0:
320,192,116210,1,0,0:0:0:0:
64,192,116285,1,0,0:0:0:0:
192,192,116360,1,0,0:0:0:0:
448,192,116435,1,0,0:0:0:0:
320,192,116510,1,0,0:0:0:0:
64,192,116585,1,0,0:0:0:0:
448,192,116735,1,2,0:0:0:0:
192,192,116735,1,0,0:0:0:0:
320,192,116885,1,0,0:0:0:0:
64,192,117035,1,0,0:0:0:40:LR_Clap hollow echo.wav
192,192,117035,1,0,0:0:0:0:
192,192,117335,128,2,117635:0:0:0:0:
448,192,117335,1,0,0:0:0:0:
320,192,117635,1,2,0:0:0:0:
448,192,117635,1,0,0:0:0:0:
64,192,117635,128,0,117935:0:0:0:0:
192,192,117935,1,0,0:0:0:0:
320,192,118085,1,0,0:0:0:0:
448,192,118235,1,0,0:0:0:40:LR_Clap hollow echo.wav
64,192,118235,1,0,0:0:0:0:
192,192,118385,1,0,0:0:0:0:
64,192,118535,1,2,0:0:0:0:
448,192,118535,1,0,0:0:0:0:
320,192,118685,1,0,0:0:0:0:
192,192,118835,1,0,0:0:0:0:
448,192,119135,1,2,0:0:0:0:
320,192,119135,1,0,0:0:0:0:
64,192,119435,1,0,0:0:0:40:LR_Clap hollow echo.wav
448,192,119435,128,0,120035:0:0:0:0:
320,192,119735,1,0,0:0:0:0:
320,192,120035,1,2,0:0:0:0:
192,192,120035,1,0,0:0:0:0:
64,192,120035,128,0,120335:0:0:0:0:
192,192,120635,1,0,0:0:0:40:LR_Clap hollow echo.wav
448,192,120635,1,0,0:0:0:0:
320,192,120710,1,0,0:0:0:0:
64,192,120785,1,0,0:0:0:0:
192,192,120860,1,0,0:0:0:0:
448,192,120935,1,2,0:0:0:0:
320,192,120935,1,0,0:0:0:0:
64,192,121010,1,0,0:0:0:0:
192,192,121085,1,0,0:0:0:0:
320,192,121160,1,0,0:0:0:0:
64,192,121235,1,0,0:0:0:0:
192,192,121310,1,0,0:0:0:0:
448,192,121385,1,0,0:0:0:0:
320,192,121460,1,0,0:0:0:0:
192,192,121535,1,2,0:0:0:0:
64,192,121535,1,0,0:0:0:0:
448,192,121610,1,0,0:0:0:0:
320,192,121685,1,0,0:0:0:0:
64,192,121760,1,0,0:0:0:0:
192,192,121835,1,0,0:0:0:40:LR_Clap hollow echo.wav
448,192,121835,1,0,0:0:0:0:
320,192,121910,1,0,0:0:0:0:
64,192,121985,1,0,0:0:0:0:
192,192,122060,1,0,0:0:0:0:
320,192,122135,1,2,0:0:0:0:
448,192,122135,1,0,0:0:0:0:
64,192,122435,1,2,0:0:0:0:
448,192,122435,128,0,123635:0:0:0:0:
64,192,122735,128,0,123035:0:0:0:0:
192,192,123035,128,0,123335:0:0:0:40:LR_Clap hollow echo.wav
320,192,123335,128,2,123635:0:0:0:0:
64,192,123335,1,0,0:0:0:0:
64,192,123635,128,0,124235:0:0:0:0:
320,192,123935,1,2,0:0:0:0:
448,192,123935,1,0,0:0:0:0:
448,192,124235,1,0,0:0:0:40:LR_Clap hollow echo.wav
320,192,124535,1,2,0:0:0:0:
192,192,124535,1,0,0:0:0:0:
64,192,124835,1,2,0:0:0:0:
448,192,124835,128,0,126035:0:0:0:0:
192,192,125135,128,0,125435:0:0:0:0:
320,192,125435,128,0,125735:0:0:0:40:LR_Clap hollow echo.wav
64,192,125735,128,2,126035:0:0:0:0:
192,192,125735,1,0,0:0:0:0:
320,192,126035,128,0,126635:0:0:0:0:
192,192,126335,1,2,0:0:0:0:
64,192,126335,1,0,0:0:0:0:
448,192,126635,1,0,0:0:0:40:LR_Clap hollow echo.wav
192,192,126935,1,0,0:0:0:0:
448,192,127235,1,2,0:0:0:0:
64,192,127235,128,0,128435:0:0:0:0:
320,192,127535,1,0,0:0:0:0:
192,192,127835,1,0,0:0:0:40:LR_Clap hollow echo.wav
320,192,128135,1,2,0:0:0:0:
448,192,128135,1,0,0:0:0:0:
320,192,128735,1,2,0:0:0:0:
64,192,128735,1,0,0:0:0:0:
448,192,129035,1,0,0:0:0:40:LR_Clap hollow echo.wav
192,192,129335,1,2,0:0:0:0:
64,192,129335,1,0,0:0:0:0:
64,192,129635,1,2,0:0:0:0:
448,192,129635,128,0,131135:0:0:0:0:
320,192,129635,1,0,0:0:0:0:
64,192,130235,1,0,0:0:0:40:LR_Clap hollow echo.wav
192,192,130535,1,2,0:0:0:0:
320,192,130535,1,0,0:0:0:0:
192,192,131135,1,2,0:0:0:0:
64,192,131135,1,0,0:0:0:0:
448,192,131435,1,0,0:0:0:40:LR_Clap hollow echo.wav
320,192,131735,1,2,0:0:0:0:
192,192,131735,1,0,0:0:0:0:
64,192,132035,1,2,0:0:0:0:
448,192,132035,1,0,0:0:0:30:LR_Snare Drum .wav
192,192,132335,1,0,0:0:0:30:LR_Snare Drum .wav
320,192,132335,128,0,132635:0:0:0:0:
64,192,132635,1,0,0:0:0:40:LR_Clap hollow echo.wav
448,192,132635,128,0,132935:0:0:0:30:LR_Snare Drum .wav
192,192,132935,1,2,0:0:0:0:
320,192,132935,128,0,133235:0:0:0:30:LR_Snare Drum .wav
64,192,133235,1,0,0:0:0:30:LR_Snare Drum .wav
448,192,133235,128,0,133835:0:0:0:0:
192,192,133535,1,2,0:0:0:0:
320,192,133535,1,0,0:0:0:30:LR_Snare Drum .wav
64,192,133835,1,0,0:0:0:40:LR_Clap hollow echo.wav
320,192,133835,1,0,0:0:0:30:LR_Snare Drum .wav
448,192,134135,1,0,0:0:0:30:LR_Snare Drum .wav
192,192,134135,1,0,0:0:0:0:
448,192,134435,1,2,0:0:0:0:
64,192,134435,1,0,0:0:0:40:LR_Snare Drum .wav
320,192,134735,1,0,0:0:0:40:LR_Snare Drum .wav
192,192,134735,128,0,135035:0:0:0:0:
448,192,135035,1,0,0:0:0:40:LR_Clap hollow echo.wav
64,192,135035,128,0,135335:0:0:0:40:LR_Snare Drum .wav
320,192,135335,1,2,0:0:0:0:
192,192,135335,128,0,135635:0:0:0:40:LR_Snare Drum .wav
448,192,135635,1,0,0:0:0:40:LR_Snare Drum .wav
64,192,135635,128,0,136235:0:0:0:0:
320,192,135935,1,2,0:0:0:0:
192,192,135935,1,0,0:0:0:40:LR_Snare Drum .wav
448,192,136235,1,0,0:0:0:40:LR_Clap hollow echo.wav
192,192,136235,1,0,0:0:0:40:LR_Snare Drum .wav
64,192,136535,1,2,0:0:0:0:
320,192,136535,1,0,0:0:0:40:LR_Snare Drum .wav
448,192,136835,1,2,0:0:0:0:
64,192,136835,1,0,0:0:0:30:LR_Snare Drum .wav
192,192,136935,1,0,0:0:0:30:LR_Snare Drum .wav
320,192,137035,1,0,0:0:0:30:LR_Snare Drum .wav
448,192,137135,1,0,0:0:0:30:LR_Snare Drum .wav
64,192,137235,1,0,0:0:0:30:LR_Snare Drum .wav
192,192,137335,1,0,0:0:0:30:LR_Snare Drum .wav
448,192,137435,1,0,0:0:0:40:LR_Clap hollow echo.wav
320,192,137535,1,0,0:0:0:30:LR_Snare Drum .wav
64,192,137635,1,0,0:0:0:30:LR_Snare Drum .wav
448,192,137735,1,2,0:0:0:0:
192,192,137735,1,0,0:0:0:30:LR_Snare Drum .wav
320,192,137835,1,0,0:0:0:30:LR_Snare Drum .wav
64,192,137935,1,0,0:0:0:30:LR_Snare Drum .wav
192,192,138035,1,0,0:0:0:30:LR_Snare Drum .wav
320,192,138135,1,0,0:0:0:30:LR_Snare Drum .wav
64,192,138235,1,0,0:0:0:30:LR_Snare Drum .wav
448,192,138335,1,2,0:0:0:0:
192,192,138335,1,0,0:0:0:30:LR_Snare Drum .wav
320,192,138435,1,0,0:0:0:30:LR_Snare Drum .wav
64,192,138535,1,0,0:0:0:30:LR_Snare Drum .wav
320,192,138635,1,0,0:0:0:40:LR_Clap hollow echo.wav
448,192,138735,1,0,0:0:0:30:LR_Snare Drum .wav
64,192,138835,1,0,0:0:0:30:LR_Snare Drum .wav
320,192,138935,1,0,0:0:0:30:LR_Snare Drum .wav
192,192,138935,1,0,0:0:0:0:
448,192,139035,1,0,0:0:0:30:LR_Snare Drum .wav
64,192,139135,1,0,0:0:0:30:LR_Snare Drum .wav
448,192,139235,1,2,0:0:0:0:
320,192,139235,1,0,0:0:0:30:LR_Snare Drum .wav
64,192,139335,1,0,0:0:0:30:LR_Snare Drum .wav
192,192,139435,1,0,0:0:0:30:LR_Snare Drum .wav
448,192,139535,1,0,0:0:0:30:LR_Snare Drum .wav
320,192,139535,1,0,0:0:0:0:
64,192,139635,1,0,0:0:0:30:LR_Snare Drum .wav
192,192,139735,1,0,0:0:0:30:LR_Snare Drum .wav
448,192,139835,1,0,0:0:0:40:LR_Clap hollow echo.wav
320,192,139835,1,0,0:0:0:30:LR_Snare Drum .wav
192,192,139935,1,0,0:0:0:30:LR_Snare Drum .wav
64,192,140035,1,0,0:0:0:30:LR_Snare Drum .wav
448,192,140135,1,2,0:0:0:0:
320,192,140135,1,0,0:0:0:30:LR_Snare Drum .wav
192,192,140235,1,0,0:0:0:30:LR_Snare Drum .wav
64,192,140335,1,0,0:0:0:30:LR_Snare Drum .wav
448,192,140435,1,0,0:0:0:30:LR_Snare Drum .wav
320,192,140435,1,0,0:0:0:0:
192,192,140535,1,0,0:0:0:30:LR_Snare Drum .wav
320,192,140635,1,0,0:0:0:30:LR_Snare Drum .wav
448,192,140735,1,2,0:0:0:0:
64,192,140735,1,0,0:0:0:30:LR_Snare Drum .wav
448,192,141035,1,0,0:0:0:70:LR_Snare Drum .wav
64,192,141035,1,0,0:0:0:0:
64,192,144035,1,0,0:0:0:0:
448,192,144035,1,0,0:0:0:0:
320,192,144335,1,0,0:0:0:0:
192,192,144935,1,0,0:0:0:0:
320,192,145535,1,0,0:0:0:0:
192,192,146135,1,0,0:0:0:0:
448,192,146435,1,0,0:0:0:0:
64,192,146435,1,0,0:0:0:0:
320,192,146735,1,0,0:0:0:0:
64,192,147335,1,0,0:0:0:0:
320,192,147935,1,0,0:0:0:0:
64,192,148535,1,0,0:0:0:0:
448,192,148835,1,0,0:0:0:0:
192,192,148835,1,0,0:0:0:0:
64,192,149135,1,0,0:0:0:0:
320,192,149735,1,0,0:0:0:0:
64,192,150335,1,0,0:0:0:0:
320,192,150935,1,0,0:0:0:0:
64,192,151235,1,0,0:0:0:0:
448,192,151235,1,0,0:0:0:0:
192,192,151535,1,0,0:0:0:0:
448,192,152135,1,0,0:0:0:0:
192,192,152735,1,0,0:0:0:0:
448,192,153335,1,0,0:0:0:0:
64,192,153635,1,0,0:0:0:0:
320,192,153635,1,0,0:0:0:0:
448,192,153935,1,0,0:0:0:0:
192,192,154235,1,0,0:0:0:40:LR_Clap hollow echo.wav
64,192,154235,1,0,0:0:0:0:
448,192,154535,1,0,0:0:0:0:
64,192,155135,1,0,0:0:0:0:
448,192,155435,1,0,0:0:0:40:LR_Clap hollow echo.wav
320,192,155435,1,0,0:0:0:0:
64,192,155735,1,0,0:0:0:0:
448,192,156035,1,0,0:0:0:0:
192,192,156035,1,0,0:0:0:0:
320,192,156335,1,0,0:0:0:0:
192,192,156635,1,0,0:0:0:40:LR_Clap hollow echo.wav
64,192,156635,1,0,0:0:0:0:
320,192,156935,1,0,0:0:0:0:
192,192,157535,1,0,0:0:0:0:
320,192,157835,1,0,0:0:0:40:LR_Clap hollow echo.wav
448,192,157835,1,0,0:0:0:0:
192,192,158135,1,0,0:0:0:0:
64,192,158435,1,0,0:0:0:0:
448,192,158435,1,0,0:0:0:0:
320,192,158735,1,0,0:0:0:0:
448,192,159035,1,0,0:0:0:40:LR_Clap hollow echo.wav
64,192,159035,1,0,0:0:0:0:
192,192,159335,1,0,0:0:0:0:
192,192,159935,1,0,0:0:0:0:
448,192,160235,1,0,0:0:0:40:LR_Clap hollow echo.wav
64,192,160235,1,0,0:0:0:0:
192,192,160535,1,0,0:0:0:0:
64,192,160835,1,0,0:0:0:0:
448,192,160835,1,0,0:0:0:0:
320,192,161135,1,0,0:0:0:0:
64,192,161435,1,0,0:0:0:40:LR_Clap hollow echo.wav
192,192,161435,1,0,0:0:0:0:
448,192,161735,1,0,0:0:0:0:
448,192,162335,1,0,0:0:0:0:
64,192,162635,1,0,0:0:0:40:LR_Clap hollow echo.wav
192,192,162635,1,0,0:0:0:0:
448,192,162935,1,0,0:0:0:0:
64,192,163235,1,0,0:0:0:0:
320,192,163235,1,0,0:0:0:0:
192,192,163535,1,0,0:0:0:0:
448,192,163535,1,0,0:0:0:0:
320,192,163685,1,0,0:0:0:0:
64,192,163835,1,0,0:0:0:0:
320,192,163985,1,0,0:0:0:0:
448,192,164135,1,0,0:0:0:0:
192,192,164135,1,0,0:0:0:0:
64,192,164435,1,0,0:0:0:0:
320,192,164735,1,0,0:0:0:0:
64,192,164735,1,0,0:0:0:0:
448,192,164885,1,0,0:0:0:0:
192,192,165035,1,0,0:0:0:0:
192,192,165335,1,0,0:0:0:0:
448,192,165335,1,0,0:0:0:0:
320,192,165635,1,0,0:0:0:0:
448,192,165635,1,0,0:0:0:0:
64,192,165785,1,0,0:0:0:0:
448,192,165935,1,0,0:0:0:0:
192,192,165935,1,0,0:0:0:0:
64,192,166085,1,0,0:0:0:0:
448,192,166235,1,0,0:0:0:0:
320,192,166235,1,0,0:0:0:0:
320,192,166535,1,0,0:0:0:0:
64,192,166535,1,0,0:0:0:0:
192,192,166835,1,0,0:0:0:0:
448,192,167135,1,0,0:0:0:0:
192,192,167135,1,0,0:0:0:0:
64,192,167285,1,0,0:0:0:0:
320,192,167435,1,0,0:0:0:0:
64,192,167735,1,0,0:0:0:0:
192,192,167735,1,0,0:0:0:0:
448,192,168035,1,0,0:0:0:0:
64,192,168335,1,0,0:0:0:0:
320,192,168335,1,0,0:0:0:0:
192,192,168485,1,0,0:0:0:0:
448,192,168635,1,0,0:0:0:0:
192,192,168785,1,0,0:0:0:0:
320,192,168935,1,0,0:0:0:0:
64,192,168935,1,0,0:0:0:0:
448,192,169235,1,0,0:0:0:0:
192,192,169535,1,0,0:0:0:0:
448,192,169535,1,0,0:0:0:0:
64,192,169685,1,0,0:0:0:0:
320,192,169835,1,0,0:0:0:0:
64,192,170135,1,0,0:0:0:0:
320,192,170135,1,0,0:0:0:0:
448,192,170435,1,0,0:0:0:0:
192,192,170435,1,0,0:0:0:0:
64,192,170585,1,0,0:0:0:0:
320,192,170735,1,0,0:0:0:0:
448,192,170735,1,0,0:0:0:0:
64,192,170885,1,0,0:0:0:0:
192,192,171035,1,0,0:0:0:0:
448,192,171035,1,0,0:0:0:0:
320,192,171335,1,0,0:0:0:0:
64,192,171335,128,0,171935:0:0:0:0:
192,192,171635,128,0,171935:0:0:0:0:
320,192,171935,128,0,172235:0:0:0:0:
448,192,171935,128,0,172535:0:0:0:0:
64,192,172235,128,0,172685:0:0:0:0:
192,192,172235,128,0,172535:0:0:0:0:
320,192,172535,128,0,172685:0:0:0:0:
192,192,172685,128,0,172835:0:0:0:0:
64,192,172835,1,2,0:0:0:0:
448,192,172835,1,0,0:0:0:0:
320,192,172835,128,0,173135:0:0:0:0:
448,192,173135,1,0,0:0:0:70:LR_HiHat Synth Fast.wav
192,192,173135,1,0,0:0:0:0:
192,192,173285,1,0,0:0:0:0:
64,192,173435,1,2,0:0:0:0:
448,192,173435,1,8,0:0:0:0:
320,192,173435,1,0,0:0:0:0:
64,192,173735,1,0,0:0:0:70:LR_HiHat Synth Fast.wav
320,192,173735,1,0,0:0:0:0:
320,192,173885,1,0,0:0:0:0:
64,192,174035,1,2,0:0:0:0:
192,192,174035,1,0,0:0:0:0:
448,192,174185,1,0,0:0:0:0:
192,192,174335,1,0,0:0:0:70:LR_HiHat Synth Fast.wav
448,192,174335,1,0,0:0:0:0:
320,192,174635,1,2,0:0:0:0:
448,192,174635,1,8,0:0:0:0:
64,192,174635,1,0,0:0:0:0:
192,192,174935,1,0,0:0:0:70:LR_HiHat Synth Fast.wav
320,192,174935,1,0,0:0:0:0:
64,192,175235,1,2,0:0:0:0:
192,192,175235,1,0,0:0:0:0:
448,192,175235,128,0,175535:0:0:0:0:
320,192,175535,1,0,0:0:0:70:LR_HiHat Synth Fast.wav
64,192,175535,1,0,0:0:0:0:
64,192,175835,1,8,0:0:0:0:
192,192,175835,1,2,0:0:0:0:
448,192,175835,1,0,0:0:0:0:
192,192,176135,1,0,0:0:0:70:LR_HiHat Synth Fast.wav
448,192,176135,1,0,0:0:0:0:
192,192,176285,1,0,0:0:0:0:
448,192,176435,1,2,0:0:0:0:
320,192,176435,1,0,0:0:0:0:
64,192,176585,1,0,0:0:0:0:
64,192,176735,1,0,0:0:0:70:LR_HiHat Synth Fast.wav
320,192,176735,1,0,0:0:0:0:
192,192,177035,1,8,0:0:0:0:
64,192,177035,1,2,0:0:0:0:
448,192,177035,1,0,0:0:0:0:
320,192,177335,1,0,0:0:0:70:LR_HiHat Synth Fast.wav
192,192,177335,1,0,0:0:0:0:
320,192,177635,1,2,0:0:0:0:
448,192,177635,1,0,0:0:0:0:
64,192,177635,128,0,177935:0:0:0:0:
448,192,177935,1,0,0:0:0:70:LR_HiHat Synth Fast.wav
192,192,177935,1,0,0:0:0:0:
320,192,178235,1,2,0:0:0:0:
448,192,178235,1,8,0:0:0:0:
64,192,178235,1,0,0:0:0:0:
64,192,178535,1,0,0:0:0:70:LR_HiHat Synth Fast.wav
320,192,178535,1,0,0:0:0:0:
320,192,178685,1,0,0:0:0:0:
64,192,178835,1,2,0:0:0:0:
192,192,178835,1,0,0:0:0:0:
448,192,178985,1,0,0:0:0:0:
448,192,179135,1,0,0:0:0:70:LR_HiHat Synth Fast.wav
192,192,179135,1,0,0:0:0:0:
64,192,179435,1,2,0:0:0:0:
320,192,179435,1,8,0:0:0:0:
448,192,179435,1,0,0:0:0:0:
192,192,179735,1,0,0:0:0:70:LR_HiHat Synth Fast.wav
320,192,179735,1,0,0:0:0:0:
192,192,180035,1,2,0:0:0:0:
64,192,180035,1,0,0:0:0:0:
448,192,180035,128,0,180335:0:0:0:0:
320,192,180335,1,0,0:0:0:70:LR_HiHat Synth Fast.wav
64,192,180335,1,0,0:0:0:0:
192,192,180485,1,0,0:0:0:0:
448,192,180635,1,8,0:0:0:0:
320,192,180635,1,2,0:0:0:0:
64,192,180635,1,0,0:0:0:0:
448,192,180935,1,0,0:0:0:70:LR_HiHat Synth Fast.wav
192,192,180935,1,0,0:0:0:0:
320,192,181085,1,0,0:0:0:0:
448,192,181235,1,2,0:0:0:0:
192,192,181235,128,0,181535:0:0:0:0:
64,192,181535,1,0,0:0:0:70:LR_HiHat Synth Fast.wav
320,192,181535,1,0,0:0:0:0:
192,192,181835,1,8,0:0:0:0:
448,192,181835,1,2,0:0:0:0:
64,192,181835,128,0,182135:0:0:0:0:
320,192,182135,1,0,0:0:0:70:LR_HiHat Synth Fast.wav
448,192,182135,1,0,0:0:0:0:
192,192,182285,1,0,0:0:0:0:
64,192,182435,1,2,0:0:0:0:
320,192,182435,1,0,0:0:0:0:
448,192,182435,1,0,0:0:0:0:
320,192,182585,1,0,0:0:0:0:
64,192,182735,1,0,0:0:0:70:LR_HiHat Synth Fast.wav
448,192,182735,1,0,0:0:0:0:
192,192,182885,1,0,0:0:0:0:
448,192,183035,1,2,0:0:0:0:
64,192,183035,1,8,0:0:0:0:
192,192,183035,1,0,0:0:0:0:
448,192,183185,1,0,0:0:0:0:
64,192,183335,1,0,0:0:0:70:LR_HiHat Synth Fast.wav
320,192,183335,1,0,0:0:0:0:
192,192,183485,1,0,0:0:0:0:
192,192,183635,1,2,0:0:0:0:
448,192,183635,1,0,0:0:0:0:
320,192,183785,1,0,0:0:0:0:
192,192,183935,1,0,0:0:0:70:LR_HiHat Synth Fast.wav
64,192,183935,1,0,0:0:0:0:
64,192,184085,1,0,0:0:0:0:
192,192,184235,1,2,0:0:0:0:
320,192,184235,1,8,0:0:0:0:
448,192,184235,1,0,0:0:0:0:
64,192,184385,1,0,0:0:0:0:
448,192,184535,1,0,0:0:0:70:LR_HiHat Synth Fast.wav
320,192,184535,1,0,0:0:0:0:
192,192,184685,1,0,0:0:0:0:
64,192,184835,1,2,0:0:0:0:
320,192,184835,1,0,0:0:0:0:
448,192,184835,1,0,0:0:0:0:
64,192,184985,1,0,0:0:0:0:
192,192,185135,1,0,0:0:0:70:LR_HiHat Synth Fast.wav
448,192,185135,1,0,0:0:0:0:
448,192,185285,1,0,0:0:0:0:
64,192,185435,1,8,0:0:0:0:
320,192,185435,1,2,0:0:0:0:
192,192,185435,1,0,0:0:0:0:
192,192,185585,1,0,0:0:0:0:
448,192,185735,1,0,0:0:0:70:LR_HiHat Synth Fast.wav
320,192,185735,1,0,0:0:0:0:
320,192,185885,1,0,0:0:0:0:
64,192,186035,1,2,0:0:0:0:
192,192,186035,1,0,0:0:0:0:
192,192,186185,1,0,0:0:0:0:
320,192,186335,1,0,0:0:0:70:LR_HiHat Synth Fast.wav
448,192,186335,1,0,0:0:0:0:
448,192,186485,1,0,0:0:0:0:
64,192,186635,1,8,0:0:0:0:
320,192,186635,1,2,0:0:0:0:
192,192,186635,1,0,0:0:0:0:
64,192,186785,1,0,0:0:0:0:
448,192,186935,1,0,0:0:0:70:LR_HiHat Synth Fast.wav
192,192,186935,1,0,0:0:0:0:
448,192,187085,1,0,0:0:0:0:
64,192,187235,1,2,0:0:0:0:
320,192,187235,1,0,0:0:0:0:
192,192,187235,1,0,0:0:0:0:
64,192,187385,1,0,0:0:0:0:
192,192,187535,1,0,0:0:0:70:LR_HiHat Synth Fast.wav
448,192,187535,1,0,0:0:0:0:
320,192,187685,1,0,0:0:0:0:
64,192,187835,1,2,0:0:0:0:
448,192,187835,1,8,0:0:0:0:
320,192,187835,1,0,0:0:0:0:
192,192,187985,1,0,0:0:0:0:
448,192,188135,1,0,0:0:0:70:LR_HiHat Synth Fast.wav
64,192,188135,1,0,0:0:0:0:
448,192,188285,1,0,0:0:0:0:
320,192,188435,1,2,0:0:0:0:
64,192,188435,1,0,0:0:0:0:
320,192,188585,1,0,0:0:0:0:
192,192,188735,1,0,0:0:0:70:LR_HiHat Synth Fast.wav
448,192,188735,1,0,0:0:0:0:
64,192,188885,1,0,0:0:0:0:
448,192,189035,1,2,0:0:0:0:
64,192,189035,1,8,0:0:0:0:
320,192,189035,1,0,0:0:0:0:
192,192,189185,1,0,0:0:0:0:
448,192,189335,1,0,0:0:0:70:LR_HiHat Synth Fast.wav
320,192,189335,1,0,0:0:0:0:
192,192,189485,1,0,0:0:0:0:
320,192,189635,1,2,0:0:0:0:
448,192,189635,1,0,0:0:0:0:
64,192,189635,1,0,0:0:0:0:
192,192,189785,1,0,0:0:0:0:
448,192,189935,1,0,0:0:0:70:LR_HiHat Synth Fast.wav
64,192,189935,1,0,0:0:0:0:
320,192,190085,1,0,0:0:0:0:
64,192,190235,1,8,0:0:0:0:
448,192,190235,1,2,0:0:0:0:
192,192,190235,1,0,0:0:0:0:
320,192,190385,1,0,0:0:0:0:
192,192,190535,1,0,0:0:0:70:LR_HiHat Synth Fast.wav
64,192,190535,1,0,0:0:0:0:
448,192,190685,1,0,0:0:0:0:
64,192,190835,1,2,0:0:0:0:
320,192,190835,1,0,0:0:0:0:
192,192,190985,1,0,0:0:0:0:
448,192,191135,1,2,0:0:0:0:
320,192,191135,1,0,0:0:0:0:
192,192,191285,1,0,0:0:0:0:
320,192,191435,1,8,0:0:0:0:
448,192,191435,1,2,0:0:0:0:
64,192,191435,1,0,0:0:0:0:
192,192,191585,1,0,0:0:0:0:
448,192,191735,1,0,0:0:0:0:
64,192,191735,1,0,0:0:0:0:
320,192,191885,1,0,0:0:0:0:
448,192,192035,1,2,0:0:0:0:
192,192,192035,1,0,0:0:0:0:
64,192,192035,1,0,0:0:0:0:
64,192,192335,1,0,0:0:0:70:LR_HiHat Synth Fast.wav
448,192,192335,1,0,0:0:0:0:
192,192,192410,1,0,0:0:0:0:
320,192,192485,1,0,0:0:0:0:
192,192,192635,1,2,0:0:0:0:
64,192,192635,1,8,0:0:0:0:
448,192,192635,1,0,0:0:0:0:
448,192,192935,1,0,0:0:0:70:LR_HiHat Synth Fast.wav
192,192,192935,1,0,0:0:0:0:
64,192,193010,1,0,0:0:0:0:
320,192,193085,1,0,0:0:0:0:
192,192,193235,1,2,0:0:0:0:
448,192,193235,1,0,0:0:0:0:
64,192,193535,1,0,0:0:0:70:LR_HiHat Synth Fast.wav
320,192,193535,1,0,0:0:0:0:
448,192,193610,1,0,0:0:0:0:
192,192,193685,1,0,0:0:0:0:
448,192,193835,1,2,0:0:0:0:
320,192,193835,1,8,0:0:0:0:
64,192,193835,1,0,0:0:0:0:
192,192,194135,1,0,0:0:0:70:LR_HiHat Synth Fast.wav
448,192,194135,1,0,0:0:0:0:
320,192,194210,1,0,0:0:0:0:
64,192,194285,1,0,0:0:0:0:
320,192,194435,1,2,0:0:0:0:
448,192,194435,1,0,0:0:0:0:
192,192,194435,1,0,0:0:0:0:
192,192,194735,1,0,0:0:0:70:LR_HiHat Synth Fast.wav
448,192,194735,1,0,0:0:0:0:
64,192,194810,1,0,0:0:0:0:
320,192,194885,1,0,0:0:0:0:
64,192,195035,1,8,0:0:0:0:
192,192,195035,1,2,0:0:0:0:
448,192,195035,1,0,0:0:0:0:
320,192,195335,1,0,0:0:0:70:LR_HiHat Synth Fast.wav
64,192,195335,1,0,0:0:0:0:
448,192,195410,1,0,0:0:0:0:
192,192,195485,1,0,0:0:0:0:
320,192,195635,1,2,0:0:0:0:
448,192,195635,1,0,0:0:0:0:
64,192,195935,1,0,0:0:0:70:LR_HiHat Synth Fast.wav
448,192,195935,1,0,0:0:0:0:
320,192,196010,1,0,0:0:0:0:
192,192,196085,1,0,0:0:0:0:
64,192,196235,1,8,0:0:0:0:
448,192,196235,1,2,0:0:0:0:
320,192,196235,1,0,0:0:0:0:
64,192,196535,1,0,0:0:0:70:LR_HiHat Synth Fast.wav
448,192,196535,1,0,0:0:0:0:
192,192,196610,1,0,0:0:0:0:
320,192,196685,1,0,0:0:0:0:
192,192,196835,1,2,0:0:0:0:
64,192,196835,128,0,197135:0:0:0:0:
448,192,196835,1,0,0:0:0:0:
448,192,197135,128,0,197435:0:0:0:70:LR_HiHat Synth Fast.wav
320,192,197135,1,0,0:0:0:0:
192,192,197285,1,0,0:0:0:0:
64,192,197435,128,2,197735:0:0:0:0:
320,192,197435,1,8,0:0:0:0:
192,192,197435,1,0,0:0:0:0:
192,192,197735,1,0,0:0:0:70:LR_HiHat Synth Fast.wav
448,192,197735,128,0,198035:0:0:0:0:
320,192,197885,1,0,0:0:0:0:
192,192,198035,128,2,198335:0:0:0:0:
64,192,198035,1,0,0:0:0:0:
448,192,198335,1,0,0:0:0:70:LR_HiHat Synth Fast.wav
320,192,198335,128,0,198635:0:0:0:0:
64,192,198485,1,0,0:0:0:0:
64,192,198635,1,2,0:0:0:0:
192,192,198635,128,8,198935:0:0:0:0:
448,192,198635,1,0,0:0:0:0:
320,192,198935,128,0,199235:0:0:0:70:LR_HiHat Synth Fast.wav
448,192,198935,1,0,0:0:0:0:
64,192,199085,1,0,0:0:0:0:
192,192,199235,128,2,199535:0:0:0:0:
448,192,199235,1,0,0:0:0:0:
64,192,199535,128,0,199835:0:0:0:70:LR_HiHat Synth Fast.wav
320,192,199535,1,0,0:0:0:0:
448,192,199685,1,0,0:0:0:0:
192,192,199835,128,8,200135:0:0:0:0:
448,192,199835,1,2,0:0:0:0:
320,192,199835,1,0,0:0:0:0:
64,192,200135,1,0,0:0:0:70:LR_HiHat Synth Fast.wav
320,192,200135,128,0,200435:0:0:0:0:
64,192,200285,1,0,0:0:0:0:
448,192,200435,1,2,0:0:0:0:
192,192,200435,1,0,0:0:0:0:
64,192,200510,1,0,0:0:0:0:
320,192,200585,1,0,0:0:0:0:
64,192,200735,1,0,0:0:0:70:LR_HiHat Synth Fast.wav
448,192,200735,1,0,0:0:0:0:
192,192,200885,1,0,0:0:0:0:
448,192,200960,1,0,0:0:0:0:
64,192,201035,1,8,0:0:0:0:
192,192,201035,1,2,0:0:0:0:
320,192,201035,1,0,0:0:0:0:
448,192,201185,1,0,0:0:0:0:
64,192,201260,1,0,0:0:0:0:
192,192,201335,128,0,201635:0:0:0:70:LR_HiHat Synth Fast.wav
64,192,201635,1,2,0:0:0:0:
320,192,201635,1,0,0:0:0:0:
448,192,201635,1,0,0:0:0:0:
320,192,201785,1,0,0:0:0:0:
64,192,201935,1,0,0:0:0:70:LR_HiHat Synth Fast.wav
448,192,201935,1,0,0:0:0:0:
192,192,202085,1,0,0:0:0:0:
448,192,202235,1,2,0:0:0:0:
64,192,202235,1,8,0:0:0:0:
192,192,202235,1,0,0:0:0:0:
448,192,202385,1,0,0:0:0:0:
64,192,202535,1,0,0:0:0:70:LR_HiHat Synth Fast.wav
320,192,202535,1,0,0:0:0:0:
192,192,202685,1,0,0:0:0:0:
192,192,202835,1,2,0:0:0:0:
448,192,202835,1,0,0:0:0:0:
320,192,202985,1,0,0:0:0:0:
192,192,203135,1,0,0:0:0:70:LR_HiHat Synth Fast.wav
64,192,203135,1,0,0:0:0:0:
64,192,203285,1,0,0:0:0:0:
192,192,203435,1,2,0:0:0:0:
320,192,203435,1,8,0:0:0:0:
448,192,203435,1,0,0:0:0:0:
64,192,203585,1,0,0:0:0:0:
448,192,203735,1,0,0:0:0:70:LR_HiHat Synth Fast.wav
320,192,203735,1,0,0:0:0:0:
192,192,203885,1,0,0:0:0:0:
64,192,204035,1,2,0:0:0:0:
320,192,204035,1,0,0:0:0:0:
448,192,204035,1,0,0:0:0:0:
64,192,204185,1,0,0:0:0:0:
192,192,204335,1,0,0:0:0:70:LR_HiHat Synth Fast.wav
448,192,204335,1,0,0:0:0:0:
448,192,204485,1,0,0:0:0:0:
64,192,204635,1,8,0:0:0:0:
320,192,204635,1,2,0:0:0:0:
192,192,204635,1,0,0:0:0:0:
192,192,204785,1,0,0:0:0:0:
448,192,204935,1,0,0:0:0:70:LR_HiHat Synth Fast.wav
320,192,204935,1,0,0:0:0:0:
448,192,205085,1,0,0:0:0:0:
64,192,205235,1,2,0:0:0:0:
320,192,205235,1,0,0:0:0:0:
320,192,205385,1,0,0:0:0:0:
192,192,205535,1,0,0:0:0:70:LR_HiHat Synth Fast.wav
448,192,205535,1,0,0:0:0:0:
192,192,205685,1,0,0:0:0:0:
64,192,205835,1,8,0:0:0:0:
448,192,205835,1,2,0:0:0:0:
320,192,205835,1,0,0:0:0:0:
64,192,205985,1,0,0:0:0:0:
320,192,206060,1,0,0:0:0:0:
448,192,206135,1,0,0:0:0:70:LR_HiHat Synth Fast.wav
448,192,206285,1,0,0:0:0:0:
64,192,206435,1,2,0:0:0:0:
320,192,206435,1,0,0:0:0:0:
192,192,206435,1,0,0:0:0:0:
64,192,206585,1,0,0:0:0:0:
192,192,206735,1,0,0:0:0:70:LR_HiHat Synth Fast.wav
448,192,206735,1,0,0:0:0:0:
320,192,206885,1,0,0:0:0:0:
64,192,207035,1,2,0:0:0:0:
448,192,207035,1,8,0:0:0:0:
320,192,207035,1,0,0:0:0:0:
192,192,207185,1,0,0:0:0:0:
448,192,207335,1,0,0:0:0:70:LR_HiHat Synth Fast.wav
64,192,207335,1,0,0:0:0:0:
448,192,207485,1,0,0:0:0:0:
320,192,207635,1,2,0:0:0:0:
64,192,207635,1,0,0:0:0:0:
320,192,207785,1,0,0:0:0:0:
192,192,207935,1,0,0:0:0:70:LR_HiHat Synth Fast.wav
448,192,207935,1,0,0:0:0:0:
64,192,208085,1,0,0:0:0:0:
448,192,208235,1,2,0:0:0:0:
64,192,208235,1,8,0:0:0:0:
320,192,208235,1,0,0:0:0:0:
192,192,208385,1,0,0:0:0:0:
448,192,208535,1,0,0:0:0:70:LR_HiHat Synth Fast.wav
320,192,208535,1,0,0:0:0:0:
192,192,208685,1,0,0:0:0:0:
320,192,208835,1,2,0:0:0:0:
448,192,208835,1,0,0:0:0:0:
64,192,208835,1,0,0:0:0:0:
192,192,208985,1,0,0:0:0:0:
448,192,209135,1,0,0:0:0:70:LR_HiHat Synth Fast.wav
64,192,209135,1,0,0:0:0:0:
320,192,209285,1,0,0:0:0:0:
64,192,209435,1,8,0:0:0:0:
448,192,209435,1,2,0:0:0:0:
192,192,209435,1,0,0:0:0:0:
320,192,209585,1,0,0:0:0:0:
192,192,209735,1,0,0:0:0:70:LR_HiHat Synth Fast.wav
64,192,209735,1,0,0:0:0:0:
448,192,209885,1,0,0:0:0:0:
64,192,210035,128,2,211235:0:0:0:0:
320,192,210035,128,0,210335:0:0:0:0:
192,192,210335,128,0,210635:0:0:0:70:LR_HiHat Synth Fast.wav
448,192,210635,128,8,211235:0:0:0:0:
320,192,210635,128,2,210935:0:0:0:0:
192,192,210935,128,0,211235:0:0:0:70:LR_HiHat Synth Fast.wav
