osu file format v14

[General]
AudioFilename: audio.mp3
AudioLeadIn: 0
PreviewTime: 70800
Countdown: 0
SampleSet: Drum
StackLeniency: 0.7
Mode: 3
LetterboxInBreaks: 0
SpecialStyle: 0
WidescreenStoryboard: 1

[Editor]
Bookmarks: 91500,103200,144000,172800
DistanceSpacing: 1
BeatDivisor: 8
GridSize: 4
TimelineZoom: 0.9999998

[Metadata]
Title:Mang Zhong
TitleUnicode:芒种
Artist:Hanser
ArtistUnicode:Hanser
Creator:Seiran-
Version:FLeVI's Easy
Source:
Tags:cpop c-pop 腾格尔 殇小谨 音阙诗听 赵方婧 梦幻西游 Drum-Hitnormal dudehacker FLeVI Chinese pop female vocal cover the 24 solar terms
BeatmapID:2811766
BeatmapSetID:1341498

[Difficulty]
HPDrainRate:7
CircleSize:4
OverallDifficulty:7
ApproachRate:5
SliderMultiplier:1.4
SliderTickRate:1

[Events]
//Background and Video events
0,0,"bg summer.jpg",0,0
//Break Periods
//Storyboard Layer 0 (Background)
//Storyboard Layer 1 (Fail)
//Storyboard Layer 2 (Pass)
//Storyboard Layer 3 (Foreground)
//Storyboard Layer 4 (Overlay)
//Storyboard Sound Samples
Sample,63300,0,"LR_Snare Drum .wav",30
Sample,63300,0,"LR_Snare Drum .wav",30
Sample,63335,0,"LR_Snare Drum .wav",30
Sample,65100,0,"LR_Snare Drum .wav",40
Sample,65100,0,"LR_Snare Drum .wav",40
Sample,65135,0,"LR_Snare Drum .wav",40
Sample,65700,0,"LR_Snare Drum .wav",40
Sample,65700,0,"LR_Snare Drum .wav",40
Sample,65735,0,"LR_Snare Drum .wav",40
Sample,67250,0,"LR_Snare Drum .wav",30
Sample,67250,0,"LR_Snare Drum .wav",30
Sample,67285,0,"LR_Snare Drum .wav",30
Sample,67300,0,"LR_Snare Drum .wav",30
Sample,67300,0,"LR_Snare Drum .wav",30
Sample,67335,0,"LR_Snare Drum .wav",30
Sample,67400,0,"LR_Snare Drum .wav",30
Sample,67400,0,"LR_Snare Drum .wav",30
Sample,67435,0,"LR_Snare Drum .wav",30
Sample,67500,0,"LR_Snare Drum .wav",30
Sample,67500,0,"LR_Snare Drum .wav",30
Sample,67535,0,"LR_Snare Drum .wav",30
Sample,67600,0,"LR_Snare Drum .wav",30
Sample,67600,0,"LR_Snare Drum .wav",30
Sample,67635,0,"LR_Snare Drum .wav",30
Sample,67700,0,"LR_Snare Drum .wav",30
Sample,67700,0,"LR_Snare Drum .wav",30
Sample,67735,0,"LR_Snare Drum .wav",30
Sample,67900,0,"LR_Snare Drum .wav",30
Sample,67900,0,"LR_Snare Drum .wav",30
Sample,67935,0,"LR_Snare Drum .wav",30
Sample,68000,0,"LR_Snare Drum .wav",30
Sample,68000,0,"LR_Snare Drum .wav",30
Sample,68035,0,"LR_Snare Drum .wav",30
Sample,68100,0,"LR_Snare Drum .wav",30
Sample,68100,0,"LR_Snare Drum .wav",30
Sample,68135,0,"LR_Snare Drum .wav",30
Sample,68200,0,"LR_Snare Drum .wav",30
Sample,68200,0,"LR_Snare Drum .wav",30
Sample,68235,0,"LR_Snare Drum .wav",30
Sample,68300,0,"LR_Snare Drum .wav",30
Sample,68300,0,"LR_Snare Drum .wav",30
Sample,68335,0,"LR_Snare Drum .wav",30
Sample,68500,0,"LR_Snare Drum .wav",30
Sample,68500,0,"LR_Snare Drum .wav",30
Sample,68535,0,"LR_Snare Drum .wav",30
Sample,68600,0,"LR_Snare Drum .wav",30
Sample,68600,0,"LR_Snare Drum .wav",30
Sample,68635,0,"LR_Snare Drum .wav",30
Sample,68700,0,"LR_Snare Drum .wav",30
Sample,68700,0,"LR_Snare Drum .wav",30
Sample,68735,0,"LR_Snare Drum .wav",30
Sample,68800,0,"LR_Snare Drum .wav",30
Sample,68800,0,"LR_Snare Drum .wav",30
Sample,68835,0,"LR_Snare Drum .wav",30
Sample,68900,0,"LR_Snare Drum .wav",30
Sample,68900,0,"LR_Snare Drum .wav",30
Sample,68935,0,"LR_Snare Drum .wav",30
Sample,69100,0,"LR_Snare Drum .wav",30
Sample,69100,0,"LR_Snare Drum .wav",30
Sample,69135,0,"LR_Snare Drum .wav",30
Sample,69200,0,"LR_Snare Drum .wav",30
Sample,69200,0,"LR_Snare Drum .wav",30
Sample,69235,0,"LR_Snare Drum .wav",30
Sample,69300,0,"LR_Snare Drum .wav",30
Sample,69300,0,"LR_Snare Drum .wav",30
Sample,69335,0,"LR_Snare Drum .wav",30
Sample,69400,0,"LR_Snare Drum .wav",30
Sample,69400,0,"LR_Snare Drum .wav",30
Sample,69435,0,"LR_Snare Drum .wav",30
Sample,69500,0,"LR_Snare Drum .wav",30
Sample,69500,0,"LR_Snare Drum .wav",30
Sample,69535,0,"LR_Snare Drum .wav",30
Sample,69700,0,"LR_Snare Drum .wav",30
Sample,69700,0,"LR_Snare Drum .wav",30
Sample,69735,0,"LR_Snare Drum .wav",30
Sample,69800,0,"LR_Snare Drum .wav",30
Sample,69800,0,"LR_Snare Drum .wav",30
Sample,69835,0,"LR_Snare Drum .wav",30
Sample,70000,0,"LR_Snare Drum .wav",30
Sample,70000,0,"LR_Snare Drum .wav",30
Sample,70035,0,"LR_Snare Drum .wav",30
Sample,70100,0,"LR_Snare Drum .wav",30
Sample,70100,0,"LR_Snare Drum .wav",30
Sample,70135,0,"LR_Snare Drum .wav",30
Sample,70300,0,"LR_Snare Drum .wav",30
Sample,70300,0,"LR_Snare Drum .wav",30
Sample,70335,0,"LR_Snare Drum .wav",30
Sample,70400,0,"LR_Snare Drum .wav",30
Sample,70400,0,"LR_Snare Drum .wav",30
Sample,70435,0,"LR_Snare Drum .wav",30
Sample,70600,0,"LR_Snare Drum .wav",30
Sample,70600,0,"LR_Snare Drum .wav",30
Sample,70635,0,"LR_Snare Drum .wav",30
Sample,70700,0,"LR_Snare Drum .wav",30
Sample,70700,0,"LR_Snare Drum .wav",30
Sample,70735,0,"LR_Snare Drum .wav",30
Sample,70900,0,"LR_Snare Drum .wav",30
Sample,70900,0,"LR_Snare Drum .wav",30
Sample,70935,0,"LR_Snare Drum .wav",30
Sample,71000,0,"LR_Snare Drum .wav",30
Sample,71000,0,"LR_Snare Drum .wav",30
Sample,71035,0,"LR_Snare Drum .wav",30
Sample,71200,0,"LR_Snare Drum .wav",30
Sample,71200,0,"LR_Snare Drum .wav",30
Sample,71235,0,"LR_Snare Drum .wav",30
Sample,71300,0,"LR_Snare Drum .wav",30
Sample,71300,0,"LR_Snare Drum .wav",30
Sample,71335,0,"LR_Snare Drum .wav",30
Sample,72300,0,"LR_HiHat Synth Fast.wav",70
Sample,72300,0,"LR_HiHat Synth Fast.wav",70
Sample,72335,0,"LR_HiHat Synth Fast.wav",70
Sample,72900,0,"LR_HiHat Synth Fast.wav",70
Sample,72900,0,"LR_HiHat Synth Fast.wav",70
Sample,72935,0,"LR_HiHat Synth Fast.wav",70
Sample,73500,0,"LR_HiHat Synth Fast.wav",70
Sample,73500,0,"LR_HiHat Synth Fast.wav",70
Sample,73535,0,"LR_HiHat Synth Fast.wav",70
Sample,74100,0,"LR_HiHat Synth Fast.wav",70
Sample,74100,0,"LR_HiHat Synth Fast.wav",70
Sample,74135,0,"LR_HiHat Synth Fast.wav",70
Sample,74700,0,"LR_HiHat Synth Fast.wav",70
Sample,74700,0,"LR_HiHat Synth Fast.wav",70
Sample,74735,0,"LR_HiHat Synth Fast.wav",70
Sample,75300,0,"LR_HiHat Synth Fast.wav",70
Sample,75300,0,"LR_HiHat Synth Fast.wav",70
Sample,75335,0,"LR_HiHat Synth Fast.wav",70
Sample,75900,0,"LR_HiHat Synth Fast.wav",70
Sample,75900,0,"LR_HiHat Synth Fast.wav",70
Sample,75935,0,"LR_HiHat Synth Fast.wav",70
Sample,77100,0,"LR_HiHat Synth Fast.wav",70
Sample,77100,0,"LR_HiHat Synth Fast.wav",70
Sample,77135,0,"LR_HiHat Synth Fast.wav",70
Sample,77700,0,"LR_HiHat Synth Fast.wav",70
Sample,77700,0,"LR_HiHat Synth Fast.wav",70
Sample,77735,0,"LR_HiHat Synth Fast.wav",70
Sample,78300,0,"LR_HiHat Synth Fast.wav",70
Sample,78300,0,"LR_HiHat Synth Fast.wav",70
Sample,78335,0,"LR_HiHat Synth Fast.wav",70
Sample,78900,0,"LR_HiHat Synth Fast.wav",70
Sample,78900,0,"LR_HiHat Synth Fast.wav",70
Sample,78935,0,"LR_HiHat Synth Fast.wav",70
Sample,79500,0,"LR_HiHat Synth Fast.wav",70
Sample,79500,0,"LR_HiHat Synth Fast.wav",70
Sample,79535,0,"LR_HiHat Synth Fast.wav",70
Sample,80100,0,"LR_HiHat Synth Fast.wav",70
Sample,80100,0,"LR_HiHat Synth Fast.wav",70
Sample,80135,0,"LR_HiHat Synth Fast.wav",70
Sample,80700,0,"LR_HiHat Synth Fast.wav",70
Sample,80700,0,"LR_HiHat Synth Fast.wav",70
Sample,80735,0,"LR_HiHat Synth Fast.wav",70
Sample,81900,0,"LR_HiHat Synth Fast.wav",70
Sample,81900,0,"LR_HiHat Synth Fast.wav",70
Sample,81935,0,"LR_HiHat Synth Fast.wav",70
Sample,82500,0,"LR_HiHat Synth Fast.wav",70
Sample,82500,0,"LR_HiHat Synth Fast.wav",70
Sample,82535,0,"LR_HiHat Synth Fast.wav",70
Sample,83100,0,"LR_HiHat Synth Fast.wav",70
Sample,83100,0,"LR_HiHat Synth Fast.wav",70
Sample,83135,0,"LR_HiHat Synth Fast.wav",70
Sample,83700,0,"LR_HiHat Synth Fast.wav",70
Sample,83700,0,"LR_HiHat Synth Fast.wav",70
Sample,83735,0,"LR_HiHat Synth Fast.wav",70
Sample,84300,0,"LR_HiHat Synth Fast.wav",70
Sample,84300,0,"LR_HiHat Synth Fast.wav",70
Sample,84335,0,"LR_HiHat Synth Fast.wav",70
Sample,84900,0,"LR_HiHat Synth Fast.wav",70
Sample,84900,0,"LR_HiHat Synth Fast.wav",70
Sample,84935,0,"LR_HiHat Synth Fast.wav",70
Sample,85500,0,"LR_HiHat Synth Fast.wav",70
Sample,85500,0,"LR_HiHat Synth Fast.wav",70
Sample,85535,0,"LR_HiHat Synth Fast.wav",70
Sample,86700,0,"LR_HiHat Synth Fast.wav",70
Sample,86700,0,"LR_HiHat Synth Fast.wav",70
Sample,86735,0,"LR_HiHat Synth Fast.wav",70
Sample,87300,0,"LR_HiHat Synth Fast.wav",70
Sample,87300,0,"LR_HiHat Synth Fast.wav",70
Sample,87335,0,"LR_HiHat Synth Fast.wav",70
Sample,87900,0,"LR_HiHat Synth Fast.wav",70
Sample,87900,0,"LR_HiHat Synth Fast.wav",70
Sample,87935,0,"LR_HiHat Synth Fast.wav",70
Sample,88500,0,"LR_HiHat Synth Fast.wav",70
Sample,88500,0,"LR_HiHat Synth Fast.wav",70
Sample,88535,0,"LR_HiHat Synth Fast.wav",70
Sample,89100,0,"LR_HiHat Synth Fast.wav",70
Sample,89100,0,"LR_HiHat Synth Fast.wav",70
Sample,89135,0,"LR_HiHat Synth Fast.wav",70
Sample,89700,0,"LR_HiHat Synth Fast.wav",70
Sample,89700,0,"LR_HiHat Synth Fast.wav",70
Sample,89735,0,"LR_HiHat Synth Fast.wav",70
Sample,91500,0,"LR_HiHat Synth Fast.wav",70
Sample,91500,0,"LR_HiHat Synth Fast.wav",70
Sample,91535,0,"LR_HiHat Synth Fast.wav",70
Sample,92100,0,"LR_HiHat Synth Fast.wav",70
Sample,92100,0,"LR_HiHat Synth Fast.wav",70
Sample,92135,0,"LR_HiHat Synth Fast.wav",70
Sample,93900,0,"LR_HiHat Synth Fast.wav",70
Sample,93900,0,"LR_HiHat Synth Fast.wav",70
Sample,93935,0,"LR_HiHat Synth Fast.wav",70
Sample,94500,0,"LR_HiHat Synth Fast.wav",70
Sample,94500,0,"LR_HiHat Synth Fast.wav",70
Sample,94535,0,"LR_HiHat Synth Fast.wav",70
Sample,96300,0,"LR_HiHat Synth Fast.wav",70
Sample,96300,0,"LR_HiHat Synth Fast.wav",70
Sample,96335,0,"LR_HiHat Synth Fast.wav",70
Sample,96900,0,"LR_HiHat Synth Fast.wav",70
Sample,96900,0,"LR_HiHat Synth Fast.wav",70
Sample,96935,0,"LR_HiHat Synth Fast.wav",70
Sample,98700,0,"LR_HiHat Synth Fast.wav",70
Sample,98700,0,"LR_HiHat Synth Fast.wav",70
Sample,98735,0,"LR_HiHat Synth Fast.wav",70
Sample,99300,0,"LR_HiHat Synth Fast.wav",70
Sample,99300,0,"LR_HiHat Synth Fast.wav",70
Sample,99335,0,"LR_HiHat Synth Fast.wav",70
Sample,132300,0,"LR_Snare Drum .wav",30
Sample,132300,0,"LR_Snare Drum .wav",30
Sample,132335,0,"LR_Snare Drum .wav",30
Sample,132600,0,"LR_Snare Drum .wav",30
Sample,132600,0,"LR_Snare Drum .wav",30
Sample,132635,0,"LR_Snare Drum .wav",30
Sample,132900,0,"LR_Snare Drum .wav",30
Sample,132900,0,"LR_Snare Drum .wav",30
Sample,132935,0,"LR_Snare Drum .wav",30
Sample,133200,0,"LR_Snare Drum .wav",30
Sample,133200,0,"LR_Snare Drum .wav",30
Sample,133235,0,"LR_Snare Drum .wav",30
Sample,133500,0,"LR_Snare Drum .wav",30
Sample,133500,0,"LR_Snare Drum .wav",30
Sample,133535,0,"LR_Snare Drum .wav",30
Sample,133800,0,"LR_Snare Drum .wav",30
Sample,133800,0,"LR_Snare Drum .wav",30
Sample,133835,0,"LR_Snare Drum .wav",30
Sample,134100,0,"LR_Snare Drum .wav",30
Sample,134100,0,"LR_Snare Drum .wav",30
Sample,134135,0,"LR_Snare Drum .wav",30
Sample,134400,0,"LR_Snare Drum .wav",40
Sample,134400,0,"LR_Snare Drum .wav",40
Sample,134435,0,"LR_Snare Drum .wav",40
Sample,134700,0,"LR_Snare Drum .wav",40
Sample,134700,0,"LR_Snare Drum .wav",40
Sample,134735,0,"LR_Snare Drum .wav",40
Sample,135000,0,"LR_Snare Drum .wav",40
Sample,135000,0,"LR_Snare Drum .wav",40
Sample,135035,0,"LR_Snare Drum .wav",40
Sample,135300,0,"LR_Snare Drum .wav",40
Sample,135300,0,"LR_Snare Drum .wav",40
Sample,135335,0,"LR_Snare Drum .wav",40
Sample,135600,0,"LR_Snare Drum .wav",40
Sample,135600,0,"LR_Snare Drum .wav",40
Sample,135635,0,"LR_Snare Drum .wav",40
Sample,135900,0,"LR_Snare Drum .wav",40
Sample,135900,0,"LR_Snare Drum .wav",40
Sample,135935,0,"LR_Snare Drum .wav",40
Sample,136200,0,"LR_Snare Drum .wav",40
Sample,136200,0,"LR_Snare Drum .wav",40
Sample,136235,0,"LR_Snare Drum .wav",40
Sample,136500,0,"LR_Snare Drum .wav",40
Sample,136500,0,"LR_Snare Drum .wav",40
Sample,136535,0,"LR_Snare Drum .wav",40
Sample,136800,0,"LR_Snare Drum .wav",30
Sample,136800,0,"LR_Snare Drum .wav",30
Sample,136835,0,"LR_Snare Drum .wav",30
Sample,136900,0,"LR_Snare Drum .wav",30
Sample,136900,0,"LR_Snare Drum .wav",30
Sample,136935,0,"LR_Snare Drum .wav",30
Sample,137000,0,"LR_Snare Drum .wav",30
Sample,137000,0,"LR_Snare Drum .wav",30
Sample,137035,0,"LR_Snare Drum .wav",30
Sample,137100,0,"LR_Snare Drum .wav",30
Sample,137100,0,"LR_Snare Drum .wav",30
Sample,137135,0,"LR_Snare Drum .wav",30
Sample,137200,0,"LR_Snare Drum .wav",30
Sample,137200,0,"LR_Snare Drum .wav",30
Sample,137235,0,"LR_Snare Drum .wav",30
Sample,137300,0,"LR_Snare Drum .wav",30
Sample,137300,0,"LR_Snare Drum .wav",30
Sample,137335,0,"LR_Snare Drum .wav",30
Sample,137400,0,"LR_Snare Drum .wav",30
Sample,137400,0,"LR_Snare Drum .wav",30
Sample,137435,0,"LR_Snare Drum .wav",30
Sample,137500,0,"LR_Snare Drum .wav",30
Sample,137500,0,"LR_Snare Drum .wav",30
Sample,137535,0,"LR_Snare Drum .wav",30
Sample,137600,0,"LR_Snare Drum .wav",30
Sample,137600,0,"LR_Snare Drum .wav",30
Sample,137635,0,"LR_Snare Drum .wav",30
Sample,137700,0,"LR_Snare Drum .wav",30
Sample,137700,0,"LR_Snare Drum .wav",30
Sample,137735,0,"LR_Snare Drum .wav",30
Sample,137800,0,"LR_Snare Drum .wav",30
Sample,137800,0,"LR_Snare Drum .wav",30
Sample,137835,0,"LR_Snare Drum .wav",30
Sample,137900,0,"LR_Snare Drum .wav",30
Sample,137900,0,"LR_Snare Drum .wav",30
Sample,137935,0,"LR_Snare Drum .wav",30
Sample,138000,0,"LR_Snare Drum .wav",30
Sample,138000,0,"LR_Snare Drum .wav",30
Sample,138035,0,"LR_Snare Drum .wav",30
Sample,138100,0,"LR_Snare Drum .wav",30
Sample,138100,0,"LR_Snare Drum .wav",30
Sample,138135,0,"LR_Snare Drum .wav",30
Sample,138200,0,"LR_Snare Drum .wav",30
Sample,138200,0,"LR_Snare Drum .wav",30
Sample,138235,0,"LR_Snare Drum .wav",30
Sample,138300,0,"LR_Snare Drum .wav",30
Sample,138300,0,"LR_Snare Drum .wav",30
Sample,138335,0,"LR_Snare Drum .wav",30
Sample,138400,0,"LR_Snare Drum .wav",30
Sample,138400,0,"LR_Snare Drum .wav",30
Sample,138435,0,"LR_Snare Drum .wav",30
Sample,138500,0,"LR_Snare Drum .wav",30
Sample,138500,0,"LR_Snare Drum .wav",30
Sample,138535,0,"LR_Snare Drum .wav",30
Sample,138600,0,"LR_Snare Drum .wav",30
Sample,138600,0,"LR_Snare Drum .wav",30
Sample,138635,0,"LR_Snare Drum .wav",30
Sample,138700,0,"LR_Snare Drum .wav",30
Sample,138700,0,"LR_Snare Drum .wav",30
Sample,138735,0,"LR_Snare Drum .wav",30
Sample,138800,0,"LR_Snare Drum .wav",30
Sample,138800,0,"LR_Snare Drum .wav",30
Sample,138835,0,"LR_Snare Drum .wav",30
Sample,139000,0,"LR_Snare Drum .wav",30
Sample,139000,0,"LR_Snare Drum .wav",30
Sample,139035,0,"LR_Snare Drum .wav",30
Sample,139100,0,"LR_Snare Drum .wav",30
Sample,139100,0,"LR_Snare Drum .wav",30
Sample,139135,0,"LR_Snare Drum .wav",30
Sample,139200,0,"LR_Snare Drum .wav",30
Sample,139200,0,"LR_Snare Drum .wav",30
Sample,139235,0,"LR_Snare Drum .wav",30
Sample,139300,0,"LR_Snare Drum .wav",30
Sample,139300,0,"LR_Snare Drum .wav",30
Sample,139335,0,"LR_Snare Drum .wav",30
Sample,139400,0,"LR_Snare Drum .wav",30
Sample,139400,0,"LR_Snare Drum .wav",30
Sample,139435,0,"LR_Snare Drum .wav",30
Sample,139600,0,"LR_Snare Drum .wav",30
Sample,139600,0,"LR_Snare Drum .wav",30
Sample,139635,0,"LR_Snare Drum .wav",30
Sample,139700,0,"LR_Snare Drum .wav",30
Sample,139700,0,"LR_Snare Drum .wav",30
Sample,139735,0,"LR_Snare Drum .wav",30
Sample,139800,0,"LR_Snare Drum .wav",30
Sample,139800,0,"LR_Snare Drum .wav",30
Sample,139835,0,"LR_Snare Drum .wav",30
Sample,139900,0,"LR_Snare Drum .wav",30
Sample,139900,0,"LR_Snare Drum .wav",30
Sample,139935,0,"LR_Snare Drum .wav",30
Sample,140000,0,"LR_Snare Drum .wav",30
Sample,140000,0,"LR_Snare Drum .wav",30
Sample,140035,0,"LR_Snare Drum .wav",30
Sample,140100,0,"LR_Snare Drum .wav",30
Sample,140100,0,"LR_Snare Drum .wav",30
Sample,140135,0,"LR_Snare Drum .wav",30
Sample,140200,0,"LR_Snare Drum .wav",30
Sample,140200,0,"LR_Snare Drum .wav",30
Sample,140235,0,"LR_Snare Drum .wav",30
Sample,140300,0,"LR_Snare Drum .wav",30
Sample,140300,0,"LR_Snare Drum .wav",30
Sample,140335,0,"LR_Snare Drum .wav",30
Sample,140500,0,"LR_Snare Drum .wav",30
Sample,140500,0,"LR_Snare Drum .wav",30
Sample,140535,0,"LR_Snare Drum .wav",30
Sample,140600,0,"LR_Snare Drum .wav",30
Sample,140600,0,"LR_Snare Drum .wav",30
Sample,140635,0,"LR_Snare Drum .wav",30
Sample,140700,0,"LR_Snare Drum .wav",30
Sample,140700,0,"LR_Snare Drum .wav",30
Sample,140735,0,"LR_Snare Drum .wav",30
Sample,173100,0,"LR_HiHat Synth Fast.wav",70
Sample,173100,0,"LR_HiHat Synth Fast.wav",70
Sample,173135,0,"LR_HiHat Synth Fast.wav",70
Sample,173700,0,"LR_HiHat Synth Fast.wav",70
Sample,173700,0,"LR_HiHat Synth Fast.wav",70
Sample,173735,0,"LR_HiHat Synth Fast.wav",70
Sample,174300,0,"LR_HiHat Synth Fast.wav",70
Sample,174300,0,"LR_HiHat Synth Fast.wav",70
Sample,174335,0,"LR_HiHat Synth Fast.wav",70
Sample,175500,0,"LR_HiHat Synth Fast.wav",70
Sample,175500,0,"LR_HiHat Synth Fast.wav",70
Sample,175535,0,"LR_HiHat Synth Fast.wav",70
Sample,176100,0,"LR_HiHat Synth Fast.wav",70
Sample,176100,0,"LR_HiHat Synth Fast.wav",70
Sample,176135,0,"LR_HiHat Synth Fast.wav",70
Sample,176700,0,"LR_HiHat Synth Fast.wav",70
Sample,176700,0,"LR_HiHat Synth Fast.wav",70
Sample,176735,0,"LR_HiHat Synth Fast.wav",70
Sample,177900,0,"LR_HiHat Synth Fast.wav",70
Sample,177900,0,"LR_HiHat Synth Fast.wav",70
Sample,177935,0,"LR_HiHat Synth Fast.wav",70
Sample,178500,0,"LR_HiHat Synth Fast.wav",70
Sample,178500,0,"LR_HiHat Synth Fast.wav",70
Sample,178535,0,"LR_HiHat Synth Fast.wav",70
Sample,179100,0,"LR_HiHat Synth Fast.wav",70
Sample,179100,0,"LR_HiHat Synth Fast.wav",70
Sample,179135,0,"LR_HiHat Synth Fast.wav",70
Sample,180300,0,"LR_HiHat Synth Fast.wav",70
Sample,180300,0,"LR_HiHat Synth Fast.wav",70
Sample,180335,0,"LR_HiHat Synth Fast.wav",70
Sample,180900,0,"LR_HiHat Synth Fast.wav",70
Sample,180900,0,"LR_HiHat Synth Fast.wav",70
Sample,180935,0,"LR_HiHat Synth Fast.wav",70
Sample,181500,0,"LR_HiHat Synth Fast.wav",70
Sample,181500,0,"LR_HiHat Synth Fast.wav",70
Sample,181535,0,"LR_HiHat Synth Fast.wav",70
Sample,182700,0,"LR_HiHat Synth Fast.wav",70
Sample,182700,0,"LR_HiHat Synth Fast.wav",70
Sample,182735,0,"LR_HiHat Synth Fast.wav",70
Sample,183300,0,"LR_HiHat Synth Fast.wav",70
Sample,183300,0,"LR_HiHat Synth Fast.wav",70
Sample,183335,0,"LR_HiHat Synth Fast.wav",70
Sample,183900,0,"LR_HiHat Synth Fast.wav",70
Sample,183900,0,"LR_HiHat Synth Fast.wav",70
Sample,183935,0,"LR_HiHat Synth Fast.wav",70
Sample,185100,0,"LR_HiHat Synth Fast.wav",70
Sample,185100,0,"LR_HiHat Synth Fast.wav",70
Sample,185135,0,"LR_HiHat Synth Fast.wav",70
Sample,185700,0,"LR_HiHat Synth Fast.wav",70
Sample,185700,0,"LR_HiHat Synth Fast.wav",70
Sample,185735,0,"LR_HiHat Synth Fast.wav",70
Sample,186300,0,"LR_HiHat Synth Fast.wav",70
Sample,186300,0,"LR_HiHat Synth Fast.wav",70
Sample,186335,0,"LR_HiHat Synth Fast.wav",70
Sample,187500,0,"LR_HiHat Synth Fast.wav",70
Sample,187500,0,"LR_HiHat Synth Fast.wav",70
Sample,187535,0,"LR_HiHat Synth Fast.wav",70
Sample,188100,0,"LR_HiHat Synth Fast.wav",70
Sample,188100,0,"LR_HiHat Synth Fast.wav",70
Sample,188135,0,"LR_HiHat Synth Fast.wav",70
Sample,188700,0,"LR_HiHat Synth Fast.wav",70
Sample,188700,0,"LR_HiHat Synth Fast.wav",70
Sample,188735,0,"LR_HiHat Synth Fast.wav",70
Sample,189900,0,"LR_HiHat Synth Fast.wav",70
Sample,189900,0,"LR_HiHat Synth Fast.wav",70
Sample,189935,0,"LR_HiHat Synth Fast.wav",70
Sample,190500,0,"LR_HiHat Synth Fast.wav",70
Sample,190500,0,"LR_HiHat Synth Fast.wav",70
Sample,190535,0,"LR_HiHat Synth Fast.wav",70
Sample,193500,0,"LR_HiHat Synth Fast.wav",70
Sample,193500,0,"LR_HiHat Synth Fast.wav",70
Sample,193535,0,"LR_HiHat Synth Fast.wav",70
Sample,194100,0,"LR_HiHat Synth Fast.wav",70
Sample,194100,0,"LR_HiHat Synth Fast.wav",70
Sample,194135,0,"LR_HiHat Synth Fast.wav",70
Sample,195900,0,"LR_HiHat Synth Fast.wav",70
Sample,195900,0,"LR_HiHat Synth Fast.wav",70
Sample,195935,0,"LR_HiHat Synth Fast.wav",70
Sample,196500,0,"LR_HiHat Synth Fast.wav",70
Sample,196500,0,"LR_HiHat Synth Fast.wav",70
Sample,196535,0,"LR_HiHat Synth Fast.wav",70
Sample,198300,0,"LR_HiHat Synth Fast.wav",70
Sample,198300,0,"LR_HiHat Synth Fast.wav",70
Sample,198335,0,"LR_HiHat Synth Fast.wav",70
Sample,198900,0,"LR_HiHat Synth Fast.wav",70
Sample,198900,0,"LR_HiHat Synth Fast.wav",70
Sample,198935,0,"LR_HiHat Synth Fast.wav",70
Sample,200700,0,"LR_HiHat Synth Fast.wav",70
Sample,200700,0,"LR_HiHat Synth Fast.wav",70
Sample,200735,0,"LR_HiHat Synth Fast.wav",70
Sample,201300,0,"LR_HiHat Synth Fast.wav",70
Sample,201300,0,"LR_HiHat Synth Fast.wav",70
Sample,201335,0,"LR_HiHat Synth Fast.wav",70
Sample,203100,0,"LR_HiHat Synth Fast.wav",70
Sample,203100,0,"LR_HiHat Synth Fast.wav",70
Sample,203135,0,"LR_HiHat Synth Fast.wav",70
Sample,203700,0,"LR_HiHat Synth Fast.wav",70
Sample,203700,0,"LR_HiHat Synth Fast.wav",70
Sample,203735,0,"LR_HiHat Synth Fast.wav",70
Sample,205500,0,"LR_HiHat Synth Fast.wav",70
Sample,205500,0,"LR_HiHat Synth Fast.wav",70
Sample,205535,0,"LR_HiHat Synth Fast.wav",70
Sample,206100,0,"LR_HiHat Synth Fast.wav",70
Sample,206100,0,"LR_HiHat Synth Fast.wav",70
Sample,206135,0,"LR_HiHat Synth Fast.wav",70
Sample,207900,0,"LR_HiHat Synth Fast.wav",70
Sample,207900,0,"LR_HiHat Synth Fast.wav",70
Sample,207935,0,"LR_HiHat Synth Fast.wav",70
Sample,208500,0,"LR_HiHat Synth Fast.wav",70
Sample,208500,0,"LR_HiHat Synth Fast.wav",70
Sample,208535,0,"LR_HiHat Synth Fast.wav",70

[TimingPoints]
2435,600,4,3,1,40,1,0
72035,-100,4,3,1,40,0,1
91535,-100,4,3,1,40,0,0
172835,-100,4,3,1,40,0,1
210935,-100,4,3,1,40,0,0

[HitObjects]
448,192,2435,5,0,0:0:0:0:
64,192,2435,128,0,3035:0:0:0:0:
192,192,3035,1,0,0:0:0:0:
320,192,3335,1,0,0:0:0:0:
448,192,3935,1,0,0:0:0:0:
192,192,4235,1,0,0:0:0:0:
64,192,4835,1,0,0:0:0:0:
320,192,4835,128,0,5435:0:0:0:0:
192,192,5435,1,0,0:0:0:0:
448,192,5735,1,0,0:0:0:0:
64,192,6035,1,0,0:0:0:0:
320,192,6635,1,0,0:0:0:0:
192,192,7235,128,0,7835:0:0:0:0:
448,192,7235,1,0,0:0:0:0:
64,192,7835,1,0,0:0:0:0:
320,192,8135,1,0,0:0:0:0:
448,192,8735,1,0,0:0:0:0:
64,192,9035,1,0,0:0:0:0:
448,192,9635,128,0,10235:0:0:0:0:
320,192,9635,1,0,0:0:0:0:
192,192,10235,1,0,0:0:0:0:
64,192,10535,1,0,0:0:0:0:
448,192,10835,1,0,0:0:0:0:
320,192,11435,1,0,0:0:0:0:
192,192,12035,1,0,0:0:0:0:
64,192,14435,1,2,0:0:0:0:
192,192,14435,1,0,0:0:0:0:
448,192,15035,1,0,0:0:0:40:LR_Clap hollow echo.wav
320,192,15335,1,2,0:0:0:0:
64,192,15935,1,2,0:0:0:0:
192,192,16235,1,0,0:0:0:40:LR_Clap hollow echo.wav
448,192,16835,1,2,0:0:0:0:
320,192,16835,1,0,0:0:0:0:
192,192,17435,1,0,0:0:0:40:LR_Clap hollow echo.wav
320,192,17735,1,2,0:0:0:0:
64,192,18335,1,2,0:0:0:0:
448,192,18635,1,0,0:0:0:40:LR_Clap hollow echo.wav
192,192,18935,1,2,0:0:0:0:
320,192,19235,1,2,0:0:0:0:
448,192,19235,1,0,0:0:0:0:
64,192,19835,1,0,0:0:0:40:LR_Clap hollow echo.wav
320,192,20135,1,2,0:0:0:0:
192,192,20735,1,2,0:0:0:0:
448,192,21035,1,0,0:0:0:40:LR_Clap hollow echo.wav
64,192,21635,1,2,0:0:0:0:
192,192,21635,1,0,0:0:0:0:
320,192,22235,1,0,0:0:0:40:LR_Clap hollow echo.wav
448,192,22535,1,2,0:0:0:0:
192,192,23135,1,2,0:0:0:0:
64,192,23435,1,0,0:0:0:40:LR_Clap hollow echo.wav
320,192,23735,1,2,0:0:0:0:
192,192,24035,1,2,0:0:0:0:
64,192,24035,1,0,0:0:0:0:
320,192,24635,1,0,0:0:0:40:LR_Clap hollow echo.wav
448,192,24935,1,2,0:0:0:0:
192,192,25535,1,2,0:0:0:0:
320,192,25835,1,0,0:0:0:40:LR_Clap hollow echo.wav
64,192,26435,1,2,0:0:0:0:
192,192,26435,1,0,0:0:0:0:
448,192,27035,1,0,0:0:0:40:LR_Clap hollow echo.wav
320,192,27335,1,2,0:0:0:0:
192,192,27935,1,2,0:0:0:0:
448,192,28235,1,0,0:0:0:40:LR_Clap hollow echo.wav
64,192,28535,1,2,0:0:0:0:
192,192,28835,1,2,0:0:0:0:
320,192,28835,1,0,0:0:0:0:
448,192,29435,1,0,0:0:0:40:LR_Clap hollow echo.wav
64,192,29735,1,2,0:0:0:0:
320,192,30335,1,2,0:0:0:0:
448,192,30635,1,0,0:0:0:40:LR_Clap hollow echo.wav
64,192,31235,1,2,0:0:0:0:
192,192,31235,1,0,0:0:0:0:
320,192,31835,1,0,0:0:0:40:LR_Clap hollow echo.wav
448,192,32135,1,2,0:0:0:0:
192,192,32735,1,2,0:0:0:0:
320,192,33035,1,0,0:0:0:40:LR_Clap hollow echo.wav
64,192,33335,1,2,0:0:0:0:
192,192,33635,1,2,0:0:0:0:
448,192,33635,128,0,34235:0:0:0:0:
64,192,34235,1,0,0:0:0:40:LR_Clap hollow echo.wav
320,192,34535,1,2,0:0:0:0:
192,192,35135,1,2,0:0:0:0:
448,192,35435,1,0,0:0:0:40:LR_Clap hollow echo.wav
320,192,35735,1,2,0:0:0:0:
64,192,36035,128,2,36635:0:0:0:0:
320,192,36635,1,0,0:0:0:40:LR_Clap hollow echo.wav
192,192,36935,1,2,0:0:0:0:
64,192,37535,1,2,0:0:0:0:
448,192,37835,1,0,0:0:0:40:LR_Clap hollow echo.wav
320,192,38435,128,2,39035:0:0:0:0:
64,192,39035,1,0,0:0:0:40:LR_Clap hollow echo.wav
192,192,39335,1,2,0:0:0:0:
448,192,39935,1,2,0:0:0:0:
320,192,40235,1,0,0:0:0:40:LR_Clap hollow echo.wav
64,192,40535,1,2,0:0:0:0:
192,192,40835,128,2,41435:0:0:0:0:
448,192,41435,1,0,0:0:0:40:LR_Clap hollow echo.wav
64,192,41735,1,2,0:0:0:0:
192,192,42335,1,2,0:0:0:0:
320,192,42635,1,0,0:0:0:40:LR_Clap hollow echo.wav
64,192,42935,1,2,0:0:0:0:
448,192,43235,128,2,43835:0:0:0:0:
192,192,43235,1,0,0:0:0:0:
320,192,43835,1,0,0:0:0:40:LR_Clap hollow echo.wav
192,192,44135,1,2,0:0:0:0:
64,192,44735,1,2,0:0:0:0:
448,192,45035,1,0,0:0:0:40:LR_Clap hollow echo.wav
192,192,45635,128,2,46235:0:0:0:0:
320,192,46235,1,0,0:0:0:40:LR_Clap hollow echo.wav
448,192,46535,1,2,0:0:0:0:
192,192,47135,1,2,0:0:0:0:
64,192,47435,1,0,0:0:0:40:LR_Clap hollow echo.wav
320,192,47735,1,2,0:0:0:0:
192,192,48035,128,2,48635:0:0:0:0:
448,192,48635,1,0,0:0:0:40:LR_Clap hollow echo.wav
64,192,48935,1,2,0:0:0:0:
320,192,49535,1,2,0:0:0:0:
192,192,49835,1,0,0:0:0:40:LR_Clap hollow echo.wav
448,192,50135,1,2,0:0:0:0:
320,192,50435,128,2,51035:0:0:0:0:
64,192,51035,1,0,0:0:0:40:LR_Clap hollow echo.wav
192,192,51335,1,2,0:0:0:0:
448,192,51935,5,2,0:0:0:0:
320,192,52235,1,0,0:0:0:40:LR_Clap hollow echo.wav
64,192,52835,5,0,0:0:0:0:
192,192,52835,1,0,0:0:0:0:
448,192,53135,1,0,0:0:0:0:
320,192,53435,128,0,54035:0:0:0:0:
64,192,54035,1,0,0:0:0:0:
192,192,54635,1,0,0:0:0:0:
448,192,54935,1,0,0:0:0:0:
320,192,55235,1,0,0:0:0:0:
64,192,55535,1,0,0:0:0:0:
448,192,55835,128,0,56435:0:0:0:0:
192,192,56435,1,0,0:0:0:0:
320,192,57035,1,0,0:0:0:0:
64,192,57335,1,0,0:0:0:0:
192,192,57635,1,0,0:0:0:0:
448,192,58235,1,0,0:0:0:0:
320,192,58835,1,0,0:0:0:0:
192,192,59135,1,0,0:0:0:0:
448,192,59435,1,0,0:0:0:0:
64,192,60035,128,0,60635:0:0:0:0:
320,192,60635,128,0,61235:0:0:0:0:
192,192,61235,128,0,61835:0:0:0:0:
448,192,61835,5,0,0:0:0:0:
320,192,62135,1,0,0:0:0:0:
64,192,62435,1,0,0:0:0:30:LR_Snare Drum .wav
448,192,62435,1,0,0:0:0:0:
192,192,62735,1,0,0:0:0:30:LR_Snare Drum .wav
448,192,63035,128,0,63635:0:0:0:30:LR_Snare Drum .wav
320,192,63635,1,0,0:0:0:30:LR_Snare Drum .wav
64,192,63935,1,0,0:0:0:30:LR_Snare Drum .wav
448,192,64235,1,0,0:0:0:30:LR_Snare Drum .wav
320,192,64535,1,0,0:0:0:30:LR_Snare Drum .wav
192,192,64835,128,0,65435:0:0:0:40:LR_Snare Drum .wav
64,192,65435,128,0,66035:0:0:0:40:LR_Snare Drum .wav
448,192,66035,1,0,0:0:0:40:LR_Snare Drum .wav
192,192,66335,1,0,0:0:0:40:LR_Snare Drum .wav
320,192,66635,1,0,0:0:0:40:LR_Snare Drum .wav
448,192,66935,1,0,0:0:0:40:LR_Snare Drum .wav
64,192,67235,128,0,69635:0:0:0:30:LR_Snare Drum .wav
320,192,67835,1,0,0:0:0:30:LR_Snare Drum .wav
192,192,68435,1,0,0:0:0:30:LR_Snare Drum .wav
448,192,69035,1,0,0:0:0:30:LR_Snare Drum .wav
192,192,69635,1,0,0:0:0:30:LR_Snare Drum .wav
320,192,69935,1,0,0:0:0:30:LR_Snare Drum .wav
64,192,70235,1,0,0:0:0:30:LR_Snare Drum .wav
448,192,70535,1,0,0:0:0:30:LR_Snare Drum .wav
192,192,70835,1,0,0:0:0:30:LR_Snare Drum .wav
320,192,71135,1,0,0:0:0:30:LR_Snare Drum .wav
64,192,71435,128,0,72035:0:0:0:70:LR_Snare Drum .wav
320,192,72035,1,2,0:0:0:0:
448,192,72035,1,0,0:0:0:0:
64,192,72635,1,8,0:0:0:0:
448,192,72635,1,2,0:0:0:0:
192,192,73235,1,2,0:0:0:0:
64,192,73835,1,8,0:0:0:0:
448,192,73835,1,2,0:0:0:0:
320,192,74435,1,2,0:0:0:0:
448,192,75035,1,2,0:0:0:0:
64,192,75035,1,8,0:0:0:0:
320,192,75635,1,2,0:0:0:0:
64,192,76235,1,2,0:0:0:0:
448,192,76235,1,8,0:0:0:0:
320,192,76535,1,0,0:0:0:70:LR_HiHat Synth Fast.wav
192,192,76835,1,2,0:0:0:0:
64,192,77435,1,2,0:0:0:0:
320,192,77435,1,8,0:0:0:0:
192,192,78035,1,2,0:0:0:0:
64,192,78635,1,2,0:0:0:0:
320,192,78635,1,8,0:0:0:0:
448,192,79235,1,2,0:0:0:0:
320,192,79835,1,8,0:0:0:0:
64,192,79835,1,2,0:0:0:0:
448,192,80435,1,2,0:0:0:0:
320,192,81035,1,8,0:0:0:0:
64,192,81035,1,2,0:0:0:0:
448,192,81335,1,0,0:0:0:70:LR_HiHat Synth Fast.wav
192,192,81635,1,2,0:0:0:0:
320,192,82235,1,8,0:0:0:0:
448,192,82235,1,2,0:0:0:0:
192,192,82835,1,2,0:0:0:0:
320,192,83435,1,8,0:0:0:0:
448,192,83435,1,2,0:0:0:0:
64,192,84035,1,2,0:0:0:0:
320,192,84635,1,2,0:0:0:0:
448,192,84635,1,8,0:0:0:0:
64,192,85235,1,2,0:0:0:0:
448,192,85835,1,2,0:0:0:0:
320,192,85835,1,8,0:0:0:0:
64,192,86135,1,0,0:0:0:70:LR_HiHat Synth Fast.wav
192,192,86435,1,2,0:0:0:0:
448,192,87035,1,2,0:0:0:0:
64,192,87035,1,8,0:0:0:0:
192,192,87635,1,2,0:0:0:0:
448,192,88235,1,2,0:0:0:0:
64,192,88235,1,8,0:0:0:0:
320,192,88835,1,2,0:0:0:0:
448,192,89435,1,8,0:0:0:0:
64,192,89435,1,2,0:0:0:0:
320,192,90035,1,2,0:0:0:0:
64,192,90635,1,8,0:0:0:0:
448,192,90635,1,2,0:0:0:0:
192,192,90935,1,0,0:0:0:0:
320,192,91235,1,2,0:0:0:0:
64,192,91835,1,8,0:0:0:0:
192,192,91835,1,2,0:0:0:0:
448,192,92435,1,2,0:0:0:0:
320,192,92735,1,0,0:0:0:70:LR_HiHat Synth Fast.wav
64,192,93035,1,8,0:0:0:0:
192,192,93035,1,2,0:0:0:0:
448,192,93335,1,0,0:0:0:70:LR_HiHat Synth Fast.wav
320,192,93635,1,2,0:0:0:0:
448,192,94235,1,2,0:0:0:0:
64,192,94235,1,8,0:0:0:0:
192,192,94835,1,2,0:0:0:0:
320,192,95135,1,0,0:0:0:70:LR_HiHat Synth Fast.wav
64,192,95435,1,2,0:0:0:0:
448,192,95435,1,8,0:0:0:0:
192,192,95735,1,0,0:0:0:70:LR_HiHat Synth Fast.wav
320,192,96035,1,2,0:0:0:0:
448,192,96635,1,2,0:0:0:0:
64,192,96635,1,8,0:0:0:0:
192,192,97235,1,2,0:0:0:0:
448,192,97535,1,0,0:0:0:70:LR_HiHat Synth Fast.wav
64,192,97835,1,2,0:0:0:0:
320,192,97835,1,8,0:0:0:0:
192,192,98135,1,0,0:0:0:70:LR_HiHat Synth Fast.wav
448,192,98435,1,2,0:0:0:0:
64,192,99035,1,8,0:0:0:0:
192,192,99035,1,2,0:0:0:0:
320,192,99635,1,2,0:0:0:0:
192,192,99935,1,0,0:0:0:70:LR_HiHat Synth Fast.wav
64,192,100235,1,8,0:0:0:0:
448,192,100235,1,2,0:0:0:0:
320,192,100535,1,0,0:0:0:70:LR_HiHat Synth Fast.wav
192,192,100835,128,0,103235:0:0:0:0:
320,192,103235,1,2,0:0:0:0:
448,192,103235,128,0,103835:0:0:0:0:
64,192,103835,1,0,0:0:0:40:LR_Clap hollow echo.wav
192,192,104135,1,2,0:0:0:0:
320,192,104735,1,2,0:0:0:0:
448,192,105035,1,0,0:0:0:40:LR_Clap hollow echo.wav
192,192,105635,128,2,106235:0:0:0:0:
320,192,106235,1,0,0:0:0:40:LR_Clap hollow echo.wav
448,192,106535,1,2,0:0:0:0:
64,192,107135,1,2,0:0:0:0:
192,192,107435,1,0,0:0:0:40:LR_Clap hollow echo.wav
320,192,107735,1,2,0:0:0:0:
64,192,108035,128,2,108635:0:0:0:0:
192,192,108635,1,0,0:0:0:40:LR_Clap hollow echo.wav
448,192,108935,1,2,0:0:0:0:
64,192,109535,1,2,0:0:0:0:
320,192,109835,1,0,0:0:0:40:LR_Clap hollow echo.wav
192,192,110435,128,2,111035:0:0:0:0:
320,192,111035,1,0,0:0:0:40:LR_Clap hollow echo.wav
64,192,111335,1,2,0:0:0:0:
448,192,111935,1,2,0:0:0:0:
192,192,112235,1,0,0:0:0:40:LR_Clap hollow echo.wav
320,192,112535,1,2,0:0:0:0:
448,192,112835,128,2,113435:0:0:0:0:
64,192,112835,1,0,0:0:0:0:
192,192,113435,1,0,0:0:0:40:LR_Clap hollow echo.wav
64,192,113735,1,2,0:0:0:0:
448,192,114335,1,2,0:0:0:0:
320,192,114635,1,0,0:0:0:40:LR_Clap hollow echo.wav
64,192,115235,128,2,115835:0:0:0:0:
192,192,115835,1,0,0:0:0:40:LR_Clap hollow echo.wav
320,192,116135,1,2,0:0:0:0:
64,192,116735,1,2,0:0:0:0:
448,192,117035,1,0,0:0:0:40:LR_Clap hollow echo.wav
320,192,117335,1,2,0:0:0:0:
192,192,117635,128,2,118235:0:0:0:0:
448,192,118235,1,0,0:0:0:40:LR_Clap hollow echo.wav
320,192,118535,1,2,0:0:0:0:
64,192,119135,1,2,0:0:0:0:
192,192,119435,1,0,0:0:0:40:LR_Clap hollow echo.wav
320,192,120035,128,2,120635:0:0:0:0:
64,192,120635,1,0,0:0:0:40:LR_Clap hollow echo.wav
448,192,120935,1,2,0:0:0:0:
320,192,121535,1,2,0:0:0:0:
192,192,121835,1,0,0:0:0:40:LR_Clap hollow echo.wav
448,192,122135,1,2,0:0:0:0:
320,192,122435,1,2,0:0:0:0:
64,192,122435,128,0,123035:0:0:0:0:
448,192,123035,1,0,0:0:0:40:LR_Clap hollow echo.wav
192,192,123335,1,2,0:0:0:0:
320,192,123935,1,2,0:0:0:0:
64,192,124235,1,0,0:0:0:40:LR_Clap hollow echo.wav
192,192,124535,1,2,0:0:0:0:
448,192,124835,128,2,125435:0:0:0:0:
64,192,125435,1,0,0:0:0:40:LR_Clap hollow echo.wav
320,192,125735,1,2,0:0:0:0:
192,192,126335,1,2,0:0:0:0:
448,192,126635,1,0,0:0:0:40:LR_Clap hollow echo.wav
64,192,126935,1,0,0:0:0:0:
320,192,127235,128,2,127835:0:0:0:0:
192,192,127835,1,0,0:0:0:40:LR_Clap hollow echo.wav
64,192,128135,1,2,0:0:0:0:
320,192,128735,1,2,0:0:0:0:
448,192,129035,1,0,0:0:0:40:LR_Clap hollow echo.wav
192,192,129335,1,2,0:0:0:0:
320,192,129635,128,2,130235:0:0:0:0:
64,192,130235,1,0,0:0:0:40:LR_Clap hollow echo.wav
192,192,130535,1,2,0:0:0:0:
448,192,131135,1,2,0:0:0:0:
320,192,131435,1,0,0:0:0:40:LR_Clap hollow echo.wav
192,192,131735,1,2,0:0:0:0:
64,192,132035,128,2,132635:0:0:0:0:
448,192,132035,1,0,0:0:0:30:LR_Snare Drum .wav
448,192,132635,1,0,0:0:0:40:LR_Clap hollow echo.wav
320,192,132935,1,2,0:0:0:0:
64,192,133535,1,2,0:0:0:0:
192,192,133835,1,0,0:0:0:40:LR_Clap hollow echo.wav
448,192,134435,128,2,135035:0:0:0:0:
320,192,135035,1,0,0:0:0:40:LR_Clap hollow echo.wav
192,192,135335,1,2,0:0:0:0:
448,192,135935,1,2,0:0:0:0:
64,192,136235,1,0,0:0:0:40:LR_Clap hollow echo.wav
192,192,136535,1,2,0:0:0:0:
448,192,136835,128,2,139235:0:0:0:0:
64,192,137435,1,0,0:0:0:40:LR_Clap hollow echo.wav
320,192,137735,1,2,0:0:0:0:
320,192,138335,1,2,0:0:0:0:
64,192,138635,1,0,0:0:0:40:LR_Clap hollow echo.wav
192,192,138935,1,0,0:0:0:30:LR_Snare Drum .wav
320,192,139235,1,2,0:0:0:0:
64,192,139535,1,0,0:0:0:30:LR_Snare Drum .wav
448,192,139835,1,0,0:0:0:40:LR_Clap hollow echo.wav
192,192,140135,1,2,0:0:0:0:
320,192,140435,1,0,0:0:0:30:LR_Snare Drum .wav
64,192,140735,1,2,0:0:0:0:
448,192,141035,128,0,141635:0:0:0:70:LR_Snare Drum .wav
64,192,144035,1,0,0:0:0:0:
320,192,144335,1,0,0:0:0:0:
320,192,144935,1,0,0:0:0:0:
320,192,145535,1,0,0:0:0:0:
320,192,146135,1,0,0:0:0:0:
192,192,146435,1,0,0:0:0:0:
448,192,146735,1,0,0:0:0:0:
448,192,147335,1,0,0:0:0:0:
448,192,147935,1,0,0:0:0:0:
448,192,148535,1,0,0:0:0:0:
320,192,148835,1,0,0:0:0:0:
64,192,149135,1,0,0:0:0:0:
64,192,149735,1,0,0:0:0:0:
64,192,150335,1,0,0:0:0:0:
64,192,150935,1,0,0:0:0:0:
448,192,151235,1,0,0:0:0:0:
192,192,151535,1,0,0:0:0:0:
192,192,152135,1,0,0:0:0:0:
192,192,152735,1,0,0:0:0:0:
192,192,153335,1,0,0:0:0:0:
64,192,153635,1,0,0:0:0:0:
448,192,153935,1,0,0:0:0:0:
192,192,154235,1,0,0:0:0:40:LR_Clap hollow echo.wav
448,192,154535,1,0,0:0:0:0:
448,192,155135,1,0,0:0:0:0:
192,192,155435,1,0,0:0:0:40:LR_Clap hollow echo.wav
448,192,155735,1,0,0:0:0:0:
320,192,156035,1,0,0:0:0:0:
192,192,156335,1,0,0:0:0:0:
448,192,156635,1,0,0:0:0:40:LR_Clap hollow echo.wav
192,192,156935,1,0,0:0:0:0:
192,192,157535,1,0,0:0:0:0:
448,192,157835,1,0,0:0:0:40:LR_Clap hollow echo.wav
192,192,158135,1,0,0:0:0:0:
64,192,158435,1,0,0:0:0:0:
320,192,158735,1,0,0:0:0:0:
192,192,159035,1,0,0:0:0:40:LR_Clap hollow echo.wav
320,192,159335,1,0,0:0:0:0:
320,192,159935,1,0,0:0:0:0:
192,192,160235,1,0,0:0:0:40:LR_Clap hollow echo.wav
320,192,160535,1,0,0:0:0:0:
448,192,160835,1,0,0:0:0:0:
64,192,161135,1,0,0:0:0:0:
320,192,161435,1,0,0:0:0:40:LR_Clap hollow echo.wav
64,192,161735,1,0,0:0:0:0:
64,192,162335,1,0,0:0:0:0:
320,192,162635,1,0,0:0:0:40:LR_Clap hollow echo.wav
64,192,162935,1,0,0:0:0:0:
192,192,163235,1,0,0:0:0:0:
448,192,163535,1,0,0:0:0:0:
448,192,164135,1,0,0:0:0:0:
448,192,164735,1,0,0:0:0:0:
192,192,165035,1,0,0:0:0:0:
448,192,165335,1,0,0:0:0:0:
320,192,165635,1,0,0:0:0:0:
64,192,165935,1,0,0:0:0:0:
64,192,166535,1,0,0:0:0:0:
64,192,167135,1,0,0:0:0:0:
320,192,167435,1,0,0:0:0:0:
64,192,167735,1,0,0:0:0:0:
448,192,168035,1,0,0:0:0:0:
192,192,168335,1,0,0:0:0:0:
192,192,168935,1,0,0:0:0:0:
192,192,169535,1,0,0:0:0:0:
448,192,169835,1,0,0:0:0:0:
192,192,170135,1,0,0:0:0:0:
64,192,170435,1,0,0:0:0:0:
320,192,170735,1,0,0:0:0:0:
320,192,171335,1,0,0:0:0:0:
64,192,171635,1,0,0:0:0:0:
320,192,171935,1,0,0:0:0:0:
448,192,172235,128,0,172835:0:0:0:0:
320,192,172535,1,0,0:0:0:0:
192,192,172835,1,2,0:0:0:0:
64,192,172835,1,0,0:0:0:0:
320,192,173435,1,2,0:0:0:0:
448,192,173435,1,8,0:0:0:0:
192,192,174035,1,2,0:0:0:0:
64,192,174635,1,2,0:0:0:0:
448,192,174635,1,8,0:0:0:0:
320,192,174935,1,0,0:0:0:70:LR_HiHat Synth Fast.wav
192,192,175235,1,2,0:0:0:0:
320,192,175835,1,8,0:0:0:0:
448,192,175835,1,2,0:0:0:0:
64,192,176435,1,2,0:0:0:0:
320,192,177035,1,8,0:0:0:0:
448,192,177035,1,2,0:0:0:0:
192,192,177335,1,0,0:0:0:70:LR_HiHat Synth Fast.wav
64,192,177635,1,2,0:0:0:0:
192,192,178235,1,2,0:0:0:0:
448,192,178235,1,8,0:0:0:0:
320,192,178835,1,2,0:0:0:0:
448,192,179435,1,2,0:0:0:0:
192,192,179435,1,8,0:0:0:0:
64,192,179735,1,0,0:0:0:70:LR_HiHat Synth Fast.wav
320,192,180035,1,2,0:0:0:0:
64,192,180635,1,8,0:0:0:0:
448,192,180635,1,2,0:0:0:0:
192,192,181235,1,2,0:0:0:0:
64,192,181835,1,8,0:0:0:0:
448,192,181835,1,2,0:0:0:0:
320,192,182135,1,0,0:0:0:70:LR_HiHat Synth Fast.wav
192,192,182435,1,2,0:0:0:0:
448,192,183035,1,2,0:0:0:0:
64,192,183035,1,8,0:0:0:0:
320,192,183635,1,2,0:0:0:0:
192,192,184235,1,2,0:0:0:0:
64,192,184235,1,8,0:0:0:0:
320,192,184535,1,0,0:0:0:70:LR_HiHat Synth Fast.wav
448,192,184835,1,2,0:0:0:0:
192,192,185435,1,8,0:0:0:0:
64,192,185435,1,2,0:0:0:0:
320,192,186035,1,2,0:0:0:0:
448,192,186635,1,8,0:0:0:0:
64,192,186635,1,2,0:0:0:0:
192,192,186935,1,0,0:0:0:70:LR_HiHat Synth Fast.wav
320,192,187235,1,2,0:0:0:0:
64,192,187835,1,2,0:0:0:0:
448,192,187835,1,8,0:0:0:0:
192,192,188435,1,2,0:0:0:0:
64,192,189035,1,2,0:0:0:0:
320,192,189035,1,8,0:0:0:0:
448,192,189335,1,0,0:0:0:70:LR_HiHat Synth Fast.wav
192,192,189635,1,2,0:0:0:0:
64,192,190235,1,8,0:0:0:0:
320,192,190235,1,2,0:0:0:0:
448,192,190835,1,2,0:0:0:0:
192,192,191435,1,8,0:0:0:0:
64,192,191435,1,2,0:0:0:0:
320,192,191735,1,0,0:0:0:0:
64,192,192035,1,2,0:0:0:0:
448,192,192035,1,0,0:0:0:0:
192,192,192335,1,0,0:0:0:70:LR_HiHat Synth Fast.wav
320,192,192635,1,2,0:0:0:0:
64,192,192935,1,0,0:0:0:70:LR_HiHat Synth Fast.wav
192,192,193235,1,2,0:0:0:0:
448,192,193835,1,2,0:0:0:0:
320,192,193835,1,8,0:0:0:0:
64,192,194435,1,2,0:0:0:0:
192,192,194735,1,0,0:0:0:70:LR_HiHat Synth Fast.wav
320,192,195035,1,8,0:0:0:0:
64,192,195035,1,2,0:0:0:0:
448,192,195335,1,0,0:0:0:70:LR_HiHat Synth Fast.wav
192,192,195635,1,2,0:0:0:0:
64,192,196235,1,8,0:0:0:0:
320,192,196235,1,2,0:0:0:0:
448,192,196835,1,2,0:0:0:0:
320,192,197135,1,0,0:0:0:70:LR_HiHat Synth Fast.wav
64,192,197435,1,2,0:0:0:0:
192,192,197435,1,8,0:0:0:0:
448,192,197735,1,0,0:0:0:70:LR_HiHat Synth Fast.wav
320,192,198035,1,2,0:0:0:0:
448,192,198635,1,2,0:0:0:0:
64,192,198635,1,8,0:0:0:0:
192,192,199235,1,2,0:0:0:0:
64,192,199535,1,0,0:0:0:70:LR_HiHat Synth Fast.wav
448,192,199835,1,8,0:0:0:0:
320,192,199835,1,2,0:0:0:0:
192,192,200135,1,0,0:0:0:70:LR_HiHat Synth Fast.wav
64,192,200435,1,2,0:0:0:0:
320,192,201035,1,8,0:0:0:0:
448,192,201035,1,2,0:0:0:0:
64,192,201635,1,2,0:0:0:0:
192,192,201935,1,0,0:0:0:70:LR_HiHat Synth Fast.wav
448,192,202235,1,2,0:0:0:0:
320,192,202235,1,8,0:0:0:0:
64,192,202535,1,0,0:0:0:70:LR_HiHat Synth Fast.wav
192,192,202835,1,2,0:0:0:0:
64,192,203435,1,2,0:0:0:0:
320,192,203435,1,8,0:0:0:0:
448,192,204035,1,2,0:0:0:0:
64,192,204335,1,0,0:0:0:70:LR_HiHat Synth Fast.wav
192,192,204635,1,8,0:0:0:0:
320,192,204635,1,2,0:0:0:0:
448,192,204935,1,0,0:0:0:70:LR_HiHat Synth Fast.wav
64,192,205235,1,2,0:0:0:0:
192,192,205835,1,8,0:0:0:0:
448,192,205835,1,2,0:0:0:0:
320,192,206435,1,2,0:0:0:0:
192,192,206735,1,0,0:0:0:70:LR_HiHat Synth Fast.wav
448,192,207035,1,2,0:0:0:0:
64,192,207035,1,8,0:0:0:0:
320,192,207335,1,0,0:0:0:70:LR_HiHat Synth Fast.wav
192,192,207635,1,2,0:0:0:0:
320,192,208235,1,2,0:0:0:0:
448,192,208235,1,8,0:0:0:0:
64,192,208835,1,2,0:0:0:0:
448,192,209135,1,0,0:0:0:70:LR_HiHat Synth Fast.wav
64,192,209435,1,8,0:0:0:0:
320,192,209435,1,2,0:0:0:0:
192,192,209735,1,0,0:0:0:70:LR_HiHat Synth Fast.wav
448,192,210035,1,2,0:0:0:0:
320,192,210335,1,0,0:0:0:70:LR_HiHat Synth Fast.wav
192,192,210635,1,8,0:0:0:0:
64,192,210635,1,2,0:0:0:0:
448,192,210935,1,0,0:0:0:70:LR_HiHat Synth Fast.wav
