osu file format v14

[General]
AudioFilename: audio120.mp3
AudioLeadIn: 0
PreviewTime: -1
Countdown: 0
SampleSet: None
StackLeniency: 0.7
Mode: 3
LetterboxInBreaks: 0
SpecialStyle: 0
WidescreenStoryboard: 0

[Editor]
DistanceSpacing: 0.8
BeatDivisor: 2
GridSize: 32
TimelineZoom: 1

[Metadata]
Title:Wakamo trying to break into your house (ASMR)
TitleUnicode:Wakamo trying to break into your house (ASMR)
Artist:HansTNO
ArtistUnicode:HansTNO
Creator:MowseChow
Version:wakamo asmr [1.2x Rate]
Source:
Tags:blue archive meme asmr Wakamo trying to break into your house (ASMR) 4k etterna stepmania convert
BeatmapID:4556705
BeatmapSetID:2160815

[Difficulty]
HPDrainRate:7
CircleSize:4
OverallDifficulty:8
ApproachRate:5
SliderMultiplier:1.4
SliderTickRate:1

[Events]
//Background and Video events
0,0,"bg.png",0,0
//Break Periods
//Storyboard Layer 0 (Background)
//Storyboard Layer 1 (Fail)
//Storyboard Layer 2 (Pass)
//Storyboard Layer 3 (Foreground)
//Storyboard Layer 4 (Overlay)
//Storyboard Sound Samples

[TimingPoints]
1074,313.177245833333,4,2,0,100,1,0

[HitObjects]
64,192,135,5,0,0:0:0:0:
192,192,135,1,0,0:0:0:0:
448,192,135,1,0,0:0:0:0:
64,192,292,1,0,0:0:0:0:
320,192,292,1,0,0:0:0:0:
64,192,448,1,0,0:0:0:0:
192,192,448,1,0,0:0:0:0:
320,192,448,1,0,0:0:0:0:
448,192,448,1,0,0:0:0:0:
64,192,1309,1,0,0:0:0:0:
448,192,1309,1,0,0:0:0:0:
64,192,1544,1,0,0:0:0:0:
448,192,1544,1,0,0:0:0:0:
64,192,1779,1,0,0:0:0:0:
448,192,1779,1,0,0:0:0:0:
64,192,2640,1,0,0:0:0:0:
320,192,2679,1,0,0:0:0:0:
192,192,2718,1,0,0:0:0:0:
448,192,2758,1,0,0:0:0:0:
320,192,2797,1,0,0:0:0:0:
64,192,2836,1,0,0:0:0:0:
192,192,2875,1,0,0:0:0:0:
448,192,2914,1,0,0:0:0:0:
320,192,2953,1,0,0:0:0:0:
64,192,3032,1,0,0:0:0:0:
192,192,3032,1,0,0:0:0:0:
320,192,3110,1,0,0:0:0:0:
448,192,3110,1,0,0:0:0:0:
64,192,3228,1,0,0:0:0:0:
192,192,3228,1,0,0:0:0:0:
64,192,3580,1,0,0:0:0:0:
448,192,3580,1,0,0:0:0:0:
192,192,3684,1,0,0:0:0:0:
320,192,3684,1,0,0:0:0:0:
64,192,3893,128,0,4049:0:0:0:0:
448,192,3893,128,0,4049:0:0:0:0:
64,192,5459,1,0,0:0:0:0:
192,192,5459,1,0,0:0:0:0:
320,192,5459,1,0,0:0:0:0:
448,192,5459,1,0,0:0:0:0:
64,192,5668,1,0,0:0:0:0:
192,192,5668,1,0,0:0:0:0:
320,192,5668,1,0,0:0:0:0:
448,192,5668,1,0,0:0:0:0:
192,192,5824,1,0,0:0:0:0:
320,192,5824,1,0,0:0:0:0:
448,192,5824,1,0,0:0:0:0:
64,192,6033,1,0,0:0:0:0:
192,192,6033,1,0,0:0:0:0:
448,192,6033,1,0,0:0:0:0:
64,192,6242,1,0,0:0:0:0:
192,192,6242,1,0,0:0:0:0:
320,192,6242,1,0,0:0:0:0:
448,192,6242,1,0,0:0:0:0:
64,192,7416,1,0,0:0:0:0:
320,192,7494,1,0,0:0:0:0:
448,192,7494,1,0,0:0:0:0:
64,192,7572,1,0,0:0:0:0:
192,192,7651,1,0,0:0:0:0:
320,192,7651,1,0,0:0:0:0:
448,192,7729,1,0,0:0:0:0:
64,192,7808,1,0,0:0:0:0:
192,192,7808,1,0,0:0:0:0:
448,192,7886,1,0,0:0:0:0:
192,192,7964,1,0,0:0:0:0:
320,192,7964,1,0,0:0:0:0:
448,192,8042,1,0,0:0:0:0:
64,192,8121,1,0,0:0:0:0:
192,192,8121,1,0,0:0:0:0:
448,192,8199,1,0,0:0:0:0:
192,192,8278,1,0,0:0:0:0:
320,192,8278,1,0,0:0:0:0:
64,192,8356,1,0,0:0:0:0:
320,192,8434,1,0,0:0:0:0:
448,192,8434,1,0,0:0:0:0:
64,192,8512,1,0,0:0:0:0:
192,192,8591,1,0,0:0:0:0:
320,192,8591,1,0,0:0:0:0:
64,192,10235,1,0,0:0:0:0:
448,192,10235,1,0,0:0:0:0:
64,192,10392,1,0,0:0:0:0:
448,192,10392,1,0,0:0:0:0:
64,192,10548,128,0,10782:0:0:0:0:
448,192,10548,128,0,10782:0:0:0:0:
192,192,12610,1,0,0:0:0:0:
320,192,12610,1,0,0:0:0:0:
448,192,12610,1,0,0:0:0:0:
64,192,12818,1,0,0:0:0:0:
320,192,12818,1,0,0:0:0:0:
448,192,12818,1,0,0:0:0:0:
64,192,12975,1,0,0:0:0:0:
192,192,12975,1,0,0:0:0:0:
320,192,12975,1,0,0:0:0:0:
64,192,13171,1,0,0:0:0:0:
320,192,13171,1,0,0:0:0:0:
448,192,13171,1,0,0:0:0:0:
64,192,13367,1,0,0:0:0:0:
192,192,13367,1,0,0:0:0:0:
448,192,13367,1,0,0:0:0:0:
64,192,14384,1,0,0:0:0:0:
192,192,14384,1,0,0:0:0:0:
448,192,14462,1,0,0:0:0:0:
192,192,14541,1,0,0:0:0:0:
320,192,14541,1,0,0:0:0:0:
64,192,14619,1,0,0:0:0:0:
320,192,14698,1,0,0:0:0:0:
448,192,14698,1,0,0:0:0:0:
64,192,14776,1,0,0:0:0:0:
192,192,14854,1,0,0:0:0:0:
320,192,14854,1,0,0:0:0:0:
448,192,14932,1,0,0:0:0:0:
64,192,15011,1,0,0:0:0:0:
192,192,15011,1,0,0:0:0:0:
320,192,15011,1,0,0:0:0:0:
64,192,16994,1,0,0:0:0:0:
192,192,16994,1,0,0:0:0:0:
320,192,16994,1,0,0:0:0:0:
192,192,17203,1,0,0:0:0:0:
320,192,17203,1,0,0:0:0:0:
448,192,17203,1,0,0:0:0:0:
64,192,17360,1,0,0:0:0:0:
192,192,17360,1,0,0:0:0:0:
448,192,17360,1,0,0:0:0:0:
64,192,17568,1,0,0:0:0:0:
320,192,17568,1,0,0:0:0:0:
448,192,17568,1,0,0:0:0:0:
64,192,17778,1,0,0:0:0:0:
192,192,17778,1,0,0:0:0:0:
320,192,17778,1,0,0:0:0:0:
448,192,17778,1,0,0:0:0:0:
64,192,18403,1,0,0:0:0:0:
320,192,18456,1,0,0:0:0:0:
192,192,18508,1,0,0:0:0:0:
64,192,18560,1,0,0:0:0:0:
320,192,18612,1,0,0:0:0:0:
448,192,18612,1,0,0:0:0:0:
64,192,19134,1,0,0:0:0:0:
448,192,19134,1,0,0:0:0:0:
64,192,19291,1,0,0:0:0:0:
448,192,19291,1,0,0:0:0:0:
64,192,19500,1,0,0:0:0:0:
448,192,19500,1,0,0:0:0:0:
192,192,19552,1,0,0:0:0:0:
320,192,19604,1,0,0:0:0:0:
192,192,19656,1,0,0:0:0:0:
320,192,19708,1,0,0:0:0:0:
64,192,19761,1,0,0:0:0:0:
448,192,19761,1,0,0:0:0:0:
192,192,19865,1,0,0:0:0:0:
64,192,20022,1,0,0:0:0:0:
448,192,20022,1,0,0:0:0:0:
64,192,20178,1,0,0:0:0:0:
448,192,20178,1,0,0:0:0:0:
64,192,20726,1,0,0:0:0:0:
192,192,20804,1,0,0:0:0:0:
320,192,20804,1,0,0:0:0:0:
64,192,20882,1,0,0:0:0:0:
320,192,20961,1,0,0:0:0:0:
448,192,20961,1,0,0:0:0:0:
192,192,21039,1,0,0:0:0:0:
320,192,21118,1,0,0:0:0:0:
448,192,21118,1,0,0:0:0:0:
64,192,21196,1,0,0:0:0:0:
192,192,21274,1,0,0:0:0:0:
448,192,21274,1,0,0:0:0:0:
320,192,21352,1,0,0:0:0:0:
64,192,21431,1,0,0:0:0:0:
192,192,21431,1,0,0:0:0:0:
448,192,21509,1,0,0:0:0:0:
192,192,21588,1,0,0:0:0:0:
320,192,21588,1,0,0:0:0:0:
64,192,21666,1,0,0:0:0:0:
320,192,21744,1,0,0:0:0:0:
448,192,21744,1,0,0:0:0:0:
64,192,21822,1,0,0:0:0:0:
192,192,21901,1,0,0:0:0:0:
448,192,21901,1,0,0:0:0:0:
320,192,21979,1,0,0:0:0:0:
64,192,22058,1,0,0:0:0:0:
192,192,22058,1,0,0:0:0:0:
64,192,24719,1,0,0:0:0:0:
320,192,24798,1,0,0:0:0:0:
64,192,24876,1,0,0:0:0:0:
192,192,24902,1,0,0:0:0:0:
448,192,24928,1,0,0:0:0:0:
64,192,24954,1,0,0:0:0:0:
320,192,24980,1,0,0:0:0:0:
192,192,25007,1,0,0:0:0:0:
64,192,25032,1,0,0:0:0:0:
448,192,25058,1,0,0:0:0:0:
192,192,25085,1,0,0:0:0:0:
320,192,25111,1,0,0:0:0:0:
64,192,25137,1,0,0:0:0:0:
192,192,25163,1,0,0:0:0:0:
448,192,25189,1,0,0:0:0:0:
64,192,25215,1,0,0:0:0:0:
320,192,25241,1,0,0:0:0:0:
192,192,25268,1,0,0:0:0:0:
448,192,25293,1,0,0:0:0:0:
320,192,25319,1,0,0:0:0:0:
64,192,25346,1,0,0:0:0:0:
192,192,25372,1,0,0:0:0:0:
448,192,25398,1,0,0:0:0:0:
64,192,25424,1,0,0:0:0:0:
320,192,25450,1,0,0:0:0:0:
448,192,25476,1,0,0:0:0:0:
192,192,25502,1,0,0:0:0:0:
64,192,25528,1,0,0:0:0:0:
448,192,25554,1,0,0:0:0:0:
192,192,25581,1,0,0:0:0:0:
320,192,25607,1,0,0:0:0:0:
64,192,25632,1,0,0:0:0:0:
192,192,25659,1,0,0:0:0:0:
448,192,25685,1,0,0:0:0:0:
64,192,25711,1,0,0:0:0:0:
320,192,25738,1,0,0:0:0:0:
192,192,25763,1,0,0:0:0:0:
64,192,25789,1,0,0:0:0:0:
320,192,25815,1,0,0:0:0:0:
448,192,25815,1,0,0:0:0:0:
64,192,25932,1,0,0:0:0:0:
448,192,25932,1,0,0:0:0:0:
64,192,26207,1,0,0:0:0:0:
448,192,26207,1,0,0:0:0:0:
64,192,26402,1,0,0:0:0:0:
448,192,26402,1,0,0:0:0:0:
64,192,27264,1,0,0:0:0:0:
448,192,27264,1,0,0:0:0:0:
320,192,27303,1,0,0:0:0:0:
192,192,27342,1,0,0:0:0:0:
64,192,27382,1,0,0:0:0:0:
320,192,27420,1,0,0:0:0:0:
448,192,27420,1,0,0:0:0:0:
64,192,27577,1,0,0:0:0:0:
192,192,27577,1,0,0:0:0:0:
320,192,27772,1,0,0:0:0:0:
448,192,27772,1,0,0:0:0:0:
64,192,27851,1,0,0:0:0:0:
192,192,27851,1,0,0:0:0:0:
320,192,27929,1,0,0:0:0:0:
64,192,28008,1,0,0:0:0:0:
192,192,28008,1,0,0:0:0:0:
320,192,28164,1,0,0:0:0:0:
448,192,28164,1,0,0:0:0:0:
192,192,28242,1,0,0:0:0:0:
64,192,28321,1,0,0:0:0:0:
320,192,28321,1,0,0:0:0:0:
448,192,28399,1,0,0:0:0:0:
192,192,28478,1,0,0:0:0:0:
320,192,28478,1,0,0:0:0:0:
64,192,29338,1,0,0:0:0:0:
192,192,29417,1,0,0:0:0:0:
64,192,29443,1,0,0:0:0:0:
320,192,29469,1,0,0:0:0:0:
192,192,29495,1,0,0:0:0:0:
448,192,29522,1,0,0:0:0:0:
320,192,29548,1,0,0:0:0:0:
64,192,29573,1,0,0:0:0:0:
192,192,29600,1,0,0:0:0:0:
448,192,29626,1,0,0:0:0:0:
64,192,29652,1,0,0:0:0:0:
320,192,29678,1,0,0:0:0:0:
192,192,29704,1,0,0:0:0:0:
448,192,29730,1,0,0:0:0:0:
320,192,29756,1,0,0:0:0:0:
64,192,29782,1,0,0:0:0:0:
192,192,29808,1,0,0:0:0:0:
448,192,29834,1,0,0:0:0:0:
64,192,29861,1,0,0:0:0:0:
320,192,29887,1,0,0:0:0:0:
192,192,29912,1,0,0:0:0:0:
64,192,29939,1,0,0:0:0:0:
448,192,29965,1,0,0:0:0:0:
192,192,29991,1,0,0:0:0:0:
320,192,30018,1,0,0:0:0:0:
448,192,30043,1,0,0:0:0:0:
64,192,30069,1,0,0:0:0:0:
320,192,30096,1,0,0:0:0:0:
192,192,30122,1,0,0:0:0:0:
448,192,30148,1,0,0:0:0:0:
320,192,30174,1,0,0:0:0:0:
64,192,30200,1,0,0:0:0:0:
192,192,30226,1,0,0:0:0:0:
448,192,30252,1,0,0:0:0:0:
320,192,30278,1,0,0:0:0:0:
64,192,30304,1,0,0:0:0:0:
192,192,30330,1,0,0:0:0:0:
448,192,30357,1,0,0:0:0:0:
320,192,30382,1,0,0:0:0:0:
192,192,30408,1,0,0:0:0:0:
64,192,30435,1,0,0:0:0:0:
320,192,30461,1,0,0:0:0:0:
192,192,30487,1,0,0:0:0:0:
448,192,30513,1,0,0:0:0:0:
320,192,30539,1,0,0:0:0:0:
64,192,30565,1,0,0:0:0:0:
192,192,30592,1,0,0:0:0:0:
448,192,30618,1,0,0:0:0:0:
64,192,30643,1,0,0:0:0:0:
320,192,30670,1,0,0:0:0:0:
192,192,30696,1,0,0:0:0:0:
64,192,30722,1,0,0:0:0:0:
448,192,30748,1,0,0:0:0:0:
192,192,30774,1,0,0:0:0:0:
320,192,30800,1,0,0:0:0:0:
448,192,30826,1,0,0:0:0:0:
192,192,30852,1,0,0:0:0:0:
320,192,30878,1,0,0:0:0:0:
64,192,30904,1,0,0:0:0:0:
192,192,30931,1,0,0:0:0:0:
448,192,30957,1,0,0:0:0:0:
320,192,30982,1,0,0:0:0:0:
192,192,31009,1,0,0:0:0:0:
64,192,31035,1,0,0:0:0:0:
320,192,31061,1,0,0:0:0:0:
448,192,31088,1,0,0:0:0:0:
192,192,31113,1,0,0:0:0:0:
320,192,31139,1,0,0:0:0:0:
64,192,31166,1,0,0:0:0:0:
192,192,31192,1,0,0:0:0:0:
448,192,31218,1,0,0:0:0:0:
64,192,31244,1,0,0:0:0:0:
320,192,31270,1,0,0:0:0:0:
192,192,31296,1,0,0:0:0:0:
64,192,31322,1,0,0:0:0:0:
448,192,31348,1,0,0:0:0:0:
192,192,31374,1,0,0:0:0:0:
320,192,31400,1,0,0:0:0:0:
448,192,31427,1,0,0:0:0:0:
64,192,31452,1,0,0:0:0:0:
320,192,31478,1,0,0:0:0:0:
192,192,31505,1,0,0:0:0:0:
448,192,31531,1,0,0:0:0:0:
64,192,31557,1,0,0:0:0:0:
320,192,31557,1,0,0:0:0:0:
192,192,31583,1,0,0:0:0:0:
448,192,31609,1,0,0:0:0:0:
320,192,31635,1,0,0:0:0:0:
64,192,31662,1,0,0:0:0:0:
192,192,31688,1,0,0:0:0:0:
448,192,31713,1,0,0:0:0:0:
64,192,31740,1,0,0:0:0:0:
320,192,31766,1,0,0:0:0:0:
192,192,31792,1,0,0:0:0:0:
64,192,31818,1,0,0:0:0:0:
448,192,31844,1,0,0:0:0:0:
192,192,31870,1,0,0:0:0:0:
320,192,31896,1,0,0:0:0:0:
448,192,31922,1,0,0:0:0:0:
192,192,31948,1,0,0:0:0:0:
64,192,31974,1,0,0:0:0:0:
320,192,32001,1,0,0:0:0:0:
192,192,32027,1,0,0:0:0:0:
448,192,32052,1,0,0:0:0:0:
320,192,32079,1,0,0:0:0:0:
64,192,32105,1,0,0:0:0:0:
192,192,32131,1,0,0:0:0:0:
320,192,32158,1,0,0:0:0:0:
448,192,32183,1,0,0:0:0:0:
192,192,32209,1,0,0:0:0:0:
320,192,32236,1,0,0:0:0:0:
64,192,32262,1,0,0:0:0:0:
192,192,32288,1,0,0:0:0:0:
448,192,32314,1,0,0:0:0:0:
64,192,32340,1,0,0:0:0:0:
320,192,32366,1,0,0:0:0:0:
192,192,32392,1,0,0:0:0:0:
64,192,32418,1,0,0:0:0:0:
448,192,32444,1,0,0:0:0:0:
192,192,32470,1,0,0:0:0:0:
320,192,32497,1,0,0:0:0:0:
448,192,32522,1,0,0:0:0:0:
64,192,32548,1,0,0:0:0:0:
320,192,32575,1,0,0:0:0:0:
192,192,32601,1,0,0:0:0:0:
64,192,32627,1,0,0:0:0:0:
448,192,32653,1,0,0:0:0:0:
192,192,32679,1,0,0:0:0:0:
64,192,32705,1,0,0:0:0:0:
320,192,32705,1,0,0:0:0:0:
64,192,33018,1,0,0:0:0:0:
192,192,33018,1,0,0:0:0:0:
320,192,33018,1,0,0:0:0:0:
448,192,33018,1,0,0:0:0:0:
64,192,33175,1,0,0:0:0:0:
192,192,33175,1,0,0:0:0:0:
320,192,33175,1,0,0:0:0:0:
192,192,33332,1,0,0:0:0:0:
320,192,33332,1,0,0:0:0:0:
448,192,33332,1,0,0:0:0:0:
64,192,33488,1,0,0:0:0:0:
192,192,33488,1,0,0:0:0:0:
320,192,33488,1,0,0:0:0:0:
64,192,35211,1,0,0:0:0:0:
192,192,35289,1,0,0:0:0:0:
448,192,35341,1,0,0:0:0:0:
320,192,35368,1,0,0:0:0:0:
64,192,35393,1,0,0:0:0:0:
192,192,35419,1,0,0:0:0:0:
448,192,35446,1,0,0:0:0:0:
320,192,35472,1,0,0:0:0:0:
192,192,35498,1,0,0:0:0:0:
64,192,35524,1,0,0:0:0:0:
320,192,35550,1,0,0:0:0:0:
448,192,35576,1,0,0:0:0:0:
192,192,35602,1,0,0:0:0:0:
320,192,35628,1,0,0:0:0:0:
64,192,35654,1,0,0:0:0:0:
192,192,35681,1,0,0:0:0:0:
448,192,35707,1,0,0:0:0:0:
64,192,35732,1,0,0:0:0:0:
320,192,35759,1,0,0:0:0:0:
192,192,35785,1,0,0:0:0:0:
448,192,35811,1,0,0:0:0:0:
320,192,35837,1,0,0:0:0:0:
64,192,35863,1,0,0:0:0:0:
192,192,35889,1,0,0:0:0:0:
320,192,35915,1,0,0:0:0:0:
448,192,35942,1,0,0:0:0:0:
192,192,35968,1,0,0:0:0:0:
64,192,35993,1,0,0:0:0:0:
320,192,36020,1,0,0:0:0:0:
192,192,36046,1,0,0:0:0:0:
448,192,36072,1,0,0:0:0:0:
320,192,36098,1,0,0:0:0:0:
64,192,36124,1,0,0:0:0:0:
192,192,36150,1,0,0:0:0:0:
448,192,36177,1,0,0:0:0:0:
64,192,36202,1,0,0:0:0:0:
320,192,36228,1,0,0:0:0:0:
192,192,36255,1,0,0:0:0:0:
448,192,36281,1,0,0:0:0:0:
64,192,36463,128,0,36777:0:0:0:0:
448,192,36463,128,0,36777:0:0:0:0:
64,192,37455,1,0,0:0:0:0:
320,192,37508,1,0,0:0:0:0:
448,192,37508,1,0,0:0:0:0:
192,192,37559,1,0,0:0:0:0:
64,192,37612,1,0,0:0:0:0:
320,192,37612,1,0,0:0:0:0:
448,192,37664,1,0,0:0:0:0:
192,192,37716,1,0,0:0:0:0:
320,192,37716,1,0,0:0:0:0:
64,192,37768,1,0,0:0:0:0:
192,192,37821,1,0,0:0:0:0:
448,192,37821,1,0,0:0:0:0:
320,192,37872,1,0,0:0:0:0:
64,192,37925,1,0,0:0:0:0:
192,192,37925,1,0,0:0:0:0:
448,192,37978,1,0,0:0:0:0:
192,192,38029,1,0,0:0:0:0:
320,192,38029,1,0,0:0:0:0:
64,192,38969,128,0,39021:0:0:0:0:
448,192,38969,128,0,39021:0:0:0:0:
64,192,39178,1,0,0:0:0:0:
448,192,39178,1,0,0:0:0:0:
192,192,39230,1,0,0:0:0:0:
64,192,39282,1,0,0:0:0:0:
320,192,39282,1,0,0:0:0:0:
448,192,39334,1,0,0:0:0:0:
192,192,39387,1,0,0:0:0:0:
320,192,39387,1,0,0:0:0:0:
64,192,39438,1,0,0:0:0:0:
192,192,39491,1,0,0:0:0:0:
448,192,39491,1,0,0:0:0:0:
320,192,39543,1,0,0:0:0:0:
64,192,39595,1,0,0:0:0:0:
192,192,39595,1,0,0:0:0:0:
64,192,39752,1,0,0:0:0:0:
448,192,39752,1,0,0:0:0:0:
192,192,39804,1,0,0:0:0:0:
320,192,39856,1,0,0:0:0:0:
64,192,39908,1,0,0:0:0:0:
192,192,39908,1,0,0:0:0:0:
448,192,39961,1,0,0:0:0:0:
192,192,40012,1,0,0:0:0:0:
320,192,40012,1,0,0:0:0:0:
64,192,40273,128,0,40482:0:0:0:0:
448,192,40273,128,0,40482:0:0:0:0:
64,192,41578,1,0,0:0:0:0:
192,192,41578,1,0,0:0:0:0:
320,192,41578,1,0,0:0:0:0:
448,192,41578,1,0,0:0:0:0:
192,192,41788,1,0,0:0:0:0:
320,192,41788,1,0,0:0:0:0:
448,192,41788,1,0,0:0:0:0:
64,192,41944,1,0,0:0:0:0:
192,192,41944,1,0,0:0:0:0:
448,192,41944,1,0,0:0:0:0:
64,192,42152,1,0,0:0:0:0:
320,192,42152,1,0,0:0:0:0:
448,192,42152,1,0,0:0:0:0:
64,192,42362,1,0,0:0:0:0:
192,192,42362,1,0,0:0:0:0:
320,192,42362,1,0,0:0:0:0:
448,192,42362,1,0,0:0:0:0:
64,192,43432,1,0,0:0:0:0:
192,192,43510,1,0,0:0:0:0:
448,192,43510,1,0,0:0:0:0:
320,192,43588,1,0,0:0:0:0:
64,192,43667,1,0,0:0:0:0:
192,192,43667,1,0,0:0:0:0:
320,192,43745,1,0,0:0:0:0:
192,192,43823,1,0,0:0:0:0:
448,192,43823,1,0,0:0:0:0:
64,192,43902,1,0,0:0:0:0:
320,192,43980,1,0,0:0:0:0:
448,192,43980,1,0,0:0:0:0:
64,192,44188,1,0,0:0:0:0:
192,192,44188,1,0,0:0:0:0:
448,192,44241,1,0,0:0:0:0:
192,192,44292,1,0,0:0:0:0:
320,192,44292,1,0,0:0:0:0:
64,192,44345,1,0,0:0:0:0:
320,192,44398,1,0,0:0:0:0:
448,192,44398,1,0,0:0:0:0:
64,192,44449,1,0,0:0:0:0:
192,192,44502,1,0,0:0:0:0:
448,192,44502,1,0,0:0:0:0:
320,192,44554,1,0,0:0:0:0:
64,192,44606,1,0,0:0:0:0:
192,192,44606,1,0,0:0:0:0:
64,192,44710,1,0,0:0:0:0:
448,192,44710,1,0,0:0:0:0:
64,192,45754,1,0,0:0:0:0:
192,192,45754,1,0,0:0:0:0:
448,192,45754,1,0,0:0:0:0:
64,192,45858,1,0,0:0:0:0:
192,192,45858,1,0,0:0:0:0:
320,192,45858,1,0,0:0:0:0:
448,192,45858,1,0,0:0:0:0:
64,192,45963,1,0,0:0:0:0:
320,192,45963,1,0,0:0:0:0:
448,192,45963,1,0,0:0:0:0:
64,192,46068,1,0,0:0:0:0:
192,192,46068,1,0,0:0:0:0:
448,192,46068,1,0,0:0:0:0:
64,192,46172,1,0,0:0:0:0:
192,192,46172,1,0,0:0:0:0:
320,192,46172,1,0,0:0:0:0:
448,192,46172,1,0,0:0:0:0:
64,192,46851,1,0,0:0:0:0:
448,192,46851,1,0,0:0:0:0:
64,192,47033,1,0,0:0:0:0:
448,192,47033,1,0,0:0:0:0:
192,192,47112,1,0,0:0:0:0:
320,192,47112,1,0,0:0:0:0:
448,192,47190,1,0,0:0:0:0:
64,192,47268,1,0,0:0:0:0:
320,192,47268,1,0,0:0:0:0:
64,192,48129,128,0,48208:0:0:0:0:
448,192,48129,128,0,48208:0:0:0:0:
64,192,49303,1,0,0:0:0:0:
320,192,49382,1,0,0:0:0:0:
64,192,49460,1,0,0:0:0:0:
320,192,49487,1,0,0:0:0:0:
192,192,49512,1,0,0:0:0:0:
448,192,49538,1,0,0:0:0:0:
320,192,49565,1,0,0:0:0:0:
64,192,49591,1,0,0:0:0:0:
192,192,49617,1,0,0:0:0:0:
448,192,49643,1,0,0:0:0:0:
64,192,49669,1,0,0:0:0:0:
320,192,49695,1,0,0:0:0:0:
192,192,49721,1,0,0:0:0:0:
64,192,49748,1,0,0:0:0:0:
448,192,49773,1,0,0:0:0:0:
192,192,49799,1,0,0:0:0:0:
320,192,49826,1,0,0:0:0:0:
448,192,49852,1,0,0:0:0:0:
64,192,49878,1,0,0:0:0:0:
320,192,49904,1,0,0:0:0:0:
192,192,49930,1,0,0:0:0:0:
448,192,49956,1,0,0:0:0:0:
320,192,49982,1,0,0:0:0:0:
64,192,50008,1,0,0:0:0:0:
192,192,50034,1,0,0:0:0:0:
448,192,50061,1,0,0:0:0:0:
64,192,50087,1,0,0:0:0:0:
320,192,50112,1,0,0:0:0:0:
448,192,50139,1,0,0:0:0:0:
192,192,50165,1,0,0:0:0:0:
64,192,50191,1,0,0:0:0:0:
448,192,50218,1,0,0:0:0:0:
192,192,50243,1,0,0:0:0:0:
320,192,50269,1,0,0:0:0:0:
64,192,50295,1,0,0:0:0:0:
192,192,50322,1,0,0:0:0:0:
448,192,50348,1,0,0:0:0:0:
320,192,50373,1,0,0:0:0:0:
192,192,50400,1,0,0:0:0:0:
64,192,50426,1,0,0:0:0:0:
320,192,50452,1,0,0:0:0:0:
448,192,50478,1,0,0:0:0:0:
192,192,50504,1,0,0:0:0:0:
320,192,50530,1,0,0:0:0:0:
64,192,50557,1,0,0:0:0:0:
192,192,50582,1,0,0:0:0:0:
448,192,50608,1,0,0:0:0:0:
64,192,50635,1,0,0:0:0:0:
320,192,50661,1,0,0:0:0:0:
192,192,50687,1,0,0:0:0:0:
64,192,50713,1,0,0:0:0:0:
448,192,50739,1,0,0:0:0:0:
192,192,50765,1,0,0:0:0:0:
320,192,50792,1,0,0:0:0:0:
448,192,50818,1,0,0:0:0:0:
64,192,50843,1,0,0:0:0:0:
320,192,50869,1,0,0:0:0:0:
192,192,50896,1,0,0:0:0:0:
448,192,50922,1,0,0:0:0:0:
320,192,50948,1,0,0:0:0:0:
64,192,50974,1,0,0:0:0:0:
192,192,51000,1,0,0:0:0:0:
448,192,51026,1,0,0:0:0:0:
64,192,51052,1,0,0:0:0:0:
320,192,51078,1,0,0:0:0:0:
192,192,51104,1,0,0:0:0:0:
64,192,51131,1,0,0:0:0:0:
448,192,51157,1,0,0:0:0:0:
192,192,51182,1,0,0:0:0:0:
320,192,51209,1,0,0:0:0:0:
448,192,51235,1,0,0:0:0:0:
64,192,51261,1,0,0:0:0:0:
320,192,51288,1,0,0:0:0:0:
192,192,51313,1,0,0:0:0:0:
448,192,51339,1,0,0:0:0:0:
320,192,51366,1,0,0:0:0:0:
64,192,51392,1,0,0:0:0:0:
192,192,51418,1,0,0:0:0:0:
320,192,51443,1,0,0:0:0:0:
448,192,51470,1,0,0:0:0:0:
192,192,51496,1,0,0:0:0:0:
320,192,51522,1,0,0:0:0:0:
64,192,51548,1,0,0:0:0:0:
192,192,51574,1,0,0:0:0:0:
448,192,51600,1,0,0:0:0:0:
64,192,51627,1,0,0:0:0:0:
320,192,51652,1,0,0:0:0:0:
192,192,51678,1,0,0:0:0:0:
64,192,51705,1,0,0:0:0:0:
448,192,51731,1,0,0:0:0:0:
192,192,51757,1,0,0:0:0:0:
320,192,51783,1,0,0:0:0:0:
448,192,51809,1,0,0:0:0:0:
64,192,51835,1,0,0:0:0:0:
320,192,51862,1,0,0:0:0:0:
192,192,51888,1,0,0:0:0:0:
448,192,51913,1,0,0:0:0:0:
320,192,51939,1,0,0:0:0:0:
64,192,51966,1,0,0:0:0:0:
192,192,51992,1,0,0:0:0:0:
448,192,52018,1,0,0:0:0:0:
64,192,52044,1,0,0:0:0:0:
320,192,52070,1,0,0:0:0:0:
192,192,52096,1,0,0:0:0:0:
64,192,52122,1,0,0:0:0:0:
448,192,52148,1,0,0:0:0:0:
192,192,52174,1,0,0:0:0:0:
320,192,52201,1,0,0:0:0:0:
448,192,52227,1,0,0:0:0:0:
64,192,52252,1,0,0:0:0:0:
320,192,52279,1,0,0:0:0:0:
192,192,52305,1,0,0:0:0:0:
448,192,52331,1,0,0:0:0:0:
320,192,52358,1,0,0:0:0:0:
64,192,52383,1,0,0:0:0:0:
192,192,52409,1,0,0:0:0:0:
448,192,52436,1,0,0:0:0:0:
64,192,52462,1,0,0:0:0:0:
320,192,52488,1,0,0:0:0:0:
192,192,52513,1,0,0:0:0:0:
64,192,52540,1,0,0:0:0:0:
448,192,52566,1,0,0:0:0:0:
192,192,52592,1,0,0:0:0:0:
320,192,52618,1,0,0:0:0:0:
448,192,52644,1,0,0:0:0:0:
64,192,52670,1,0,0:0:0:0:
320,192,52697,1,0,0:0:0:0:
192,192,52722,1,0,0:0:0:0:
448,192,52748,1,0,0:0:0:0:
64,192,52775,1,0,0:0:0:0:
320,192,52801,1,0,0:0:0:0:
192,192,52827,1,0,0:0:0:0:
320,192,53218,1,0,0:0:0:0:
448,192,53218,1,0,0:0:0:0:
64,192,53532,1,0,0:0:0:0:
192,192,53532,1,0,0:0:0:0:
320,192,53845,1,0,0:0:0:0:
448,192,53845,1,0,0:0:0:0:
64,192,54158,1,0,0:0:0:0:
192,192,54158,1,0,0:0:0:0:
320,192,54471,1,0,0:0:0:0:
448,192,54471,1,0,0:0:0:0:
192,192,54628,1,0,0:0:0:0:
64,192,54654,1,0,0:0:0:0:
448,192,54654,1,0,0:0:0:0:
320,192,54680,1,0,0:0:0:0:
192,192,54706,1,0,0:0:0:0:
64,192,54784,1,0,0:0:0:0:
448,192,54784,1,0,0:0:0:0:
320,192,54862,1,0,0:0:0:0:
64,192,54941,1,0,0:0:0:0:
192,192,54941,1,0,0:0:0:0:
448,192,54980,1,0,0:0:0:0:
320,192,55019,1,0,0:0:0:0:
64,192,55058,1,0,0:0:0:0:
192,192,55098,1,0,0:0:0:0:
448,192,55137,1,0,0:0:0:0:
64,192,55176,1,0,0:0:0:0:
320,192,55215,1,0,0:0:0:0:
192,192,55254,1,0,0:0:0:0:
64,192,55293,1,0,0:0:0:0:
448,192,55332,1,0,0:0:0:0:
192,192,55372,1,0,0:0:0:0:
320,192,55411,1,0,0:0:0:0:
64,192,55450,1,0,0:0:0:0:
192,192,55489,1,0,0:0:0:0:
448,192,55528,1,0,0:0:0:0:
320,192,55568,1,0,0:0:0:0:
64,192,55607,1,0,0:0:0:0:
192,192,55646,1,0,0:0:0:0:
448,192,55685,1,0,0:0:0:0:
320,192,55724,1,0,0:0:0:0:
192,192,55763,1,0,0:0:0:0:
64,192,55802,1,0,0:0:0:0:
320,192,55841,1,0,0:0:0:0:
192,192,55880,1,0,0:0:0:0:
64,192,55919,1,0,0:0:0:0:
320,192,55958,1,0,0:0:0:0:
192,192,55998,1,0,0:0:0:0:
64,192,56037,1,0,0:0:0:0:
448,192,56037,1,0,0:0:0:0:
320,192,56063,1,0,0:0:0:0:
192,192,56089,1,0,0:0:0:0:
448,192,56115,1,0,0:0:0:0:
320,192,56142,1,0,0:0:0:0:
64,192,56168,1,0,0:0:0:0:
192,192,56193,1,0,0:0:0:0:
448,192,56220,1,0,0:0:0:0:
320,192,56246,1,0,0:0:0:0:
64,192,56272,1,0,0:0:0:0:
448,192,56298,1,0,0:0:0:0:
192,192,56324,1,0,0:0:0:0:
64,192,56350,1,0,0:0:0:0:
320,192,56350,1,0,0:0:0:0:
448,192,56377,1,0,0:0:0:0:
192,192,56402,1,0,0:0:0:0:
320,192,56428,1,0,0:0:0:0:
64,192,56454,1,0,0:0:0:0:
448,192,56481,1,0,0:0:0:0:
320,192,56507,1,0,0:0:0:0:
64,192,56532,1,0,0:0:0:0:
448,192,56559,1,0,0:0:0:0:
192,192,56585,1,0,0:0:0:0:
320,192,56611,1,0,0:0:0:0:
64,192,56638,1,0,0:0:0:0:
192,192,56663,1,0,0:0:0:0:
448,192,56663,1,0,0:0:0:0:
320,192,56689,1,0,0:0:0:0:
64,192,56716,1,0,0:0:0:0:
448,192,56742,1,0,0:0:0:0:
192,192,56768,1,0,0:0:0:0:
64,192,56794,1,0,0:0:0:0:
320,192,56820,1,0,0:0:0:0:
448,192,56846,1,0,0:0:0:0:
192,192,56872,1,0,0:0:0:0:
64,192,56898,1,0,0:0:0:0:
320,192,56924,1,0,0:0:0:0:
192,192,56950,1,0,0:0:0:0:
448,192,56977,1,0,0:0:0:0:
320,192,57002,1,0,0:0:0:0:
64,192,57028,1,0,0:0:0:0:
192,192,57055,1,0,0:0:0:0:
448,192,57081,1,0,0:0:0:0:
64,192,57107,1,0,0:0:0:0:
320,192,57133,1,0,0:0:0:0:
192,192,57159,1,0,0:0:0:0:
64,192,57185,1,0,0:0:0:0:
448,192,57212,1,0,0:0:0:0:
192,192,57238,1,0,0:0:0:0:
320,192,57263,1,0,0:0:0:0:
64,192,57290,1,0,0:0:0:0:
192,192,57316,1,0,0:0:0:0:
448,192,57342,1,0,0:0:0:0:
64,192,57368,1,0,0:0:0:0:
320,192,57394,1,0,0:0:0:0:
192,192,57420,1,0,0:0:0:0:
64,192,57447,1,0,0:0:0:0:
448,192,57472,1,0,0:0:0:0:
192,192,57498,1,0,0:0:0:0:
320,192,57524,1,0,0:0:0:0:
448,192,57551,1,0,0:0:0:0:
64,192,57577,1,0,0:0:0:0:
320,192,57602,1,0,0:0:0:0:
192,192,57629,1,0,0:0:0:0:
448,192,57655,1,0,0:0:0:0:
320,192,57681,1,0,0:0:0:0:
64,192,57708,1,0,0:0:0:0:
192,192,57733,1,0,0:0:0:0:
320,192,57759,1,0,0:0:0:0:
448,192,57786,1,0,0:0:0:0:
192,192,57812,1,0,0:0:0:0:
320,192,57838,1,0,0:0:0:0:
64,192,57864,1,0,0:0:0:0:
192,192,57890,1,0,0:0:0:0:
448,192,57916,1,0,0:0:0:0:
64,192,57942,1,0,0:0:0:0:
320,192,57968,1,0,0:0:0:0:
192,192,57994,1,0,0:0:0:0:
64,192,58021,1,0,0:0:0:0:
448,192,58047,1,0,0:0:0:0:
192,192,58072,1,0,0:0:0:0:
320,192,58098,1,0,0:0:0:0:
64,192,58125,1,0,0:0:0:0:
192,192,58151,1,0,0:0:0:0:
448,192,58177,1,0,0:0:0:0:
320,192,58203,1,0,0:0:0:0:
192,192,58229,1,0,0:0:0:0:
64,192,58255,1,0,0:0:0:0:
320,192,58282,1,0,0:0:0:0:
192,192,58308,1,0,0:0:0:0:
448,192,58333,1,0,0:0:0:0:
320,192,58360,1,0,0:0:0:0:
64,192,58386,1,0,0:0:0:0:
448,192,58412,1,0,0:0:0:0:
192,192,58438,1,0,0:0:0:0:
320,192,58464,1,0,0:0:0:0:
448,192,58490,1,0,0:0:0:0:
64,192,58517,1,0,0:0:0:0:
320,192,58542,1,0,0:0:0:0:
192,192,58568,1,0,0:0:0:0:
64,192,58595,1,0,0:0:0:0:
448,192,58621,1,0,0:0:0:0:
192,192,58647,1,0,0:0:0:0:
320,192,58672,1,0,0:0:0:0:
64,192,58699,1,0,0:0:0:0:
192,192,58725,1,0,0:0:0:0:
448,192,58751,1,0,0:0:0:0:
64,192,58778,1,0,0:0:0:0:
320,192,58803,1,0,0:0:0:0:
192,192,58829,1,0,0:0:0:0:
64,192,58856,1,0,0:0:0:0:
448,192,58882,1,0,0:0:0:0:
192,192,58908,1,0,0:0:0:0:
320,192,58934,1,0,0:0:0:0:
448,192,58960,1,0,0:0:0:0:
64,192,58986,1,0,0:0:0:0:
320,192,59012,1,0,0:0:0:0:
192,192,59038,1,0,0:0:0:0:
64,192,59064,1,0,0:0:0:0:
448,192,59091,1,0,0:0:0:0:
192,192,59117,1,0,0:0:0:0:
320,192,59142,1,0,0:0:0:0:
448,192,59169,1,0,0:0:0:0:
64,192,59195,1,0,0:0:0:0:
320,192,59221,1,0,0:0:0:0:
192,192,59247,1,0,0:0:0:0:
448,192,59273,1,0,0:0:0:0:
320,192,59299,1,0,0:0:0:0:
192,192,59325,1,0,0:0:0:0:
64,192,59352,1,0,0:0:0:0:
320,192,59378,1,0,0:0:0:0:
448,192,59403,1,0,0:0:0:0:
192,192,59430,1,0,0:0:0:0:
320,192,59456,1,0,0:0:0:0:
64,192,59482,1,0,0:0:0:0:
192,192,59508,1,0,0:0:0:0:
448,192,59534,1,0,0:0:0:0:
64,192,59560,1,0,0:0:0:0:
320,192,59587,1,0,0:0:0:0:
192,192,59612,1,0,0:0:0:0:
64,192,59638,1,0,0:0:0:0:
448,192,59665,1,0,0:0:0:0:
192,192,59691,1,0,0:0:0:0:
320,192,59717,1,0,0:0:0:0:
448,192,59742,1,0,0:0:0:0:
64,192,59769,1,0,0:0:0:0:
320,192,59795,1,0,0:0:0:0:
192,192,59821,1,0,0:0:0:0:
448,192,59848,1,0,0:0:0:0:
320,192,59873,1,0,0:0:0:0:
64,192,59899,1,0,0:0:0:0:
192,192,59926,1,0,0:0:0:0:
320,192,59952,1,0,0:0:0:0:
448,192,59978,1,0,0:0:0:0:
192,192,60004,1,0,0:0:0:0:
320,192,60030,1,0,0:0:0:0:
64,192,60056,1,0,0:0:0:0:
192,192,60082,1,0,0:0:0:0:
320,192,60108,1,0,0:0:0:0:
448,192,60134,1,0,0:0:0:0:
192,192,60161,1,0,0:0:0:0:
64,192,60187,1,0,0:0:0:0:
320,192,60212,1,0,0:0:0:0:
192,192,60239,1,0,0:0:0:0:
448,192,60265,1,0,0:0:0:0:
320,192,60291,1,0,0:0:0:0:
192,192,60317,1,0,0:0:0:0:
64,192,60343,1,0,0:0:0:0:
320,192,60369,1,0,0:0:0:0:
448,192,60395,1,0,0:0:0:0:
192,192,60422,1,0,0:0:0:0:
320,192,60448,1,0,0:0:0:0:
64,192,60473,1,0,0:0:0:0:
192,192,60500,1,0,0:0:0:0:
448,192,60526,1,0,0:0:0:0:
64,192,60552,1,0,0:0:0:0:
320,192,60578,1,0,0:0:0:0:
64,192,60735,1,0,0:0:0:0:
64,192,61022,1,0,0:0:0:0:
192,192,61022,1,0,0:0:0:0:
320,192,61022,1,0,0:0:0:0:
448,192,61022,1,0,0:0:0:0:
