osu file format v14

[General]
AudioFilename: audio.mp3
AudioLeadIn: 0
PreviewTime: 60675
Countdown: 0
SampleSet: Soft
StackLeniency: 0.6
Mode: 0
LetterboxInBreaks: 0
WidescreenStoryboard: 1

[Editor]
Bookmarks: 66154,88054,236779
DistanceSpacing: 1
BeatDivisor: 4
GridSize: 16
TimelineZoom: 2.4

[Metadata]
Title:Shiroi Yuki no Princess wa
TitleUnicode:白い雪のプリンセスは
Artist:Hanon x Megu x Kotoha
ArtistUnicode:Hanon×めぐ×Kotoha
Creator:-karUpA-
Version:pnky's Expert
Source:
Tags:のぼる↑, noboru, 初音ミク, Hatsune Miku vocaloid まるもち部 marumochi bu marumochi-bu hakoniwalily ハコニワリリィ pnky japanese pop j-pop jpop female vocals
BeatmapID:3495356
BeatmapSetID:1707021

[Difficulty]
HPDrainRate:5.5
CircleSize:4
OverallDifficulty:9
ApproachRate:9.3
SliderMultiplier:1.7
SliderTickRate:1

[Events]
//Background and Video events
Video,0,"mp.mp4"
0,0,"koko.jpg",0,0
//Break Periods
//Storyboard Layer 0 (Background)
//Storyboard Layer 1 (Fail)
//Storyboard Layer 2 (Pass)
//Storyboard Layer 3 (Foreground)
//Storyboard Layer 4 (Overlay)
//Storyboard Sound Samples

[TimingPoints]
679,300,4,2,1,70,1,0
1879,-125,4,2,1,50,0,0
6229,-100,4,2,1,75,0,0
6829,300,4,2,1,70,1,0
6829,-100,4,2,1,75,0,0
16504,-100,4,2,1,5,0,0
16579,-100,4,2,1,75,0,0
20179,-100,4,2,1,50,0,0
20329,-100,4,2,1,55,0,0
20479,-100,4,2,1,60,0,0
20629,-100,4,2,1,65,0,0
20779,-100,4,2,1,70,0,0
20929,-100,4,2,1,75,0,0
21154,-100,4,2,1,5,0,0
21229,-111.111111111111,4,2,1,70,0,0
24754,-111.111111111111,4,2,1,5,0,0
24829,-111.111111111111,4,2,1,70,0,0
25504,-111.111111111111,4,2,1,5,0,0
25579,-111.111111111111,4,2,1,70,0,0
35104,-111.111111111111,4,2,1,5,0,0
35179,-111.111111111111,4,2,1,70,0,0
39229,-105.263157894737,4,2,1,70,0,0
40429,-100,4,2,1,70,0,0
42829,-125,4,2,1,70,0,0
52429,-111.111111111111,4,2,1,70,0,0
54754,-111.111111111111,4,2,1,5,0,0
54829,-111.111111111111,4,2,1,70,0,0
57154,-111.111111111111,4,2,1,5,0,0
57229,-111.111111111111,4,2,1,70,0,0
60829,-100,4,2,1,60,0,0
62029,-90.9090909090909,4,2,1,85,0,1
63754,-90.9090909090909,4,2,1,5,0,1
63829,-90.9090909090909,4,2,1,85,0,1
64354,-90.9090909090909,4,2,1,5,0,1
64429,-90.9090909090909,4,2,1,85,0,1
64654,-90.9090909090909,4,2,1,5,0,1
64729,-90.9090909090909,4,2,1,85,0,1
66229,-100,4,2,1,85,0,1
66454,-100,4,2,1,5,0,1
66529,-90.9090909090909,4,2,1,85,0,1
66754,-90.9090909090909,4,2,1,5,0,1
66829,-90.9090909090909,4,2,1,85,0,1
67054,-90.9090909090909,4,2,1,5,0,1
67129,-90.9090909090909,4,2,1,85,0,1
73354,-90.9090909090909,4,2,1,5,0,1
73429,-90.9090909090909,4,2,1,85,0,1
73954,-90.9090909090909,4,2,1,5,0,1
74029,-90.9090909090909,4,2,1,85,0,1
75829,-100,4,2,1,85,0,1
76054,-100,4,2,1,5,0,1
76129,-90.9090909090909,4,2,1,85,0,1
76354,-90.9090909090909,4,2,1,5,0,1
76429,-90.9090909090909,4,2,1,85,0,1
76654,-90.9090909090909,4,2,1,5,0,1
76729,-90.9090909090909,4,2,1,85,0,1
77554,-90.9090909090909,4,2,1,5,0,1
77629,-90.9090909090909,4,2,1,85,0,1
78754,-90.9090909090909,4,2,1,5,0,1
78829,-90.9090909090909,4,2,1,85,0,1
81079,-100,4,2,1,75,0,0
88354,-100,4,2,1,5,0,0
88429,-100,4,2,1,75,0,0
90829,-111.111111111111,4,2,1,70,0,0
104254,-111.111111111111,4,2,1,5,0,0
104329,-111.111111111111,4,2,1,70,0,0
108829,-105.263157894737,4,2,1,70,0,0
110029,-100,4,2,1,70,0,0
111454,-100,4,2,1,5,0,0
111529,-100,4,2,1,70,0,0
112429,-125,4,2,1,70,0,0
117154,-125,4,2,1,5,0,0
117229,-125,4,2,1,70,0,0
122029,-111.111111111111,4,2,1,70,0,0
124354,-111.111111111111,4,2,1,5,0,0
124429,-111.111111111111,4,2,1,70,0,0
126829,-99.9999999999999,4,2,1,70,0,0
130429,-111.111111111111,4,2,1,70,0,0
130654,-111.111111111111,4,2,1,5,0,0
130729,-105.263157894737,4,2,1,70,0,0
130954,-105.263157894737,4,2,1,5,0,0
131029,-100,4,2,1,70,0,0
131329,-95.2380952380952,4,2,1,70,0,0
131629,-90.9090909090909,4,2,1,85,0,1
133354,-90.9090909090909,4,2,1,5,0,1
133429,-90.9090909090909,4,2,1,85,0,1
133954,-90.9090909090909,4,2,1,5,0,1
134029,-90.9090909090909,4,2,1,85,0,1
134254,-90.9090909090909,4,2,1,5,0,1
134329,-90.9090909090909,4,2,1,85,0,1
135829,-100,4,2,1,85,0,1
136054,-100,4,2,1,5,0,1
136129,-90.9090909090909,4,2,1,85,0,1
136354,-90.9090909090909,4,2,1,5,0,1
136429,-90.9090909090909,4,2,1,85,0,1
136654,-90.9090909090909,4,2,1,5,0,1
136729,-90.9090909090909,4,2,1,85,0,1
142954,-90.9090909090909,4,2,1,5,0,1
143029,-90.9090909090909,4,2,1,85,0,1
143554,-90.9090909090909,4,2,1,5,0,1
143629,-90.9090909090909,4,2,1,85,0,1
145429,-100,4,2,1,85,0,1
145654,-100,4,2,1,5,0,1
145729,-90.9090909090909,4,2,1,85,0,1
145954,-90.9090909090909,4,2,1,5,0,1
146029,-90.9090909090909,4,2,1,85,0,1
146254,-90.9090909090909,4,2,1,5,0,1
146329,-90.9090909090909,4,2,1,85,0,1
147154,-90.9090909090909,4,2,1,5,0,1
147229,-90.9090909090909,4,2,1,85,0,1
150679,-100,4,2,1,75,0,0
167629,-100,4,2,1,75,0,1
168829,-100,4,2,1,80,0,1
170029,-100,4,2,1,85,0,1
170929,-100,4,2,1,90,0,1
171229,-100,4,2,1,60,0,0
172429,-125,4,2,1,60,0,0
180829,-100,4,2,1,70,0,0
181954,-100,4,2,1,5,0,0
182029,-111.111111111111,4,2,1,70,0,0
186754,-111.111111111111,4,2,1,5,0,0
186829,-111.111111111111,4,2,1,70,0,0
187054,-111.111111111111,4,2,1,5,0,0
187129,-111.111111111111,4,2,1,70,0,0
188254,-111.111111111111,4,2,1,5,0,0
188329,-111.111111111111,4,2,1,70,0,0
188554,-111.111111111111,4,2,1,5,0,0
188629,-111.111111111111,4,2,1,70,0,0
190429,-100,4,2,1,65,0,0
191629,-200,4,2,1,50,0,0
208429,-125,4,2,1,70,0,0
208954,-125,4,2,1,5,0,0
209029,-125,4,2,1,70,0,0
210829,-100,4,2,1,70,0,0
212029,-100,4,2,1,60,0,0
213229,-90.9090909090909,4,2,1,85,0,1
214954,-90.9090909090909,4,2,1,5,0,1
215029,-90.9090909090909,4,2,1,85,0,1
215554,-90.9090909090909,4,2,1,5,0,1
215629,-90.9090909090909,4,2,1,85,0,1
215854,-90.9090909090909,4,2,1,5,0,1
215929,-90.9090909090909,4,2,1,85,0,1
217429,-100,4,2,1,85,0,1
217654,-100,4,2,1,5,0,1
217729,-90.9090909090909,4,2,1,85,0,1
217954,-90.9090909090909,4,2,1,5,0,1
218029,-90.9090909090909,4,2,1,85,0,1
218254,-90.9090909090909,4,2,1,5,0,1
218329,-90.9090909090909,4,2,1,85,0,1
224554,-90.9090909090909,4,2,1,5,0,1
224629,-90.9090909090909,4,2,1,85,0,1
227554,-90.9090909090909,4,2,1,5,0,1
227629,-90.9090909090909,4,2,1,85,0,1
227854,-90.9090909090909,4,2,1,5,0,1
227929,-90.9090909090909,4,2,1,85,0,1
228754,-90.9090909090909,4,2,1,5,0,1
228829,-90.9090909090909,4,2,1,85,0,1
229354,-90.9090909090909,4,2,1,5,0,1
229429,-90.9090909090909,4,2,1,85,0,1
232279,-100,4,2,1,75,0,0
246604,-100,4,2,1,5,0,0
246679,-100,4,2,1,75,0,0
251479,-90.9090909090909,4,2,1,75,0,0
254929,-100,4,2,1,80,0,0
255004,-100,4,2,1,5,0,0
260591,-100,4,2,1,5,0,0

[Colours]
Combo1 : 0,255,255
Combo2 : 255,0,0
Combo3 : 255,128,255
Combo4 : 255,128,128

[HitObjects]
145,287,1879,6,0,P|121:207|70:192,1,136,2|0,0:0|0:0,0:0:0:0:
0,136,2329,2,0,P|41:124|63:97,1,68,2|0,0:0|0:0,0:0:0:0:
154,35,2629,2,0,B|210:42|210:42|239:62|239:62|292:68,1,136,2|0,0:0|0:0,0:0:0:0:
406,11,3079,6,0,P|448:34|446:129,1,136,2|0,0:0|0:0,0:0:0:0:
388,181,3529,2,0,L|397:257,1,68,2|0,0:0|0:0,0:0:0:0:
329,339,3829,2,0,B|250:327|285:292|205:280,1,136,2|0,0:0|0:0,0:0:0:0:
108,326,4279,6,0,B|122:335|136:360|136:360|123:256,1,136,2|0,0:0|0:0,0:0:0:0:
46,209,4729,2,0,P|12:232|-1:260,1,68,2|0,0:0|0:0,0:0:0:0:
70,108,5029,2,0,P|129:160|195:162,1,136,2|0,0:0|0:0,0:0:0:0:
267,9,5479,6,0,P|205:25|155:93,1,136,2|0,0:0|0:0,0:0:0:0:
265,165,5929,2,0,L|251:88,1,68,2|0,0:0|0:0,0:0:0:0:
45,178,6229,5,8,0:0:0:0:
45,178,6304,1,8,0:0:0:0:
45,178,6379,2,0,L|101:165,1,42.5,8|8,0:0|0:0,0:0:0:0:
141,111,6529,2,0,L|192:119,1,42.5,8|8,0:0|0:0,0:0:0:0:
284,239,6679,6,0,P|281:187|386:127,1,170,4|0,1:2|1:2,0:0:0:0:
446,218,7129,2,0,L|353:206,1,85,8|0,0:0|0:0,0:0:0:0:
191,316,7429,1,0,1:2:0:0:
350,289,7579,1,0,1:2:0:0:
366,295,7729,1,8,0:0:0:0:
160,152,7879,6,0,B|165:220|165:220|186:251|186:251|191:333,1,170,0|0,1:2|1:2,0:0:0:0:
42,324,8329,2,0,P|74:291|128:283,1,85,8|0,0:0|0:0,0:0:0:0:
242,188,8629,1,0,1:2:0:0:
113,361,8779,1,0,1:2:0:0:
128,368,8929,1,8,0:0:0:0:
23,228,9079,6,0,B|26:164|26:164|47:133|47:133|53:64,1,170,4|0,1:2|1:2,0:0:0:0:
183,0,9529,2,0,P|219:15|245:55,1,85,8|0,0:0|0:0,0:0:0:0:
209,245,9829,1,0,1:2:0:0:
173,94,9979,1,0,1:2:0:0:
170,77,10129,1,8,0:0:0:0:
303,203,10279,6,0,B|402:193|356:134|452:132,1,170,4|0,1:2|1:2,0:0:0:0:
450,132,10729,1,8,0:0:0:0:
416,375,10879,2,0,B|421:299|421:299|440:272|440:272|446:179,1,170,4|0,1:2|1:2,0:0:0:0:
443,211,11329,1,8,0:0:0:0:
298,297,11479,6,0,P|229:255|225:161,1,170,4|0,1:2|1:2,0:0:0:0:
344,71,11929,2,0,P|312:100|268:103,1,85,8|0,0:0|0:0,0:0:0:0:
95,8,12229,1,0,1:2:0:0:
190,97,12379,1,0,1:2:0:0:
195,80,12529,1,8,0:0:0:0:
41,171,12679,6,0,L|53:362,1,170,0|0,1:2|1:2,0:0:0:0:
199,384,13129,2,0,B|170:353|170:353|165:298,1,85,8|0,0:0|0:0,0:0:0:0:
330,178,13429,1,0,1:2:0:0:
244,318,13579,1,0,1:2:0:0:
245,301,13729,1,8,0:0:0:0:
407,384,13879,6,0,B|434:369|445:339|438:311|438:311|474:322|511:299|519:263,1,170,4|0,1:2|1:2,0:0:0:0:
418,150,14329,2,0,L|401:258,1,85,8|0,0:0|0:0,0:0:0:0:
500,77,14629,1,0,1:2:0:0:
330,178,14779,1,8,0:0:0:0:
308,176,14854,1,8,0:0:0:0:
286,174,14929,1,8,0:0:0:0:
264,172,15004,1,8,0:0:0:0:
242,171,15079,6,0,B|213:128|236:80|236:80|198:103|198:141,1,170,4|0,1:2|1:2,0:0:0:0:
219,247,15529,1,8,0:0:0:0:
1,119,15679,2,0,P|78:101|120:170,1,170,4|0,1:2|1:2,0:0:0:0:
146,303,16129,1,8,0:0:0:0:
337,380,16279,6,0,L|489:360,1,127.5,4|0,1:2|0:0,0:0:0:0:
502,382,16579,5,0,1:2:0:0:
360,192,16729,1,12,0:0:0:0:
273,320,16879,1,0,1:2:0:0:
492,251,17029,5,0,1:2:0:0:
257,142,17179,1,12,0:0:0:0:
353,279,17329,1,0,1:2:0:0:
426,88,17479,5,0,1:2:0:0:
237,239,17629,1,12,0:0:0:0:
185,53,17779,1,8,0:0:0:0:
185,53,17854,1,8,0:0:0:0:
185,53,17929,2,0,L|176:112,1,42.5,8|8,0:0|0:0,0:0:0:0:
92,164,18079,2,0,L|98:215,1,42.5,8|8,3:0|3:0,0:0:0:0:
181,349,18229,5,4,3:0:0:0:
214,349,18304,1,4,3:0:0:0:
246,340,18379,1,0,1:0:0:0:
273,320,18454,1,0,1:0:0:0:
301,299,18529,1,8,3:0:0:0:
333,290,18604,1,8,3:0:0:0:
367,291,18679,2,0,P|365:320|360:345,1,42.5,4|4,3:0|3:0,0:0:0:0:
205,263,18829,5,12,0:0:0:0:
310,83,18979,1,0,1:0:0:0:
37,59,19729,5,8,0:0:0:0:
87,197,19879,6,0,B|60:109|136:121|110:15,1,170,4|0,1:2|1:2,0:0:0:0:
113,34,20254,1,0,0:0:0:0:
113,34,20329,1,0,1:2:0:0:
160,165,20479,1,0,1:2:0:0:
61,275,20629,1,0,1:2:0:0:
45,268,20779,1,0,1:2:0:0:
225,215,20929,2,0,B|279:222|279:222|299:238|299:238|351:247,1,127.5,12|0,1:2|0:0,0:0:0:0:
381,231,21229,5,6,1:2:0:0:
244,294,21379,1,2,0:0:0:0:
347,361,21529,2,0,L|428:348,1,76.4999976654053,10|2,0:0|0:0,0:0:0:0:
332,165,21829,1,2,1:2:0:0:
319,155,21979,1,2,1:2:0:0:
467,95,22129,2,0,L|455:178,1,76.4999976654053,10|2,0:0|0:0,0:0:0:0:
244,294,22429,6,0,L|233:218,1,76.4999976654053,2|2,1:2|0:0,0:0:0:0:
97,166,22729,1,10,0:0:0:0:
100,342,22879,2,0,P|132:360|170:363,1,76.4999976654053,2|0,0:0|1:2,0:0:0:0:
97,166,23179,1,0,1:0:0:0:
152,288,23329,1,8,0:2:0:0:
176,96,23479,6,0,B|262:93|240:133|324:131,1,152.999995330811,6|2,1:2|1:2,0:0:0:0:
377,18,23929,2,0,P|340:26|303:53,1,76.4999976654053,10|2,0:0|0:0,0:0:0:0:
308,47,24154,1,2,0:0:0:0:
308,47,24229,1,2,1:2:0:0:
199,176,24379,1,2,1:2:0:0:
335,245,24529,2,0,L|319:107,1,114.749996498108,10|0,0:0|0:0,0:0:0:0:
356,115,24829,5,2,1:2:0:0:
260,227,24979,1,2,1:2:0:0:
356,115,25129,1,10,0:0:0:0:
426,312,25279,2,0,B|382:309|382:309|363:324|363:324|314:321,1,114.749996498108,2|0,1:2|0:0,0:0:0:0:
250,262,25579,2,0,L|203:271,1,38.2499988327027,2|2,1:2|0:0,0:0:0:0:
125,373,25729,1,8,0:0:0:0:
19,213,25879,6,0,P|83:219|131:303,1,152.999995330811,6|0,1:2|1:2,0:0:0:0:
41,370,26329,2,0,L|48:280,1,76.4999976654053,10|0,0:0|0:0,0:0:0:0:
62,123,26629,1,2,1:2:0:0:
64,107,26779,1,2,1:2:0:0:
130,287,26929,1,8,0:0:0:0:
197,173,27079,6,0,P|242:146|323:210,1,152.999995330811,2|0,1:2|1:2,0:0:0:0:
365,288,27529,2,0,P|376:251|404:228,1,76.4999976654053,10|0,0:0|0:0,0:0:0:0:
481,228,27829,1,2,1:2:0:0:
355,366,27979,2,0,P|314:358|266:352,1,76.4999976654053,2|8,1:2|0:0,0:0:0:0:
481,228,28279,6,0,P|457:303|449:379,1,152.999995330811,2|2,1:2|1:2,0:0:0:0:
279,353,28729,1,10,0:0:0:0:
356,297,28879,1,2,0:0:0:0:
183,216,29029,1,2,1:2:0:0:
191,312,29179,1,2,1:2:0:0:
349,202,29329,2,0,L|267:163,1,76.4999976654053,10|2,0:0|0:0,0:0:0:0:
102,273,29629,5,6,1:2:0:0:
192,50,29779,2,0,L|206:137,1,76.4999976654053,0|8,1:2|0:0,0:0:0:0:
0,200,30079,6,0,L|25:18,1,152.999995330811,6|8,1:2|3:0,0:0:0:0:
55,30,30454,1,8,2:2:0:0:
55,30,30529,2,0,P|79:33|110:38,1,38.2499988327027,8|8,0:0|0:0,0:0:0:0:
128,132,30679,2,0,P|104:135|73:140,1,38.2499988327027,8|8,0:0|0:0,0:0:0:0:
69,237,30829,6,0,P|119:244|174:243,1,76.4999976654053,6|2,1:2|0:0,0:0:0:0:
283,279,31129,2,0,P|245:281|208:287,1,76.4999976654053,10|2,0:0|0:0,0:0:0:0:
148,375,31429,1,2,1:2:0:0:
143,360,31579,1,2,1:2:0:0:
215,202,31729,2,0,P|211:161|201:114,1,76.4999976654053,10|2,0:0|0:0,0:0:0:0:
309,31,32029,6,0,P|343:38|381:89,1,76.4999976654053,2|2,1:2|0:0,0:0:0:0:
478,202,32329,1,10,2:2:0:0:
305,107,32479,2,0,P|298:144|296:183,1,76.4999976654053,2|0,0:2|1:2,0:0:0:0:
341,261,32779,1,0,1:2:0:0:
478,202,32929,1,8,0:0:0:0:
451,328,33079,6,0,B|395:325|395:325|362:343|362:343|297:338,1,152.999995330811,2|2,1:2|1:2,0:0:0:0:
156,384,33529,2,0,L|233:375,1,76.4999976654053,10|2,0:0|0:0,0:0:0:0:
90,335,33829,1,2,1:2:0:0:
188,243,33979,1,2,1:2:0:0:
89,334,34129,2,0,L|81:255,1,76.4999976654053,10|0,0:0|0:0,0:0:0:0:
198,138,34429,6,0,L|189:214,1,76.4999976654053,2|2,1:2|1:2,0:0:0:0:
85,107,34729,1,10,0:0:0:0:
220,38,34879,2,0,P|261:54|295:130,1,114.749996498108,2|0,1:2|0:0,0:0:0:0:
276,147,35179,1,2,1:2:0:0:
188,243,35329,1,8,0:0:0:0:
328,309,35479,6,0,B|413:321|387:254|485:270,1,152.999995330811,6|0,1:2|1:2,0:0:0:0:
434,384,35929,2,0,P|413:345|413:288,1,76.4999976654053,10|0,0:0|0:0,0:0:0:0:
479,108,36229,1,2,1:2:0:0:
346,232,36379,1,2,1:2:0:0:
501,189,36529,1,8,0:0:0:0:
324,151,36679,6,0,B|262:145|262:145|233:163|233:163|157:152,1,152.999995330811,2|0,1:2|1:2,0:0:0:0:
219,27,37129,2,0,P|260:44|284:71,1,76.4999976654053,10|0,0:0|0:0,0:0:0:0:
133,224,37429,1,2,1:2:0:0:
245,298,37579,1,10,3:0:0:0:
263,295,37654,1,8,3:0:0:0:
281,292,37729,1,8,0:0:0:0:
168,383,37879,1,2,1:2:0:0:
168,383,37954,1,0,1:2:0:0:
168,383,38029,6,0,L|2:365,1,152.999995330811,6|8,1:2|0:0,0:0:0:0:
15,366,38479,1,0,1:2:0:0:
133,224,38629,1,0,0:0:0:0:
136,238,38779,1,0,1:2:0:0:
32,158,38929,2,0,L|43:69,1,76.4999976654053,8|0,0:0|0:0,0:0:0:0:
196,287,39229,5,6,1:2:0:0:
112,151,39379,1,0,1:2:0:0:
37,292,39529,1,8,0:0:0:0:
192,158,39679,2,0,L|169:-4,1,161.499995687485,0|0,1:2|1:2,0:0:0:0:
338,112,40129,2,0,P|303:92|252:93,1,80.7499978437424,8|0,0:0|0:0,0:0:0:0:
276,334,40429,6,0,B|368:340|340:270|434:280,1,170,6|8,1:2|0:0,0:0:0:0:
493,384,40879,1,0,1:2:0:0:
289,240,41029,1,0,0:0:0:0:
291,256,41179,1,0,1:2:0:0:
186,384,41329,2,0,L|195:292,1,85,8|0,0:0|1:2,0:0:0:0:
210,129,41629,5,14,2:2:0:0:
276,334,41779,1,0,1:2:0:0:
147,222,41929,5,14,0:0:0:0:
310,169,42079,1,0,0:0:0:0:
87,78,42229,5,2,1:2:0:0:
310,169,42379,1,4,3:0:0:0:
310,169,42454,1,8,0:0:0:0:
310,169,42529,1,2,1:2:0:0:
461,73,42679,5,8,0:0:0:0:
482,78,42754,1,8,0:0:0:0:
502,82,42829,2,0,P|426:73|406:12,1,136,6|8,1:2|0:0,0:0:0:0:
404,24,43279,1,0,1:2:0:0:
349,153,43429,2,0,P|369:183|371:223,1,68,0|0,0:0|1:2,0:0:0:0:
352,338,43729,2,0,P|368:306|402:284,1,68,8|0,0:0|0:0,0:0:0:0:
511,243,44029,5,0,1:2:0:0:
511,243,44179,2,0,P|475:245|439:227,1,68,0|8,1:2|0:0,0:0:0:0:
312,69,44479,2,0,P|264:123|267:195,1,136,0|0,1:2|1:2,0:0:0:0:
174,270,44929,2,0,B|141:277|141:277|100:254,1,68,10|0,0:0|0:0,0:0:0:0:
197,341,45229,6,0,B|128:355|128:355|44:307,1,136,2|8,1:2|0:0,0:0:0:0:
71,322,45679,1,0,1:2:0:0:
152,200,45829,2,0,L|162:128,1,68,0|0,0:0|1:2,0:0:0:0:
32,68,46129,2,0,L|41:135,1,68,10|0,0:0|0:0,0:0:0:0:
170,201,46429,6,0,L|180:129,2,68,2|0|10,1:2|1:2|0:0,0:0:0:0:
118,59,46879,2,0,P|152:51|185:49,1,68,2|0,1:2|0:0,0:0:0:0:
262,21,47179,1,2,1:2:0:0:
329,114,47329,2,0,P|295:106|262:104,1,68,8|2,0:0|0:0,0:0:0:0:
334,257,47629,6,0,P|408:242|467:223,1,136,6|8,1:2|0:0,0:0:0:0:
279,185,48079,2,0,P|250:230|269:323,1,136,0|0,1:2|1:2,0:0:0:0:
314,371,48529,2,0,P|283:353|243:352,1,68,8|0,0:0|0:0,0:0:0:0:
92,364,48829,5,0,1:2:0:0:
92,364,48979,2,0,P|123:382|163:383,1,68,0|8,1:2|0:0,0:0:0:0:
130,220,49279,2,0,P|71:232|22:295,1,136,0|2,1:2|1:2,0:0:0:0:
206,274,49729,2,0,L|221:189,1,68,10|0,0:0|0:0,0:0:0:0:
117,60,50029,6,0,L|129:203,1,136,2|8,1:2|0:0,0:0:0:0:
128,195,50479,1,0,1:2:0:0:
277,146,50629,2,0,P|250:126|217:122,1,68,0|0,0:0|1:2,0:0:0:0:
338,252,50929,2,0,P|371:247|398:227,1,68,10|0,0:0|1:2,0:0:0:0:
466,164,51229,5,14,0:0:0:0:
426,316,51379,1,0,1:2:0:0:
470,149,51529,5,14,0:0:0:0:
422,331,51679,1,0,0:0:0:0:
343,175,51829,5,2,1:2:0:0:
206,274,51979,1,4,3:0:0:0:
189,270,52054,1,8,0:0:0:0:
172,266,52129,1,2,1:2:0:0:
46,377,52279,1,8,0:0:0:0:
52,374,52354,1,8,0:0:0:0:
57,370,52429,6,0,L|42:209,1,152.999995330811,6|8,1:2|0:0,0:0:0:0:
33,98,52879,1,0,1:2:0:0:
169,177,53029,1,0,0:0:0:0:
168,190,53179,1,0,1:2:0:0:
271,92,53329,2,0,L|174:108,1,76.4999976654053,10|0,0:0|0:0,0:0:0:0:
328,244,53629,6,0,B|301:168|301:168|341:152|350:98,1,152.999995330811,2|8,1:2|0:0,0:0:0:0:
346,114,54079,1,0,1:2:0:0:
457,226,54229,2,0,P|419:196|374:200,1,76.4999976654053,0|0,0:0|1:2,0:0:0:0:
302,327,54529,2,0,P|352:328|401:287,1,114.749996498108,10|0,0:0|0:0,0:0:0:0:
328,244,54829,6,0,B|272:252|272:252|243:274|243:274|181:283,1,152.999995330811,2|8,1:2|0:0,0:0:0:0:
94,172,55279,1,0,1:2:0:0:
80,384,55429,2,0,L|97:299,1,76.4999976654053,2|0,0:0|1:2,0:0:0:0:
104,271,55654,1,2,0:0:0:0:
104,271,55729,1,8,0:0:0:0:
229,356,55879,1,2,0:0:0:0:
298,174,56029,6,0,B|242:182|242:182|213:204|213:204|151:213,1,152.999995330811,2|10,1:2|0:0,0:0:0:0:
271,253,56479,1,2,1:2:0:0:
179,131,56629,2,0,L|188:49,1,76.4999976654053,0|0,0:0|1:2,0:0:0:0:
194,16,56854,1,0,1:2:0:0:
194,16,56929,2,0,P|241:41|310:24,1,114.749996498108,14|0,0:0|0:0,0:0:0:0:
374,0,57229,6,0,P|419:15|420:132,1,152.999995330811,6|8,1:2|0:0,0:0:0:0:
298,174,57679,1,0,1:2:0:0:
384,258,57829,2,0,L|461:245,1,76.4999976654053,0|0,0:0|1:0,0:0:0:0:
324,376,58129,2,0,L|246:363,1,76.4999976654053,10|2,0:0|0:0,0:0:0:0:
46,325,58429,6,0,L|94:319,1,38.2499988327027,2|0,1:2|0:0,0:0:0:0:
204,309,58579,1,8,0:0:0:0:
204,309,58654,1,8,0:0:0:0:
204,309,58729,1,0,1:2:0:0:
80,157,58879,1,8,0:0:0:0:
214,83,59029,5,0,1:2:0:0:
211,111,59104,1,8,3:0:0:0:
209,140,59179,1,8,2:0:0:0:
207,168,59254,1,8,3:0:0:0:
174,203,59329,1,6,3:0:0:0:
175,222,59404,1,4,3:0:0:0:
176,241,59479,1,4,3:3:0:0:
177,260,59554,1,4,3:3:0:0:
204,309,59629,6,0,P|235:264|336:273,1,152.999995330811,6|0,1:2|0:0,0:0:0:0:
326,264,60079,1,0,1:2:0:0:
477,384,60229,2,0,P|446:339|345:348,1,152.999995330811,8|4,0:0|3:0,0:0:0:0:
355,339,60679,1,4,3:0:0:0:
487,161,60829,5,6,1:2:0:0:
404,100,61129,5,2,0:0:0:0:
286,84,61429,5,2,0:0:0:0:
165,144,61729,5,2,0:0:0:0:
110,277,62029,6,0,B|180:271|180:271|219:243|219:243|306:236,1,187.000005706787,6|8,1:2|0:0,0:0:0:0:
448,364,62479,1,2,0:0:0:0:
448,364,62629,2,0,P|442:312|436:256,1,93.5000028533936,2|0,1:2|1:2,0:0:0:0:
300,147,62929,1,8,0:0:0:0:
437,271,63079,1,2,0:0:0:0:
248,323,63229,5,2,1:2:0:0:
390,192,63379,1,0,1:2:0:0:
168,54,63529,2,0,P|158:144|148:234,1,140.25000428009,10|0,0:0|0:0,0:0:0:0:
181,270,63829,5,2,1:2:0:0:
74,132,63979,1,0,1:2:0:0:
169,353,64129,2,0,B|244:359|229:301|314:312,1,140.25000428009,10|0,0:0|0:0,0:0:0:0:
392,384,64429,6,0,B|414:377|414:377|430:284|430:284|402:261,1,140.25000428009,2|0,1:2|0:0,0:0:0:0:
288,235,64729,2,0,B|334:234|334:234|378:199,1,93.5000028533936,10|0,0:0|0:0,0:0:0:0:
417,30,65029,1,2,1:2:0:0:
307,158,65179,1,0,1:2:0:0:
458,197,65329,2,0,P|431:144|385:121,1,93.5000028533936,10|0,0:0|0:0,0:0:0:0:
146,22,65629,5,2,1:2:0:0:
147,57,65704,1,4,3:0:0:0:
149,92,65779,1,4,3:0:0:0:
151,127,65854,1,8,3:0:0:0:
181,165,65929,1,8,1:2:0:0:
179,188,66004,1,4,3:0:0:0:
177,211,66079,1,4,3:0:0:0:
175,234,66154,1,4,3:0:0:0:
129,289,66229,6,0,P|182:255|249:293,1,127.5,6|0,1:2|0:0,0:0:0:0:
299,352,66529,6,0,B|357:344|357:344|380:328|380:328|443:321,1,140.25000428009,6|0,1:2|0:0,0:0:0:0:
404,182,66829,6,0,P|340:204|328:278,1,140.25000428009,6|0,1:2|0:0,0:0:0:0:
484,200,67129,2,0,P|481:150|450:109,1,93.5000028533936,8|0,0:0|1:2,0:0:0:0:
267,90,67429,1,2,0:0:0:0:
290,205,67579,1,0,1:2:0:0:
404,182,67729,1,10,0:0:0:0:
382,67,67879,1,2,0:0:0:0:
200,29,68029,6,0,B|146:49|146:49|164:196,1,187.000005706787,4|10,1:2|0:0,0:0:0:0:
266,348,68479,1,2,1:2:0:0:
96,243,68629,1,0,0:0:0:0:
78,248,68779,1,0,1:2:0:0:
209,301,68929,2,0,L|338:280,1,93.5000028533936,8|2,0:0|0:0,0:0:0:0:
468,260,69229,5,2,1:2:0:0:
321,125,69379,1,8,0:0:0:0:
341,113,69454,1,8,0:0:0:0:
363,119,69529,2,0,L|373:182,1,46.7500014266968,10|4,0:0|3:0,0:0:0:0:
395,343,69679,5,6,1:2:0:0:
301,285,69979,5,6,1:2:0:0:
186,381,70279,6,0,L|-3:365,1,187.000005706787,6|0,1:2|1:2,0:0:0:0:
99,280,70654,1,0,1:2:0:0:
99,280,70729,2,0,L|91:386,1,93.5000028533936,8|0,0:0|0:0,0:0:0:0:
105,182,71029,1,2,1:2:0:0:
255,292,71179,1,8,0:0:0:0:
278,288,71254,1,8,0:0:0:0:
301,285,71329,1,2,1:2:0:0:
203,128,71479,1,8,0:0:0:0:
175,123,71554,1,8,0:0:0:0:
147,119,71629,6,0,P|130:60|243:36,1,187.000005706787,6|8,1:2|0:0,0:0:0:0:
274,178,72079,1,2,0:0:0:0:
419,109,72229,1,2,1:2:0:0:
400,106,72379,1,0,1:2:0:0:
378,274,72529,2,0,L|358:164,1,93.5000028533936,8|2,0:0|0:0,0:0:0:0:
317,324,72829,5,2,1:2:0:0:
453,256,72979,1,0,1:2:0:0:
266,384,73129,2,0,B|212:379|212:379|183:356|183:356|116:348,1,140.25000428009,10|0,0:0|0:0,0:0:0:0:
62,384,73429,5,2,1:2:0:0:
240,306,73579,1,0,1:2:0:0:
129,193,73729,2,0,P|76:234|81:326,1,140.25000428009,10|0,0:0|0:0,0:0:0:0:
152,273,74029,5,6,1:2:0:0:
107,115,74179,1,0,1:2:0:0:
42,218,74329,5,10,0:0:0:0:
215,168,74479,1,0,1:2:0:0:
215,168,74554,1,0,1:2:0:0:
215,168,74629,1,10,0:0:0:0:
102,97,74779,5,0,1:2:0:0:
156,287,74929,1,10,0:0:0:0:
294,146,75079,6,0,B|402:129|360:207|487:187,1,187.000005706787,6|8,1:2|3:0,0:0:0:0:
439,114,75454,1,8,3:0:0:0:
439,114,75529,2,0,P|398:149|387:202,1,93.5000028533936,2|4,1:2|3:0,0:0:0:0:
474,322,75829,6,0,P|437:275|349:272,1,127.5,6|0,1:2|0:0,0:0:0:0:
269,293,76129,6,0,B|282:301|298:322|298:322|287:266|286:207,1,140.25000428009,14|0,0:0|0:0,0:0:0:0:
202,150,76429,6,0,P|139:154|113:237,1,140.25000428009,6|0,1:2|0:0,0:0:0:0:
90,90,76729,2,0,P|95:38|72:2,1,93.5000028533936,8|0,0:0|1:2,0:0:0:0:
41,152,77029,1,2,0:0:0:0:
176,213,77179,1,0,1:2:0:0:
40,317,77329,2,0,B|120:333|99:271|181:288,1,140.25000428009,10|0,0:0|0:0,0:0:0:0:
233,377,77629,6,0,P|243:328|286:302,1,93.5000028533936,2|0,1:2|1:2,0:0:0:0:
438,376,77929,1,10,0:0:0:0:
334,217,78079,1,2,1:2:0:0:
455,134,78229,1,0,0:0:0:0:
473,137,78379,1,0,1:2:0:0:
314,43,78529,2,0,B|259:51|259:51|237:72|237:72|166:83,1,140.25000428009,8|0,0:0|0:0,0:0:0:0:
119,32,78829,5,14,0:0:0:0:
171,253,78979,1,0,1:2:0:0:
175,234,79129,1,0,1:2:0:0:
301,126,79279,5,14,0:0:0:0:
249,347,79429,1,0,1:2:0:0:
245,328,79579,1,0,1:2:0:0:
88,180,79729,6,0,L|97:294,1,93.5000028533936,14|0,0:0|1:2,0:0:0:0:
110,383,80029,5,14,0:0:0:0:
250,248,80179,1,0,1:2:0:0:
392,320,80329,5,10,0:0:0:0:
322,106,80479,1,8,0:0:0:0:
322,106,80554,1,8,0:0:0:0:
322,106,80629,1,2,1:2:0:0:
464,178,80779,1,8,0:0:0:0:
392,320,80929,1,2,1:2:0:0:
322,106,81079,6,0,B|262:111|262:111|228:143|228:143|159:149,1,170,6|0,1:2|1:2,0:0:0:0:
125,31,81529,2,0,P|171:40|197:83,1,85,8|0,0:0|0:0,0:0:0:0:
75,193,81829,2,0,L|91:99,1,85,0|0,1:2|1:2,0:0:0:0:
297,189,82129,1,8,0:0:0:0:
167,247,82279,6,0,B|260:222|242:290|332:267,1,170,0|0,1:2|1:2,0:0:0:0:
251,382,82729,2,0,P|213:354|207:304,1,85,8|0,0:0|0:0,0:0:0:0:
297,189,83029,1,2,1:2:0:0:
128,317,83179,2,0,L|39:310,1,85,0|8,1:2|0:0,0:0:0:0:
77,155,83479,6,0,P|138:155|157:260,1,170,6|0,1:2|1:2,0:0:0:0:
233,134,83929,2,0,P|225:87|245:51,1,85,8|0,0:0|0:0,0:0:0:0:
456,61,84229,2,0,B|366:52|387:113|296:100,1,170,0|8,1:2|0:0,0:0:0:0:
432,137,84679,1,0,1:2:0:0:
432,137,84829,6,0,P|449:175|440:216,1,85,0|0,0:0|1:2,0:0:0:0:
299,326,85129,1,8,0:0:0:0:
303,309,85279,1,0,0:0:0:0:
190,187,85429,1,0,1:2:0:0:
223,363,85579,1,0,1:2:0:0:
190,187,85729,1,8,0:0:0:0:
78,306,85879,6,0,B|147:302|147:302|179:272|179:272|261:263,1,170,4|0,1:2|1:2,0:0:0:0:
97,144,86329,2,0,L|115:241,1,85,8|0,0:0|0:0,0:0:0:0:
140,75,86629,2,0,P|96:60|55:73,1,85,0|0,1:2|1:2,0:0:0:0:
190,187,86929,2,0,P|213:185|237:179,1,42.5,8|4,0:0|3:0,0:0:0:0:
273,120,87079,6,0,B|365:99|353:164|443:149,1,170,4|8,1:2|0:0,0:0:0:0:
411,74,87454,1,0,1:0:0:0:
411,74,87529,2,0,L|416:20,1,42.5,8|8,0:0|0:0,0:0:0:0:
308,192,87679,2,0,L|311:234,1,42.5,0|0,1:0|1:0,0:0:0:0:
411,330,87829,1,4,3:0:0:0:
411,330,87904,2,0,L|419:273,2,42.5,4|8|8,3:0|3:0|3:0,0:0:0:0:
253,376,88129,6,0,B|208:372|208:372|185:352|185:352|125:345,1,127.5,8|0,0:0|0:0,0:0:0:0:
69,381,88429,5,4,1:2:0:0:
206,227,88879,5,4,1:2:0:0:
5,271,89329,5,4,1:2:0:0:
195,355,89779,5,4,1:2:0:0:
91,175,90079,5,0,1:2:0:0:
91,175,90154,1,0,1:2:0:0:
91,175,90229,1,8,0:0:0:0:
202,227,90379,2,0,B|293:240|274:168|370:181,1,170,4|0,1:2|0:0,0:0:0:0:
415,239,90829,5,6,1:2:0:0:
380,347,90979,1,2,0:0:0:0:
482,193,91129,2,0,L|466:111,1,76.4999976654053,10|2,0:0|0:0,0:0:0:0:
443,0,91429,1,2,1:2:0:0:
439,14,91579,1,2,1:2:0:0:
286,155,91729,2,0,L|365:182,1,76.4999976654053,10|2,0:0|0:0,0:0:0:0:
359,37,92029,5,2,1:2:0:0:
209,144,92179,1,2,1:2:0:0:
212,129,92329,1,10,0:0:0:0:
291,251,92479,1,2,1:2:0:0:
291,251,92779,1,0,1:2:0:0:
288,236,92929,1,8,0:0:0:0:
217,350,93079,6,0,L|48:339,1,152.999995330811,6|2,1:2|1:2,0:0:0:0:
128,220,93529,2,0,P|162:239|181:284,1,76.4999976654053,10|2,0:0|0:0,0:0:0:0:
27,261,93829,1,2,1:2:0:0:
92,147,93979,1,2,1:2:0:0:
27,261,94129,2,0,L|18:179,1,76.4999976654053,10|2,0:0|0:0,0:0:0:0:
209,51,94429,5,2,1:2:0:0:
103,40,94579,1,2,1:2:0:0:
92,147,94729,1,10,0:0:0:0:
198,158,94879,1,2,1:2:0:0:
198,158,95179,1,2,1:2:0:0:
192,172,95329,1,8,0:0:0:0:
296,266,95479,6,0,B|354:261|354:261|382:237|382:237|446:232,1,152.999995330811,6|2,1:2|1:2,0:0:0:0:
457,372,95929,2,0,P|423:336|415:287,1,76.4999976654053,10|0,0:0|0:0,0:0:0:0:
497,168,96229,1,2,1:2:0:0:
415,311,96379,1,2,1:2:0:0:
321,187,96529,1,8,0:0:0:0:
284,283,96679,6,0,B|203:299|216:236|136:253,1,152.999995330811,2|2,1:2|1:2,0:0:0:0:
181,379,97129,2,0,P|207:339|202:289,1,76.4999976654053,10|0,0:0|0:0,0:0:0:0:
91,192,97429,1,2,1:2:0:0:
138,322,97579,1,2,1:2:0:0:
91,192,97729,1,8,0:0:0:0:
258,210,97879,6,0,L|248:37,1,152.999995330811,6|10,1:2|0:0,0:0:0:0:
311,16,98254,1,8,0:0:0:0:
311,16,98329,2,0,L|363:23,1,38.2499988327027,2|0,1:2|1:2,0:0:0:0:
439,77,98479,2,0,L|387:84,1,38.2499988327027,2|0,1:2|1:2,0:0:0:0:
258,210,98629,5,10,3:0:0:0:
286,214,98704,1,8,3:0:0:0:
315,218,98779,1,6,3:0:0:0:
343,221,98854,1,4,3:0:0:0:
379,246,98929,1,10,3:0:0:0:
398,243,99004,1,8,3:0:0:0:
417,241,99079,1,6,3:0:0:0:
436,239,99154,1,4,3:0:0:0:
479,211,99229,5,10,0:0:0:0:
152,332,100429,6,0,L|67:326,1,76.4999976654053,6|2,1:2|0:0,0:0:0:0:
18,211,100729,2,0,P|32:173|63:150,1,76.4999976654053,10|2,0:0|0:0,0:0:0:0:
201,217,101029,1,2,1:2:0:0:
197,231,101179,1,2,1:2:0:0:
308,134,101329,2,0,P|333:117|381:117,1,76.4999976654053,10|2,0:0|0:0,0:0:0:0:
339,266,101629,6,0,P|312:252|288:211,1,76.4999976654053,2|2,1:2|1:2,0:0:0:0:
438,173,101929,1,10,0:0:0:0:
383,336,102079,2,0,P|412:300|449:289,1,76.4999976654053,2|8,1:2|0:0,0:0:0:0:
386,351,102379,1,10,0:0:0:0:
390,365,102679,6,0,B|303:382|330:320|230:341,1,152.999995330811,6|2,1:2|1:2,0:0:0:0:
138,384,103129,2,0,P|162:351|167:305,1,76.4999976654053,10|2,0:0|0:0,0:0:0:0:
51,190,103429,1,2,1:2:0:0:
90,319,103579,1,2,1:2:0:0:
204,227,103729,1,10,0:0:0:0:
201,211,103879,1,2,0:0:0:0:
312,312,104029,6,0,P|318:239|326:167,1,114.749996498108,2|0,1:2|0:0,0:0:0:0:
299,166,104329,1,10,0:0:0:0:
391,42,104479,2,0,P|456:42|506:114,1,152.999995330811,2|2,1:2|1:2,0:0:0:0:
505,108,104929,1,8,0:0:0:0:
322,197,105079,6,0,B|272:193|272:193|237:213|237:213|168:207,1,152.999995330811,6|2,1:2|1:2,0:0:0:0:
160,89,105529,2,0,P|199:105|221:138,1,76.4999976654053,10|0,0:0|0:0,0:0:0:0:
85,225,105829,2,0,L|111:131,2,76.4999976654053,2|2|8,1:2|1:2|0:0,0:0:0:0:
146,364,106279,6,0,B|136:350|105:348|105:348|224:314,1,152.999995330811,2|0,1:2|1:2,0:0:0:0:
342,384,106729,2,0,L|263:370,1,76.4999976654053,10|0,0:0|0:0,0:0:0:0:
392,254,107029,1,2,1:2:0:0:
482,384,107179,1,10,3:0:0:0:
485,365,107254,1,8,3:0:0:0:
488,346,107329,1,8,0:0:0:0:
392,254,107479,1,2,1:2:0:0:
392,254,107554,1,0,1:2:0:0:
392,254,107629,6,0,P|364:204|272:208,1,152.999995330811,4|8,1:2|0:0,0:0:0:0:
276,204,108079,1,0,1:2:0:0:
156,348,108229,1,0,0:0:0:0:
171,345,108379,1,0,1:2:0:0:
43,243,108529,2,0,P|69:275|102:290,1,76.4999976654053,8|0,0:0|0:0,0:0:0:0:
252,131,108829,5,6,1:2:0:0:
117,211,108979,1,0,1:2:0:0:
108,53,109129,1,8,0:0:0:0:
201,224,109279,2,0,B|193:280|193:280|211:327|211:327|200:395,1,161.499995687485,0|0,1:2|1:2,0:0:0:0:
349,284,109729,2,0,B|316:261|316:261|268:271,1,80.7499978437424,8|0,0:0|0:0,0:0:0:0:
429,384,110029,6,0,L|440:291,1,85,14|0,2:2|1:2,0:0:0:0:
456,129,110329,1,8,0:0:0:0:
349,284,110479,1,0,1:2:0:0:
505,225,110629,1,8,0:0:0:0:
350,117,110779,1,0,1:2:0:0:
438,299,110929,1,8,0:0:0:0:
456,129,111079,1,0,1:2:0:0:
300,199,111229,6,0,L|156:187,1,127.5,14|0,0:0|0:0,0:0:0:0:
130,271,111529,2,0,L|195:260,1,42.5,2|0,1:2|0:0,0:0:0:0:
244,116,111679,1,8,0:0:0:0:
244,116,111754,1,8,0:0:0:0:
244,116,111829,5,2,1:2:0:0:
70,219,111979,1,4,3:0:0:0:
70,219,112054,1,8,0:0:0:0:
70,219,112129,2,0,L|14:213,1,42.5,10|8,1:2|0:0,0:0:0:0:
174,90,112279,2,0,L|230:84,1,42.5,8|8,0:0|0:0,0:0:0:0:
410,252,112429,6,0,B|337:244|363:197|285:196,1,136,6|8,1:2|0:0,0:0:0:0:
289,341,112879,1,0,1:2:0:0:
289,341,113029,2,0,P|288:289|303:257,1,68,0|0,0:0|1:2,0:0:0:0:
401,110,113329,2,0,P|412:147|410:191,1,68,8|0,0:0|0:0,0:0:0:0:
291,196,113629,5,0,1:2:0:0:
410,252,113779,1,0,1:2:0:0:
410,269,113929,1,8,0:0:0:0:
180,141,114079,2,0,B|202:149|227:145|246:131|246:131|246:131|246:131|266:118|291:115|312:122,1,136,0|2,1:2|1:2,0:0:0:0:
145,73,114529,2,0,P|111:103|103:145,1,68,10|0,0:0|0:0,0:0:0:0:
184,254,114829,6,0,P|136:208|49:222,1,136,2|8,1:2|0:0,0:0:0:0:
168,345,115279,1,0,1:2:0:0:
168,345,115429,2,0,L|264:332,1,68,0|0,0:0|1:2,0:0:0:0:
343,260,115729,2,0,L|243:246,1,68,10|0,0:0|0:0,0:0:0:0:
452,382,116029,6,0,L|425:238,1,136,2|10,1:2|0:0,0:0:0:0:
275,250,116479,1,2,1:2:0:0:
354,342,116629,1,0,0:0:0:0:
352,355,116779,1,2,1:2:0:0:
301,176,116929,2,0,B|241:157|239:200|182:181,1,102,8|0,0:0|0:0,0:0:0:0:
125,203,117229,6,0,P|144:132|215:110,1,136,6|8,1:2|0:0,0:0:0:0:
178,265,117679,2,0,P|107:284|52:233,1,136,0|0,1:2|1:2,0:0:0:0:
201,185,118129,2,0,P|230:200|252:226,1,68,8|0,0:0|0:0,0:0:0:0:
339,305,118429,5,0,1:2:0:0:
339,305,118579,2,0,L|426:293,1,68,0|8,1:2|0:0,0:0:0:0:
415,133,118879,2,0,P|367:148|335:226,1,136,0|2,1:2|1:2,0:0:0:0:
481,223,119329,2,0,L|394:211,1,68,10|0,0:0|0:0,0:0:0:0:
283,110,119629,6,0,B|231:116|231:116|203:138|203:138|144:146,1,136,2|8,1:2|0:0,0:0:0:0:
104,44,120079,2,0,L|181:66,1,68,0|0,1:2|0:0,0:0:0:0:
127,223,120379,1,0,1:2:0:0:
127,223,120529,2,0,P|100:208|78:169,1,68,10|0,0:0|1:2,0:0:0:0:
78,143,120754,1,0,1:2:0:0:
78,143,120829,5,14,0:0:0:0:
208,216,120979,1,0,1:2:0:0:
67,136,121129,5,14,0:0:0:0:
223,223,121279,1,0,0:0:0:0:
167,369,121429,5,2,1:2:0:0:
318,289,121579,1,8,0:0:0:0:
334,292,121654,1,8,0:0:0:0:
350,295,121729,1,2,1:2:0:0:
499,384,121879,1,8,0:0:0:0:
493,379,121954,1,8,0:0:0:0:
490,372,122029,6,0,L|480:207,1,152.999995330811,6|8,1:2|0:0,0:0:0:0:
470,66,122479,1,0,1:2:0:0:
398,166,122629,1,0,0:0:0:0:
402,180,122779,1,0,1:2:0:0:
291,110,122929,2,0,P|252:98|214:101,1,76.4999976654053,10|0,0:0|0:0,0:0:0:0:
107,225,123229,6,0,B|200:229|159:161|275:175,1,152.999995330811,2|8,1:2|0:0,0:0:0:0:
245,173,123679,1,0,1:2:0:0:
256,324,123829,2,0,P|251:288|231:225,1,76.4999976654053,0|0,0:0|1:2,0:0:0:0:
377,379,124129,2,0,P|382:321|396:266,1,114.749996498108,10|0,0:0|0:0,0:0:0:0:
470,233,124429,6,0,P|436:196|339:209,1,152.999995330811,2|8,1:2|0:0,0:0:0:0:
256,324,124879,1,0,1:2:0:0:
245,173,125029,2,0,L|262:88,1,76.4999976654053,2|0,0:0|1:2,0:0:0:0:
248,61,125254,1,2,0:0:0:0:
248,61,125329,1,8,0:0:0:0:
341,206,125479,1,2,0:0:0:0:
159,255,125629,6,0,B|103:250|103:250|66:266|66:266|-15:258,1,152.999995330811,2|10,1:2|0:0,0:0:0:0:
9,260,126079,1,2,1:2:0:0:
46,111,126229,2,0,L|56:204,1,76.4999976654053,0|0,0:0|1:2,0:0:0:0:
116,330,126529,1,14,0:0:0:0:
192,183,126679,1,0,1:2:0:0:
192,183,126754,1,0,1:2:0:0:
192,183,126829,6,0,L|289:172,1,85,14|0,0:2|1:2,0:0:0:0:
200,339,127129,2,0,L|103:328,1,85,8|0,0:0|1:2,0:0:0:0:
46,111,127429,5,8,0:0:0:0:
149,252,127579,1,0,1:2:0:0:
148,77,127729,5,10,0:0:0:0:
45,217,127879,1,0,1:2:0:0:
276,173,128029,6,0,L|216:158,1,42.5,14|0,0:0|0:0,0:0:0:0:
326,307,128179,1,8,0:0:0:0:
326,307,128254,1,8,0:0:0:0:
326,307,128329,5,0,1:2:0:0:
434,208,128479,1,8,0:0:0:0:
310,44,128629,5,0,1:2:0:0:
308,75,128704,1,8,3:0:0:0:
306,107,128779,1,8,2:0:0:0:
304,139,128854,1,8,3:0:0:0:
276,173,128929,1,6,3:0:0:0:
278,194,129004,1,4,3:0:0:0:
279,215,129079,1,0,1:2:0:0:
280,236,129154,1,0,1:2:0:0:
298,282,129229,5,6,1:2:0:0:
230,109,129829,5,4,1:2:0:0:
115,255,130279,5,0,1:2:0:0:
115,255,130354,1,0,1:2:0:0:
115,255,130429,6,0,B|123:302|123:347|123:347|140:327|144:309,1,114.749996498108,14|0,0:0|0:0,0:0:0:0:
179,214,130729,6,0,P|137:180|58:206,1,121.124996765614,14|0,0:0|0:0,0:0:0:0:
198,286,131029,6,0,P|241:278|298:271,1,85,6|8,1:2|0:0,0:0:0:0:
315,299,131254,1,8,0:0:0:0:
315,299,131329,1,6,1:2:0:0:
383,173,131479,5,8,0:0:0:0:
383,173,131554,1,8,0:0:0:0:
383,173,131629,6,0,P|395:250|404:362,1,187.000005706787,6|8,1:2|0:0,0:0:0:0:
198,286,132079,1,2,0:0:0:0:
198,286,132229,2,0,P|241:278|302:270,1,93.5000028533936,2|0,1:2|1:2,0:0:0:0:
112,373,132529,1,8,0:0:0:0:
109,354,132679,1,2,0:0:0:0:
165,181,132829,5,2,1:2:0:0:
31,320,132979,1,0,1:2:0:0:
15,136,133129,2,0,B|72:141|72:141|98:158|98:158|155:163,1,140.25000428009,10|0,0:0|0:0,0:0:0:0:
206,105,133429,1,2,1:2:0:0:
42,214,133579,1,0,1:2:0:0:
198,286,133729,2,0,P|275:276|355:272,1,140.25000428009,10|0,0:0|0:0,0:0:0:0:
450,312,134029,6,0,B|427:308|427:308|400:218|400:218|359:200,1,140.25000428009,2|0,1:2|0:0,0:0:0:0:
255,202,134329,2,0,P|305:180|326:133,1,93.5000028533936,10|0,0:0|0:0,0:0:0:0:
152,9,134629,1,2,1:2:0:0:
246,125,134779,1,0,1:2:0:0:
70,183,134929,2,0,L|79:60,1,93.5000028533936,10|0,0:0|0:0,0:0:0:0:
71,303,135229,5,2,1:2:0:0:
92,275,135304,1,4,3:0:0:0:
123,259,135379,1,4,3:0:0:0:
158,257,135454,1,8,3:0:0:0:
196,286,135529,1,8,1:2:0:0:
217,295,135604,1,4,3:0:0:0:
240,296,135679,1,4,3:0:0:0:
262,290,135754,1,4,3:0:0:0:
309,230,135829,6,0,P|291:286|341:348,1,127.5,6|0,1:2|0:0,0:0:0:0:
376,183,136129,6,0,P|305:151|246:176,1,140.25000428009,6|0,1:2|0:0,0:0:0:0:
370,277,136429,6,0,L|535:257,1,140.25000428009,6|0,1:2|0:0,0:0:0:0:
502,116,136729,2,0,P|465:144|449:196,1,93.5000028533936,8|0,0:0|1:2,0:0:0:0:
512,338,137029,1,2,0:0:0:0:
370,277,137179,1,0,1:2:0:0:
254,348,137329,1,10,0:0:0:0:
162,301,137479,1,2,0:0:0:0:
261,165,137629,6,0,B|300:250|217:259|271:350,1,187.000005706787,0|10,1:2|0:0,0:0:0:0:
189,211,138079,1,2,1:2:0:0:
319,66,138229,1,0,0:0:0:0:
335,70,138379,1,0,1:2:0:0:
188,1,138529,2,0,L|88:26,1,93.5000028533936,8|2,0:0|0:0,0:0:0:0:
261,165,138829,5,2,1:2:0:0:
406,88,138979,1,8,0:0:0:0:
406,88,139054,1,8,0:0:0:0:
406,88,139129,2,0,L|471:104,1,46.7500014266968,10|4,0:0|3:0,0:0:0:0:
267,7,139279,5,6,1:2:0:0:
193,103,139579,5,6,1:2:0:0:
244,249,139879,6,0,B|319:239|319:239|356:256|356:256|430:244,1,187.000005706787,6|4,1:2|3:3,0:0:0:0:
269,360,140329,2,0,L|165:343,1,93.5000028533936,8|0,0:0|0:0,0:0:0:0:
17,315,140629,1,2,1:2:0:0:
171,262,140779,5,4,3:0:0:0:
171,262,140854,1,8,0:0:0:0:
171,262,140929,1,2,1:2:0:0:
32,144,141079,1,8,0:0:0:0:
37,172,141154,1,8,0:0:0:0:
43,201,141229,6,0,P|119:150|204:199,1,187.000005706787,6|8,1:2|0:0,0:0:0:0:
269,360,141679,1,2,0:0:0:0:
355,257,141829,1,2,1:2:0:0:
338,262,141979,1,0,1:2:0:0:
465,384,142129,2,0,P|458:334|458:268,1,93.5000028533936,8|2,0:0|0:0,0:0:0:0:
500,154,142429,5,2,1:2:0:0:
355,257,142579,1,0,1:2:0:0:
512,73,142729,2,0,B|437:73|450:122|374:116,1,140.25000428009,10|0,0:0|0:0,0:0:0:0:
323,61,143029,5,2,1:2:0:0:
500,154,143179,1,0,1:2:0:0:
355,257,143329,2,0,P|289:251|197:249,1,140.25000428009,10|0,0:0|0:0,0:0:0:0:
144,285,143629,5,6,1:2:0:0:
96,103,143779,1,0,1:2:0:0:
29,218,143929,5,10,0:0:0:0:
211,170,144079,1,0,1:2:0:0:
211,170,144154,1,0,1:2:0:0:
211,170,144229,1,10,0:0:0:0:
94,92,144379,5,0,1:2:0:0:
146,292,144529,1,10,0:0:0:0:
294,147,144679,6,0,B|390:163|353:224|458:235,1,187.000005706787,6|8,1:2|3:0,0:0:0:0:
447,143,145054,1,8,3:0:0:0:
447,143,145129,2,0,P|404:158|374:209,1,93.5000028533936,2|4,1:2|3:0,0:0:0:0:
268,320,145429,6,0,P|212:297|136:292,1,127.5,6|0,1:2|0:0,0:0:0:0:
62,354,145729,6,0,P|109:297|74:227,1,140.25000428009,14|0,0:0|0:0,0:0:0:0:
11,137,146029,6,0,B|41:196|-15:214|23:288,1,140.25000428009,6|0,1:2|0:0,0:0:0:0:
90,239,146329,2,0,P|137:213|192:226,1,93.5000028533936,8|0,0:0|1:2,0:0:0:0:
268,320,146629,1,2,0:0:0:0:
215,150,146779,1,0,1:2:0:0:
350,232,146929,2,0,L|491:217,1,140.25000428009,10|0,0:0|0:0,0:0:0:0:
337,158,147229,6,0,P|293:179|275:226,1,93.5000028533936,2|0,1:2|1:2,0:0:0:0:
352,314,147529,1,10,0:0:0:0:
202,260,147679,1,2,1:2:0:0:
350,232,147829,1,0,1:2:0:0:
223,384,147979,1,4,3:0:0:0:
223,384,148054,1,4,3:0:0:0:
223,384,148129,2,0,P|153:355|79:370,1,140.25000428009,0|4,1:2|3:0,0:0:0:0:
11,377,148429,5,14,0:0:0:0:
99,195,148579,1,0,1:2:0:0:
101,213,148729,1,0,1:2:0:0:
90,364,148879,5,14,0:0:0:0:
14,163,149029,1,0,1:2:0:0:
12,181,149179,1,0,1:2:0:0:
184,263,149329,6,0,L|200:159,1,93.5000028533936,14|0,0:0|1:2,0:0:0:0:
212,77,149629,5,14,0:0:0:0:
212,77,149704,1,4,3:0:0:0:
212,77,149779,2,0,L|273:68,1,46.7500014266968,4|4,3:0|3:0,0:0:0:0:
312,214,149929,5,10,3:0:0:0:
312,214,150004,1,8,3:0:0:0:
312,214,150079,2,0,L|258:209,1,46.7500014266968,4|4,3:0|3:0,0:0:0:0:
481,196,150229,5,14,0:0:0:0:
460,186,150304,1,4,3:3:0:0:
439,195,150379,1,4,3:0:0:0:
433,217,150454,1,8,0:0:0:0:
446,235,150529,1,10,0:0:0:0:
454,281,150604,1,8,0:0:0:0:
436,323,150679,6,0,L|248:307,1,170,6|2,1:2|1:2,0:0:0:0:
70,380,151129,5,10,0:0:0:0:
70,380,151229,2,2,L|132:370,1,56.6666666666667
203,356,151429,5,2,1:2:0:0:
117,215,151579,1,2,1:2:0:0:
4,335,151729,1,8,0:0:0:0:
200,238,151879,6,0,B|214:151|146:156|169:63,1,170,2|2,1:2|1:2,0:0:0:0:
319,58,152329,2,0,P|284:91|244:99,1,85,10|2,0:0|0:0,0:0:0:0:
117,215,152629,1,0,1:2:0:0:
280,172,152779,1,2,1:2:0:0:
296,176,152929,1,10,0:0:0:0:
166,75,153079,6,0,B|104:85|104:85|77:113|77:113|7:125,1,170,6|0,1:2|1:2,0:0:0:0:
69,0,153529,2,0,L|82:94,1,85,10|6,0:0|3:0,0:0:0:0:
102,252,153829,1,2,1:2:0:0:
182,159,153979,1,2,1:2:0:0:
182,159,154054,1,2,0:0:0:0:
182,159,154129,1,10,0:0:0:0:
263,309,154279,6,0,B|366:296|315:246|417:237,1,170,2|2,1:2|1:2,0:0:0:0:
512,155,154729,2,0,P|464:148|431:118,1,85,10|2,0:0|0:0,0:0:0:0:
358,1,155029,1,2,1:2:0:0:
363,162,155179,1,2,1:2:0:0:
501,77,155329,1,10,0:0:0:0:
358,1,155479,6,0,B|295:7|295:7|269:32|269:32|176:43,1,170,6|2,1:2|1:2,0:0:0:0:
45,0,155929,1,10,0:0:0:0:
176,118,156079,1,2,0:0:0:0:
62,203,156229,1,2,1:2:0:0:
62,203,156379,2,0,L|68:89,1,85,0|8,1:2|0:0,0:0:0:0:
235,187,156679,6,0,L|244:375,1,170,2|2,1:2|1:2,0:0:0:0:
243,356,157129,1,10,0:0:0:0:
332,226,157279,1,2,0:0:0:0:
147,314,157429,2,0,L|26:301,2,85,0|2|8,1:2|1:2|0:0,0:0:0:0:
335,384,157879,6,0,B|381:384|394:332|394:332|406:279|453:280,1,170,6|2,1:2|1:2,0:0:0:0:
498,379,158329,2,0,P|460:365|401:364,1,85,10|2,0:0|1:2,0:0:0:0:
244,355,158629,1,10,0:0:0:0:
342,141,158779,2,0,L|331:225,1,85,2|10,1:2|0:0,0:0:0:0:
265,74,159079,6,0,P|326:36|421:69,1,170,6|10,1:2|0:0,0:0:0:0:
250,163,159529,1,10,0:0:0:0:
250,163,159604,1,6,3:0:0:0:
250,163,159679,2,0,L|195:155,1,42.5,2|2,1:2|1:2,0:0:0:0:
134,93,159829,1,6,3:0:0:0:
134,93,159904,1,10,3:0:0:0:
134,93,159979,2,0,L|79:101,1,42.5,2|2,1:2|1:2,0:0:0:0:
0,164,160129,1,10,0:0:0:0:
150,295,160279,6,0,B|245:301|220:236|311:249,1,170,6|2,1:2|1:2,0:0:0:0:
365,311,160729,1,10,0:0:0:0:
449,168,160879,1,2,0:0:0:0:
451,184,161029,1,2,1:2:0:0:
373,118,161179,1,2,1:2:0:0:
448,271,161329,1,10,0:0:0:0:
307,248,161479,6,0,B|220:236|245:301|150:295,1,170,2|2,1:2|1:2,0:0:0:0:
147,148,161929,2,0,P|188:155|223:194,1,85,10|2,0:0|0:0,0:0:0:0:
82,226,162229,1,2,1:2:0:0:
107,77,162379,1,2,1:2:0:0:
107,77,162454,1,2,0:0:0:0:
107,77,162529,1,10,0:0:0:0:
0,203,162679,6,0,L|25:392,1,170,6|2,1:2|1:2,0:0:0:0:
98,355,163054,1,2,0:0:0:0:
98,355,163129,2,0,P|121:347|154:338,3,42.5,10|2|2|2,0:0|0:0|0:0|0:0,0:0:0:0:
191,284,163429,2,0,P|212:294|242:311,3,42.5,2|2|2|2,1:2|0:0|1:2|0:0,0:0:0:0:
306,299,163729,2,0,P|314:321|323:354,3,42.5,10|2|2|2,0:0|0:0|1:2|0:0,0:0:0:0:
442,371,164029,5,2,0:0:0:0:
440,355,164104,1,2,0:0:0:0:
439,339,164179,1,2,1:2:0:0:
437,323,164254,1,2,0:0:0:0:
436,307,164329,1,10,0:0:0:0:
435,291,164404,1,2,0:0:0:0:
433,275,164479,1,2,0:0:0:0:
432,259,164554,1,2,0:0:0:0:
431,243,164629,5,0,0:0:0:0:
325,109,164779,2,0,L|321:151,1,42.5,10|10,0:0|0:0,0:0:0:0:
430,36,164929,1,10,0:0:0:0:
344,232,165079,6,0,B|278:227|278:227|252:206|252:206|176:199,1,170,6|2,1:2|1:2,0:0:0:0:
37,308,165529,2,0,L|132:293,1,85,10|0,0:0|1:2,0:0:0:0:
230,126,165829,1,10,0:0:0:0:
216,282,165979,1,0,1:2:0:0:
87,191,166129,1,10,0:0:0:0:
179,364,166279,6,0,B|274:378|250:307|341:322,1,170,6|0,1:2|1:2,0:0:0:0:
405,384,166729,2,0,P|416:328|440:286,1,85,10|0,0:0|0:0,0:0:0:0:
344,165,167029,2,0,P|361:202|366:256,1,85,2|4,1:2|3:0,0:0:0:0:
270,140,167254,1,8,3:0:0:0:
270,140,167329,2,0,P|304:96|354:91,1,85,6|8,1:2|3:0,0:0:0:0:
215,202,167629,6,0,L|161:193,3,42.5,6|2|2|2,1:2|0:0|0:0|0:0,0:0:0:0:
118,140,167929,2,0,L|64:149,3,42.5,10|2|2|2,0:0|0:0|1:2|0:0,0:0:0:0:
30,209,168229,5,2,0:0:0:0:
30,209,168304,1,2,0:0:0:0:
30,209,168379,2,0,L|38:260,1,42.5,2|2,1:2|0:0,0:0:0:0:
92,342,168529,2,0,L|103:280,3,42.5,10|2|2|2,0:0|0:0|0:0|0:0,0:0:0:0:
185,384,168829,5,6,1:2:0:0:
199,368,168904,1,2,0:0:0:0:
217,357,168979,1,2,0:0:0:0:
237,352,169054,1,2,0:0:0:0:
259,353,169129,2,0,P|283:363|307:367,3,42.5,10|2|2|2,0:0|0:0|1:2|0:0,0:0:0:0:
338,268,169429,5,2,0:0:0:0:
338,268,169504,1,2,0:0:0:0:
338,268,169579,2,0,P|315:278|297:290,1,42.5,2|2,1:2|0:0,0:0:0:0:
458,371,169729,2,0,L|453:311,1,42.5,10|2,0:0|0:0,0:0:0:0:
429,247,169879,2,0,L|434:187,1,42.5,2|2,1:2|0:0,0:0:0:0:
463,79,170029,5,14,0:0:0:0:
436,71,170104,1,2,0:0:0:0:
409,72,170179,1,6,3:0:0:0:
381,79,170254,1,6,3:0:0:0:
358,92,170329,1,6,3:0:0:0:
337,111,170404,1,6,3:0:0:0:
323,135,170479,1,6,3:0:0:0:
298,161,170554,1,2,0:0:0:0:
266,180,170629,5,14,3:0:0:0:
231,187,170704,1,10,3:0:0:0:
194,183,170779,1,6,3:0:0:0:
160,167,170854,1,6,3:0:0:0:
134,143,170929,1,6,3:0:0:0:
167,100,171004,1,6,3:0:0:0:
218,78,171079,1,6,3:0:0:0:
272,85,171154,1,6,3:0:0:0:
323,135,171229,5,14,0:0:0:0:
243,343,172429,6,0,B|130:362|161:270|46:301,1,204,6|0,1:2|0:0,0:0:0:0:
197,210,173029,2,0,B|216:201|225:176|225:176|207:274,1,136,8|0,0:0|1:2,0:0:0:0:
365,384,173629,6,0,L|351:164,1,204,0|0,1:2|1:2,0:0:0:0:
352,180,174229,1,8,0:0:0:0:
249,72,174829,6,0,B|177:83|177:83|136:118|136:118|54:131,1,204,0|0,1:2|0:0,0:0:0:0:
7,75,175429,1,8,0:0:0:0:
214,156,175729,1,2,1:2:0:0:
214,156,176029,2,0,P|203:236|199:312,1,136,6|2,1:2|0:0,0:0:0:0:
242,353,176479,1,0,1:2:0:0:
131,201,176629,5,10,0:0:0:0:
67,252,176929,1,2,0:0:0:0:
199,291,177229,6,0,P|249:242|372:287,1,204,6|0,1:2|0:0,0:0:0:0:
421,353,177829,2,0,P|454:289|516:278,1,136,8|0,0:0|1:2,0:0:0:0:
365,276,178429,6,0,P|355:167|277:89,1,204,0|0,1:2|1:2,0:0:0:0:
213,84,179029,2,0,P|271:79|326:25,1,136,8|2,0:0|0:0,0:0:0:0:
132,0,179479,1,0,1:2:0:0:
132,0,179554,1,0,1:2:0:0:
132,0,179629,6,0,L|136:77,1,68,10|0,0:0|0:0,0:0:0:0:
43,138,179929,2,0,L|46:70,1,68,0|0,1:2|1:2,0:0:0:0:
213,84,180229,2,0,L|217:161,1,68,0|0,1:2|1:2,0:0:0:0:
71,216,180529,1,10,0:0:0:0:
128,147,180679,1,8,0:0:0:0:
276,205,180829,5,14,0:0:0:0:
189,314,180979,1,4,3:0:0:0:
190,292,181054,1,4,3:0:0:0:
191,271,181129,1,6,3:0:0:0:
192,250,181204,1,0,1:0:0:0:
193,229,181279,1,12,0:0:0:0:
322,363,181429,1,6,3:0:0:0:
321,341,181504,1,4,3:0:0:0:
320,320,181579,1,4,3:0:0:0:
319,299,181654,1,0,1:0:0:0:
318,278,181729,2,0,P|373:237|438:253,1,127.5,14|0,2:0|0:0,0:0:0:0:
481,310,182029,6,0,P|442:246|487:154,1,152.999995330811,6|8,1:2|0:0,0:0:0:0:
413,83,182479,1,0,1:2:0:0:
313,172,182629,1,0,0:0:0:0:
328,170,182779,1,0,1:2:0:0:
227,92,182929,2,0,L|144:81,1,76.4999976654053,10|0,0:0|0:0,0:0:0:0:
23,200,183229,6,0,B|82:196|82:196|110:173|110:173|188:164,1,152.999995330811,2|8,1:2|0:0,0:0:0:0:
230,227,183679,1,0,1:2:0:0:
136,324,183829,2,0,L|149:222,1,76.4999976654053,0|0,0:0|1:2,0:0:0:0:
23,200,184129,2,0,L|32:275,1,76.4999976654053,10|0,0:0|0:0,0:0:0:0:
202,380,184429,6,0,P|255:333|340:341,1,152.999995330811,2|8,1:2|0:0,0:0:0:0:
333,337,184879,1,0,1:2:0:0:
419,170,185029,2,0,L|406:272,1,76.4999976654053,2|0,0:0|1:2,0:0:0:0:
403,284,185254,1,2,0:0:0:0:
403,284,185329,1,8,0:0:0:0:
307,200,185479,1,2,0:0:0:0:
395,89,185629,6,0,P|448:93|502:178,1,152.999995330811,2|10,1:2|0:0,0:0:0:0:
403,284,186079,1,2,1:2:0:0:
419,170,186229,2,0,L|409:245,1,76.4999976654053,0|0,0:0|1:2,0:0:0:0:
403,284,186454,1,0,1:0:0:0:
403,284,186529,2,0,P|349:277|311:326,1,114.749996498108,10|0,0:0|1:2,0:0:0:0:
247,368,186829,6,0,L|124:350,1,114.749996498108,14|0,0:0|0:0,0:0:0:0:
59,384,187129,5,8,0:0:0:0:
186,201,187279,1,0,1:2:0:0:
29,298,187429,5,8,0:0:0:0:
33,312,187579,1,0,1:2:0:0:
113,167,187729,5,10,0:0:0:0:
109,181,187879,1,0,1:2:0:0:
251,265,188029,6,0,B|304:257|304:257|326:266|326:266|377:260,1,114.749996498108,14|0,0:0|0:0,0:0:0:0:
415,198,188329,2,0,P|393:145|326:127,1,114.749996498108,0|0,1:2|0:0,0:0:0:0:
275,185,188629,1,8,0:0:0:0:
395,50,188779,1,8,0:0:0:0:
395,50,188854,1,8,0:0:0:0:
395,50,188929,2,0,L|445:42,1,38.2499988327027,10|8,1:2|0:0,0:0:0:0:
342,124,189079,2,0,L|292:116,1,38.2499988327027,8|0,0:0|0:0,0:0:0:0:
214,43,189229,6,0,L|95:62,1,101.999996887207,6|8,1:2|0:0,0:0:0:0:
30,143,189529,5,8,1:2:0:0:
22,156,189629,2,0,L|92:166,1,50.9999984436036,4|8,3:3|0:0,0:0:0:0:
141,208,189829,6,0,B|149:253|149:253|120:314,1,101.999996887207,8|8,1:2|3:0,0:0:0:0:
52,378,190129,2,0,L|1:370,2,50.9999984436036,0|8|0,1:2|3:0|0:0,0:0:0:0:
130,381,190429,5,4,1:2:0:0:
256,192,190504,12,0,191479,0:0:0:0:
378,225,191629,6,0,B|304:217|323:265|238:255,1,127.5,2|2,0:0|0:0,0:0:0:0:
210,196,192229,1,2,0:0:0:0:
210,196,192679,1,2,0:0:0:0:
151,245,192829,2,0,P|108:229|53:239,1,85,2|2,0:0|0:0,0:0:0:0:
17,176,193429,1,2,0:0:0:0:
68,119,193729,1,2,0:0:0:0:
50,44,194029,5,2,0:0:0:0:
50,44,194329,1,2,0:0:0:0:
123,64,194629,2,0,P|174:47|219:44,1,85,2|2,0:0|0:0,0:0:0:0:
277,68,195229,1,2,0:0:0:0:
369,189,195829,5,2,0:0:0:0:
356,264,196129,1,2,0:0:0:0:
342,339,196429,2,0,P|310:293|193:307,1,170,2|2,0:0|0:0,0:0:0:0:
166,361,197329,1,2,0:0:0:0:
98,324,197629,2,0,L|113:224,1,85,2|2,0:0|0:0,0:0:0:0:
68,175,198079,1,2,0:0:0:0:
199,96,198679,5,2,0:0:0:0:
254,148,198829,2,0,P|301:149|332:114,1,85,2|2,0:0|0:0,0:0:0:0:
404,164,199279,1,2,0:0:0:0:
404,164,199579,1,2,0:0:0:0:
404,164,199879,1,2,0:0:0:0:
467,338,200629,6,0,P|426:328|372:325,1,85,2|2,0:0|0:0,0:0:0:0:
330,380,201229,2,0,P|354:350|323:261,1,127.5,2|2,0:0|0:0,0:0:0:0:
258,265,201829,1,2,0:0:0:0:
258,265,202279,1,2,0:0:0:0:
192,225,202429,2,0,L|202:130,1,85,2|2,0:0|0:0,0:0:0:0:
143,89,203029,2,0,P|105:90|68:134,1,85,2|2,0:0|0:0,0:0:0:0:
74,197,203629,5,2,0:0:0:0:
26,256,203929,1,2,0:0:0:0:
26,256,204229,1,2,0:0:0:0:
36,331,204529,1,2,0:0:0:0:
104,365,204679,2,0,L|243:345,1,127.5,2|2,0:0|0:0,0:0:0:0:
278,287,205429,1,2,0:0:0:0:
278,287,205729,1,2,0:0:0:0:
333,340,206029,6,0,P|335:280|345:248,1,85,2|0,0:0|0:0,0:0:0:0:
405,214,206629,1,2,0:0:0:0:
375,143,206929,1,2,0:0:0:0:
375,143,207229,2,0,L|283:129,1,85,2|2,0:0|0:0,0:0:0:0:
290,130,207679,1,2,0:0:0:0:
230,179,208429,6,0,B|95:188|160:264|12:266,1,238,6|0,1:2|0:0,0:0:0:0:
1,235,209029,5,2,1:2:0:0:
61,144,209329,5,0,1:2:0:0:
113,269,209629,5,0,1:2:0:0:
176,118,209929,5,0,1:2:0:0:
227,301,210229,5,0,1:2:0:0:
290,92,210529,5,0,1:2:0:0:
361,206,210829,5,8,0:0:0:0:
370,204,210904,1,8,0:0:0:0:
379,203,210979,1,8,3:0:0:0:
389,202,211054,1,4,3:0:0:0:
398,200,211129,2,0,L|456:196,1,42.5,0|0,1:2|1:2,0:0:0:0:
381,317,211279,5,8,0:0:0:0:
372,315,211354,1,8,0:0:0:0:
363,314,211429,1,8,3:0:0:0:
353,313,211504,1,4,3:0:0:0:
344,312,211579,2,0,L|288:306,1,42.5,0|0,1:2|1:2,0:0:0:0:
478,364,211729,6,0,L|454:271,1,85,4|0,1:2|0:0,0:0:0:0:
283,225,212029,5,2,0:0:0:0:
199,283,212329,5,2,0:0:0:0:
83,252,212629,5,2,0:0:0:0:
37,123,212929,5,2,0:0:0:0:
139,9,213229,6,0,B|254:8|207:59|327:58,1,187.000005706787,6|10,1:2|0:0,0:0:0:0:
488,0,213679,1,2,0:0:0:0:
488,0,213829,2,0,P|443:31|424:73,1,93.5000028533936,2|0,1:2|1:2,0:0:0:0:
497,218,214129,1,8,0:0:0:0:
425,64,214279,1,2,0:0:0:0:
340,164,214429,5,2,1:2:0:0:
510,84,214579,1,0,1:2:0:0:
433,273,214729,2,0,L|264:253,1,140.25000428009,10|0,0:0|0:0,0:0:0:0:
242,194,215029,5,2,1:2:0:0:
332,372,215179,1,0,1:2:0:0:
170,234,215329,2,0,P|162:175|217:116,1,140.25000428009,10|0,0:0|0:0,0:0:0:0:
349,59,215629,6,0,B|329:47|329:47|236:42|236:42|215:27,1,140.25000428009,2|0,1:2|0:0,0:0:0:0:
110,0,215929,2,0,L|123:105,1,93.5000028533936,10|0,0:0|0:0,0:0:0:0:
70,212,216229,1,2,1:2:0:0:
212,117,216379,1,0,1:2:0:0:
105,293,216529,2,0,L|-8:285,1,93.5000028533936,10|0,0:0|1:2,0:0:0:0:
303,371,216829,5,2,1:2:0:0:
302,336,216904,1,4,3:0:0:0:
300,301,216979,1,4,3:0:0:0:
298,266,217054,1,8,3:0:0:0:
268,228,217129,1,8,1:2:0:0:
270,205,217204,1,4,3:0:0:0:
272,182,217279,1,4,3:0:0:0:
274,159,217354,1,4,3:0:0:0:
320,104,217429,6,0,P|267:138|200:100,1,127.5,6|0,1:2|0:0,0:0:0:0:
316,23,217729,2,0,P|369:41|390:143,1,140.25000428009,6|0,1:2|0:0,0:0:0:0:
512,100,218029,6,0,P|470:148|463:248,1,140.25000428009,6|0,1:2|0:0,0:0:0:0:
465,308,218329,2,0,B|427:303|427:303|414:295|414:295|369:289,1,93.5000028533936,8|0,0:0|1:2,0:0:0:0:
218,149,218629,1,2,0:0:0:0:
263,253,218779,1,0,1:2:0:0:
365,207,218929,1,10,0:0:0:0:
320,104,219079,1,2,0:0:0:0:
92,195,219229,6,0,B|191:190|161:260|262:253,1,187.000005706787,4|10,1:2|0:0,0:0:0:0:
365,207,219679,1,2,1:2:0:0:
191,342,219829,1,0,0:0:0:0:
172,338,219979,1,0,1:2:0:0:
314,369,220129,2,0,L|301:267,1,93.5000028533936,8|2,0:0|1:2,0:0:0:0:
278,90,220429,5,10,0:2:0:0:
365,207,220579,1,0,1:2:0:0:
365,207,220654,1,0,1:2:0:0:
365,207,220729,2,0,L|373:141,1,46.7500014266968,10|0,0:0|0:0,0:0:0:0:
390,2,220879,5,6,1:2:0:0:
482,66,221179,5,6,1:2:0:0:
463,62,221329,1,8,0:0:0:0:
371,161,221479,6,0,L|349:350,1,187.000005706787,6|8,1:2|0:0,0:0:0:0:
267,243,221854,1,8,0:0:0:0:
267,243,221929,2,0,L|379:255,1,93.5000028533936,8|0,0:0|1:2,0:0:0:0:
451,261,222154,1,0,1:2:0:0:
451,261,222229,5,2,1:2:0:0:
286,147,222379,1,4,3:0:0:0:
359,252,222529,1,10,0:0:0:0:
198,301,222829,6,0,B|132:293|132:293|101:258|101:258|22:246,1,187.000005706787,6|8,1:2|0:0,0:0:0:0:
101,384,223279,1,2,0:0:0:0:
167,203,223429,1,2,1:2:0:0:
170,221,223579,1,0,1:2:0:0:
25,82,223729,2,0,L|9:180,1,93.5000028533936,8|2,0:0|0:0,0:0:0:0:
139,74,224029,5,2,1:2:0:0:
28,246,224179,1,0,1:2:0:0:
206,135,224329,2,0,B|281:126|261:179|367:165,1,140.25000428009,10|0,0:0|0:0,0:0:0:0:
398,112,224629,5,2,1:2:0:0:
222,214,224779,1,0,1:2:0:0:
354,259,224929,2,0,P|346:207|339:165,1,93.5000028533936,10|0,0:0|1:2,0:0:0:0:
177,347,225229,5,14,0:2:0:0:
89,169,225379,1,0,1:2:0:0:
222,214,225529,5,10,0:0:0:0:
44,302,225679,1,0,0:0:0:0:
181,356,225829,5,10,0:0:0:0:
84,160,225979,1,8,0:0:0:0:
108,120,226054,1,8,0:0:0:0:
147,96,226129,1,10,0:0:0:0:
194,94,226204,1,8,0:0:0:0:
235,114,226279,6,0,B|347:121|305:47|431:68,1,187.000005706787,6|8,1:2|0:0,0:0:0:0:
486,118,226654,1,8,0:0:0:0:
486,118,226729,2,0,L|475:224,1,93.5000028533936,10|0,3:0|1:0,0:0:0:0:
503,291,226954,1,0,1:0:0:0:
503,291,227029,1,6,1:2:0:0:
340,377,227179,5,4,3:0:0:0:
340,377,227254,1,4,3:0:0:0:
340,377,227329,6,0,P|278:363|171:358,1,140.25000428009,14|0,0:0|0:0,0:0:0:0:
114,383,227629,6,0,P|65:333|85:245,1,140.25000428009,6|0,1:2|0:0,0:0:0:0:
164,180,227929,2,0,P|113:199|77:185,1,93.5000028533936,8|0,0:0|1:2,0:0:0:0:
137,71,228229,1,2,0:0:0:0:
9,221,228379,1,0,1:2:0:0:
188,259,228529,2,0,B|248:252|248:252|272:232|272:232|346:223,1,140.25000428009,10|0,0:0|0:0,0:0:0:0:
386,280,228829,5,14,0:2:0:0:
246,154,228979,1,0,1:2:0:0:
417,60,229129,2,0,L|395:220,1,140.25000428009,14|0,0:0|0:0,0:0:0:0:
386,280,229429,1,0,1:2:0:0:
265,375,229579,1,0,1:2:0:0:
233,375,229654,1,8,0:0:0:0:
203,368,229729,1,8,0:0:0:0:
177,351,229804,1,4,3:0:0:0:
151,334,229879,1,8,3:0:0:0:
121,328,229954,1,8,3:0:0:0:
90,330,230029,5,14,0:0:0:0:
213,228,230179,1,0,1:2:0:0:
230,234,230329,1,0,1:2:0:0:
121,179,230479,5,14,0:0:0:0:
268,301,230629,1,0,1:2:0:0:
286,299,230779,1,0,1:2:0:0:
74,342,230929,6,0,P|51:301|60:244,1,93.5000028533936,14|0,0:0|1:2,0:0:0:0:
202,147,231229,5,14,0:0:0:0:
202,147,231304,1,4,3:0:0:0:
202,147,231379,2,0,L|209:212,1,46.7500014266968,0|4,1:0|3:0,0:0:0:0:
88,64,231529,5,6,3:0:0:0:
88,64,231604,1,8,3:0:0:0:
88,64,231679,2,0,L|81:129,1,46.7500014266968,8|8,3:0|3:0,0:0:0:0:
175,276,231829,5,14,0:0:0:0:
221,280,231904,1,4,3:0:0:0:
262,260,231979,1,4,3:0:0:0:
288,221,232054,1,8,0:0:0:0:
313,182,232129,1,10,0:0:0:0:
355,162,232204,1,8,0:0:0:0:
401,166,232279,6,0,P|446:216|399:333,1,170,6|0,1:2|1:2,0:0:0:0:
330,381,232729,2,0,P|292:360|252:357,1,85,8|0,0:0|0:0,0:0:0:0:
96,299,233029,2,0,P|138:295|174:275,1,85,0|0,1:2|1:2,0:0:0:0:
210,198,233329,1,8,0:0:0:0:
70,57,233479,6,0,B|77:123|77:123|103:152|103:152|114:225,1,170,0|0,1:2|1:2,0:0:0:0:
11,271,233929,2,0,L|28:179,1,85,8|0,0:0|0:0,0:0:0:0:
161,77,234229,2,0,P|213:97|208:199,1,170,2|8,1:2|0:0,0:0:0:0:
211,350,234679,6,0,P|224:287|325:271,1,170,6|0,1:2|1:2,0:0:0:0:
438,304,235129,2,0,P|399:264|389:226,1,85,8|0,0:0|0:0,0:0:0:0:
421,98,235429,1,0,1:2:0:0:
472,210,235579,1,0,1:2:0:0:
470,226,235729,1,10,0:0:0:0:
295,146,235879,6,0,B|227:140|227:140|198:159|198:159|110:149,1,170,2|0,1:2|1:2,0:0:0:0:
192,0,236329,2,0,P|225:30|236:84,1,85,10|0,0:0|0:0,0:0:0:0:
131,151,236629,1,2,1:2:0:0:
180,247,236779,2,0,L|278:237,1,85,2|8,1:2|0:0,0:0:0:0:
188,376,237079,6,0,L|-13:357,1,170,6|0,1:2|1:2,0:0:0:0:
239,312,237529,2,0,P|268:346|272:386,1,85,8|0,0:0|0:0,0:0:0:0:
180,247,237829,2,0,P|183:202|208:171,2,85,0|0|8,1:2|1:2|0:0,0:0:0:0:
274,116,238279,6,0,B|376:129|326:168|427:183,1,170,0|0,1:2|1:2,0:0:0:0:
447,22,238729,2,0,P|406:46|387:92,1,85,8|0,0:0|0:0,0:0:0:0:
505,229,239029,2,0,L|500:128,1,85,0|0,1:2|1:2,0:0:0:0:
288,201,239329,1,8,0:0:0:0:
414,321,239479,6,0,B|351:314|351:314|323:290|323:290|241:280,1,170,4|0,1:2|1:2,0:0:0:0:
104,356,239929,1,8,0:0:0:0:
191,228,240079,1,0,1:2:0:0:
189,206,240154,1,0,1:2:0:0:
188,184,240229,1,8,0:0:0:0:
77,241,240379,1,0,1:2:0:0:
178,307,240529,1,8,0:0:0:0:
272,164,240679,6,0,P|247:123|134:118,1,170,6|8,1:2|0:0,0:0:0:0:
53,155,241054,1,8,0:0:0:0:
53,155,241129,2,0,P|59:109|34:65,1,85,10|0,0:0|1:2,0:0:0:0:
0,215,241354,1,0,1:2:0:0:
0,215,241429,1,6,3:3:0:0:
188,184,241579,1,2,1:2:0:0:
77,241,241729,1,8,0:0:0:0:
265,272,241879,6,0,B|368:278|321:213|435:224,1,170,6|0,1:2|1:2,0:0:0:0:
462,366,242329,2,0,P|427:338|406:300,1,85,8|0,0:0|0:0,0:0:0:0:
286,192,242629,2,0,P|292:147|315:110,1,85,0|0,1:2|1:2,0:0:0:0:
393,85,242929,1,8,0:0:0:0:
143,1,243079,6,0,P|194:43|210:150,1,170,0|0,1:2|1:2,0:0:0:0:
58,164,243529,2,0,P|87:119|123:101,1,85,8|0,0:0|0:0,0:0:0:0:
257,263,243829,1,0,1:2:0:0:
146,189,243979,1,0,1:2:0:0:
138,323,244129,1,8,0:0:0:0:
273,254,244279,6,0,B|340:261|340:261|370:282|370:282|456:292,1,170,4|0,1:2|1:2,0:0:0:0:
309,335,244729,1,8,0:0:0:0:
400,207,244879,1,0,1:2:0:0:
400,207,244954,1,0,1:2:0:0:
400,207,245029,1,8,0:0:0:0:
247,133,245179,1,0,1:2:0:0:
273,254,245329,1,8,0:0:0:0:
136,335,245479,6,0,P|77:321|36:211,1,170,4|8,1:2|0:0,0:0:0:0:
137,97,245929,2,0,L|129:170,1,42.5,4|4,3:0|3:0,0:0:0:0:
120,243,246079,1,4,3:0:0:0:
120,243,246154,1,4,3:0:0:0:
120,243,246229,1,8,0:0:0:0:
232,117,246379,2,0,P|265:91|351:94,1,127.5,4|0,1:2|0:0,0:0:0:0:
367,176,246679,6,0,P|341:131|429:56,1,170,4|0,1:2|1:2,0:0:0:0:
391,253,247129,2,0,P|343:252|301:225,1,85,8|0,0:0|0:0,0:0:0:0:
409,122,247429,1,0,1:2:0:0:
472,278,247579,1,0,1:2:0:0:
470,294,247729,1,8,0:0:0:0:
311,234,247879,6,0,P|243:251|235:352,1,170,4|0,1:2|1:2,0:0:0:0:
164,220,248329,2,0,P|130:188|68:187,1,85,8|0,0:0|0:0,0:0:0:0:
22,302,248629,2,0,P|62:292|92:262,1,85,0|0,1:2|1:2,0:0:0:0:
32,126,248929,1,8,0:0:0:0:
178,50,249079,6,0,L|162:232,1,170,4|0,1:2|1:2,0:0:0:0:
93,66,249529,1,8,0:0:0:0:
248,9,249679,1,0,0:0:0:0:
366,144,249829,2,0,B|305:135|305:135|266:148|266:148|196:137,1,170,0|8,1:2|0:0,0:0:0:0:
396,218,250279,6,0,P|439:173|398:73,1,170,4|0,1:2|1:2,0:0:0:0:
298,218,250729,2,0,L|310:315,1,85,8|0,0:0|0:0,0:0:0:0:
197,384,251029,1,0,1:2:0:0:
176,377,251104,1,4,3:0:0:0:
156,360,251179,1,4,3:0:0:0:
139,335,251254,1,4,3:0:0:0:
117,308,251329,1,8,2:2:0:0:
80,296,251404,1,8,1:2:0:0:
43,317,251479,6,0,P|71:232|7:159,1,187.000005706787,4|0,1:2|1:2,0:0:0:0:
182,33,251929,5,8,0:0:0:0:
130,163,252079,1,0,1:2:0:0:
249,85,252229,5,8,0:0:0:0:
254,196,252379,1,0,1:2:0:0:
373,38,252529,5,8,0:0:0:0:
342,239,252679,2,0,B|355:361|355:361|363:318|401:292,1,187.000005706787,4|0,1:2|1:2,0:0:0:0:
384,305,253129,1,8,0:0:0:0:
217,383,253279,2,0,B|151:373|151:373|114:343|114:343|41:328,1,187.000005706787,4|4,1:2|3:0,0:0:0:0:
10,255,253654,1,4,3:0:0:0:
10,255,253729,2,0,L|29:197,1,46.7500014266968,8|8,0:0|0:0,0:0:0:0:
100,183,253879,2,0,L|154:155,1,46.7500014266968,8|8,3:0|3:0,0:0:0:0:
213,197,254029,5,4,1:2:0:0:
478,294,254479,5,4,1:2:0:0:
428,18,254929,5,4,1:2:0:0:
256,192,255004,12,0,260591,0:0:0:0:
