osu file format v14

[General]
AudioFilename: audio.mp3
AudioLeadIn: 0
PreviewTime: 87999
Countdown: 0
SampleSet: Normal
StackLeniency: 0.7
Mode: 1
LetterboxInBreaks: 0
WidescreenStoryboard: 1

[Editor]
DistanceSpacing: 0.1
BeatDivisor: 6
GridSize: 32
TimelineZoom: 2

[Metadata]
Title:Fuwari
TitleUnicode:ふわり
Artist:Hanon x Kotoha
ArtistUnicode:Hanon × Kotoha
Creator:Vivien
Version:Collab Oni
Source:
Tags:mimi 可不 初音ミク japanese pop jpop j-pop capu hakoniwalily kafu hatsune miku eshikara cover ハコニワリリィ
BeatmapID:4273054
BeatmapSetID:2046912

[Difficulty]
HPDrainRate:5.5
CircleSize:2
OverallDifficulty:5.5
ApproachRate:10
SliderMultiplier:1.4
SliderTickRate:1

[Events]
//Background and Video events
0,0,"fuwarii.jpg",0,110
//Break Periods
//Storyboard Layer 0 (Background)
//Storyboard Layer 1 (Fail)
//Storyboard Layer 2 (Pass)
//Storyboard Layer 3 (Foreground)
//Storyboard Layer 4 (Overlay)
//Storyboard Sound Samples

[TimingPoints]
560,365.853658536585,4,1,0,70,1,0
47305,-90.9090909090909,4,1,0,70,0,0
47389,-90.9090909090909,4,1,0,80,0,1
59096,-90.9090909090909,4,1,0,70,0,0
59462,-100,4,1,0,70,0,0
76657,-95.2380952380952,4,1,0,70,0,0
88364,-90.9090909090909,4,1,0,80,0,1
99340,-90.9090909090909,4,1,0,70,0,0
99889,-88.261253309797,4,1,0,70,0,0
99980,-86.9565217391304,4,1,0,70,0,0
100072,-85.7632933104631,4,1,0,80,0,1
111779,-85.7632933104631,4,1,0,70,0,0
112061,-90.9090909090909,4,1,0,70,0,0
122938,-92.5925925925926,4,1,0,70,0,0
123121,-94.3396226415094,4,1,0,70,0,0
123311,-96.1538461538461,4,1,0,25,0,0
123486,-98.0392156862745,4,1,0,25,0,0
123555,-99.009900990099,4,1,0,25,0,0
123616,-100,4,1,0,25,0,0

[HitObjects]
256,192,560,5,0,0:0:0:0:
256,192,925,1,8,0:0:0:0:
256,192,1108,1,0,0:0:0:0:
256,192,1291,1,8,0:0:0:0:
256,192,1474,1,8,0:0:0:0:
256,192,1657,1,0,0:0:0:0:
256,192,1840,1,0,0:0:0:0:
256,192,2023,1,8,0:0:0:0:
256,192,2206,1,8,0:0:0:0:
256,192,2297,1,8,0:0:0:0:
256,192,2389,1,0,0:0:0:0:
256,192,2572,1,8,0:0:0:0:
256,192,2755,1,0,0:0:0:0:
256,192,3120,1,8,0:0:0:0:
256,192,3486,1,0,0:0:0:0:
256,192,3852,1,8,0:0:0:0:
256,192,4035,1,0,0:0:0:0:
256,192,4218,1,8,0:0:0:0:
256,192,4401,1,8,0:0:0:0:
256,192,4584,1,0,0:0:0:0:
256,192,4767,1,0,0:0:0:0:
256,192,4950,1,8,0:0:0:0:
256,192,5133,1,8,0:0:0:0:
256,192,5224,1,8,0:0:0:0:
256,192,5316,1,0,0:0:0:0:
256,192,5499,1,8,0:0:0:0:
256,192,5681,1,0,0:0:0:0:
256,192,6047,1,0,0:0:0:0:
256,192,6413,1,12,0:0:0:0:
256,192,6779,1,0,0:0:0:0:
256,192,6962,1,8,0:0:0:0:
256,192,7053,1,0,0:0:0:0:
256,192,7145,1,8,0:0:0:0:
256,192,7328,1,0,0:0:0:0:
256,192,7511,1,8,0:0:0:0:
256,192,7694,1,0,0:0:0:0:
256,192,7877,1,8,0:0:0:0:
256,192,8059,1,0,0:0:0:0:
256,192,8151,1,0,0:0:0:0:
256,192,8242,1,8,0:0:0:0:
256,192,8425,1,0,0:0:0:0:
256,192,8608,1,8,0:0:0:0:
256,192,8974,1,8,0:0:0:0:
256,192,9157,1,8,0:0:0:0:
256,192,9249,1,8,0:0:0:0:
256,192,9340,1,0,0:0:0:0:
256,192,9523,1,8,0:0:0:0:
256,192,9706,1,0,0:0:0:0:
256,192,9889,1,8,0:0:0:0:
256,192,9980,1,0,0:0:0:0:
256,192,10072,1,8,0:0:0:0:
256,192,10255,1,0,0:0:0:0:
256,192,10438,1,8,0:0:0:0:
256,192,10620,1,0,0:0:0:0:
256,192,10803,1,8,0:0:0:0:
256,192,10986,1,0,0:0:0:0:
256,192,11078,1,0,0:0:0:0:
256,192,11169,1,8,0:0:0:0:
256,192,11352,1,8,0:0:0:0:
256,192,11535,1,0,0:0:0:0:
256,192,11718,1,8,0:0:0:0:
256,192,11809,1,8,0:0:0:0:
256,192,11901,1,0,0:0:0:0:
256,192,12084,1,8,0:0:0:0:
256,192,12175,1,8,0:0:0:0:
256,192,12267,1,0,0:0:0:0:
256,192,12633,1,8,0:0:0:0:
256,192,12816,1,0,0:0:0:0:
256,192,12907,1,8,0:0:0:0:
256,192,12999,1,0,0:0:0:0:
256,192,13181,1,8,0:0:0:0:
256,192,13364,1,0,0:0:0:0:
256,192,13547,1,8,0:0:0:0:
256,192,13730,1,0,0:0:0:0:
256,192,13913,1,0,0:0:0:0:
256,192,14005,1,0,0:0:0:0:
256,192,14096,1,8,0:0:0:0:
256,192,14279,1,0,0:0:0:0:
256,192,14462,1,8,0:0:0:0:
256,192,14645,1,0,0:0:0:0:
256,192,14828,1,8,0:0:0:0:
256,192,15011,1,8,0:0:0:0:
256,192,15102,1,8,0:0:0:0:
256,192,15194,1,0,0:0:0:0:
256,192,15559,1,0,0:0:0:0:
256,192,15742,1,8,0:0:0:0:
256,192,15834,1,0,0:0:0:0:
256,192,15925,1,8,0:0:0:0:
256,192,16108,1,0,0:0:0:0:
256,192,16291,1,8,0:0:0:0:
256,192,16474,1,0,0:0:0:0:
256,192,16657,1,8,0:0:0:0:
256,192,16840,1,8,0:0:0:0:
256,192,16931,1,8,0:0:0:0:
256,192,17023,1,0,0:0:0:0:
256,192,17206,1,8,0:0:0:0:
256,192,17389,1,0,0:0:0:0:
256,192,17572,1,8,0:0:0:0:
256,192,17755,1,8,0:0:0:0:
256,192,18120,1,0,0:0:0:0:
256,192,18303,1,0,0:0:0:0:
256,192,18486,1,8,0:0:0:0:
256,192,18852,1,8,0:0:0:0:
256,192,19035,1,8,0:0:0:0:
256,192,19218,1,0,0:0:0:0:
256,192,19584,1,8,0:0:0:0:
256,192,19767,1,0,0:0:0:0:
256,192,19950,1,8,0:0:0:0:
256,192,20133,1,8,0:0:0:0:
256,192,20316,1,0,0:0:0:0:
256,192,20499,1,0,0:0:0:0:
256,192,20681,1,8,0:0:0:0:
256,192,21047,1,8,0:0:0:0:
256,192,21230,1,8,0:0:0:0:
256,192,21413,1,0,0:0:0:0:
256,192,21779,1,0,0:0:0:0:
256,192,21962,1,0,0:0:0:0:
256,192,22145,1,8,0:0:0:0:
256,192,22511,1,8,0:0:0:0:
256,192,22694,1,0,0:0:0:0:
256,192,22877,1,8,0:0:0:0:
256,192,23059,1,8,0:0:0:0:
256,192,23242,1,0,0:0:0:0:
256,192,23425,1,0,0:0:0:0:
256,192,23608,1,8,0:0:0:0:
256,192,23974,1,8,0:0:0:0:
256,192,24157,1,8,0:0:0:0:
256,192,24340,1,0,0:0:0:0:
256,192,24706,1,0,0:0:0:0:
256,192,24889,1,0,0:0:0:0:
256,192,25072,1,8,0:0:0:0:
256,192,25438,1,8,0:0:0:0:
256,192,25620,1,0,0:0:0:0:
256,192,25803,1,8,0:0:0:0:
256,192,25986,1,8,0:0:0:0:
256,192,26169,1,0,0:0:0:0:
256,192,26352,1,0,0:0:0:0:
256,192,26535,1,8,0:0:0:0:
256,192,26718,1,0,0:0:0:0:
256,192,26901,1,8,0:0:0:0:
256,192,27084,1,8,0:0:0:0:
256,192,27267,1,0,0:0:0:0:
256,192,27633,1,8,0:0:0:0:
256,192,27816,1,8,0:0:0:0:
256,192,27999,1,0,0:0:0:0:
256,192,28364,1,0,0:0:0:0:
256,192,28547,1,0,0:0:0:0:
256,192,28730,1,8,0:0:0:0:
256,192,29096,1,0,0:0:0:0:
256,192,29279,1,0,0:0:0:0:
256,192,29462,1,8,0:0:0:0:
256,192,29828,1,4,0:0:0:0:
256,192,30011,1,8,0:0:0:0:
256,192,30194,1,0,0:0:0:0:
256,192,30377,1,0,0:0:0:0:
256,192,30468,1,0,0:0:0:0:
256,192,30559,1,8,0:0:0:0:
256,192,30742,1,0,0:0:0:0:
256,192,30925,1,8,0:0:0:0:
256,192,31108,1,8,0:0:0:0:
256,192,31291,1,0,0:0:0:0:
256,192,31657,1,8,0:0:0:0:
256,192,31840,1,0,0:0:0:0:
256,192,32023,1,8,0:0:0:0:
256,192,32206,1,0,0:0:0:0:
256,192,32389,1,0,0:0:0:0:
256,192,32572,1,8,0:0:0:0:
256,192,32755,1,0,0:0:0:0:
256,192,32938,1,0,0:0:0:0:
256,192,33120,1,8,0:0:0:0:
256,192,33303,1,0,0:0:0:0:
256,192,33395,1,0,0:0:0:0:
256,192,33486,1,8,0:0:0:0:
256,192,33669,1,0,0:0:0:0:
256,192,33852,1,8,0:0:0:0:
256,192,34035,1,8,0:0:0:0:
256,192,34218,1,0,0:0:0:0:
256,192,34401,1,8,0:0:0:0:
256,192,34584,1,0,0:0:0:0:
256,192,34767,1,8,0:0:0:0:
256,192,34858,1,8,0:0:0:0:
256,192,34950,1,0,0:0:0:0:
256,192,35133,1,0,0:0:0:0:
256,192,35316,1,8,0:0:0:0:
256,192,35681,1,0,0:0:0:0:
256,192,35864,1,0,0:0:0:0:
256,192,36047,1,8,0:0:0:0:
256,192,36230,1,0,0:0:0:0:
256,192,36322,1,0,0:0:0:0:
256,192,36413,1,8,0:0:0:0:
256,192,36596,1,0,0:0:0:0:
256,192,36779,1,8,0:0:0:0:
256,192,36962,1,8,0:0:0:0:
256,192,37145,1,0,0:0:0:0:
256,192,37511,1,0,0:0:0:0:
256,192,37694,1,8,0:0:0:0:
256,192,37877,1,8,0:0:0:0:
256,192,37968,1,8,0:0:0:0:
256,192,38059,1,0,0:0:0:0:
256,192,38242,1,8,0:0:0:0:
256,192,38425,1,0,0:0:0:0:
256,192,38608,1,8,0:0:0:0:
256,192,39157,1,0,0:0:0:0:
256,192,39249,1,0,0:0:0:0:
256,192,39340,1,8,0:0:0:0:
256,192,39889,1,8,0:0:0:0:
256,192,40255,1,8,0:0:0:0:
256,192,40620,1,0,0:0:0:0:
256,192,40803,1,0,0:0:0:0:
256,192,41169,1,8,0:0:0:0:
256,192,41352,1,0,0:0:0:0:
256,192,41535,1,8,0:0:0:0:
256,192,41901,1,0,0:0:0:0:
256,192,42084,1,8,0:0:0:0:
256,192,42267,1,0,0:0:0:0:
256,192,42450,1,8,0:0:0:0:
256,192,42633,1,8,0:0:0:0:
256,192,42999,1,0,0:0:0:0:
256,192,43364,1,8,0:0:0:0:
256,192,43547,1,0,0:0:0:0:
256,192,43730,1,8,0:0:0:0:
256,192,43913,1,8,0:0:0:0:
256,192,44096,1,0,0:0:0:0:
256,192,44279,1,0,0:0:0:0:
256,192,44462,1,8,0:0:0:0:
256,192,44828,1,0,0:0:0:0:
256,192,45011,1,8,0:0:0:0:
256,192,45194,1,0,0:0:0:0:
256,192,45377,1,0,0:0:0:0:
256,192,45559,1,8,0:0:0:0:
256,192,45742,1,8,0:0:0:0:
256,192,45925,1,0,0:0:0:0:
256,192,46108,1,8,0:0:0:0:
256,192,46291,1,0,0:0:0:0:
256,192,46474,1,0,0:0:0:0:
256,192,46566,1,0,0:0:0:0:
256,192,46657,1,8,0:0:0:0:
256,192,47389,1,12,0:0:0:0:
256,192,47572,1,0,0:0:0:0:
256,192,47663,1,0,0:0:0:0:
256,192,47755,1,8,0:0:0:0:
256,192,47938,1,0,0:0:0:0:
256,192,48120,1,8,0:0:0:0:
256,192,48303,1,0,0:0:0:0:
256,192,48486,1,8,0:0:0:0:
256,192,48669,1,8,0:0:0:0:
256,192,48852,1,0,0:0:0:0:
256,192,49035,1,0,0:0:0:0:
256,192,49127,1,0,0:0:0:0:
256,192,49218,1,8,0:0:0:0:
256,192,49401,1,0,0:0:0:0:
256,192,49584,1,8,0:0:0:0:
256,192,49950,1,0,0:0:0:0:
256,192,50133,1,8,0:0:0:0:
256,192,50224,1,8,0:0:0:0:
256,192,50316,1,0,0:0:0:0:
256,192,50499,1,0,0:0:0:0:
256,192,50590,1,0,0:0:0:0:
256,192,50681,1,8,0:0:0:0:
256,192,50864,1,0,0:0:0:0:
256,192,51047,1,8,0:0:0:0:
256,192,51139,1,8,0:0:0:0:
256,192,51230,1,0,0:0:0:0:
256,192,51322,1,0,0:0:0:0:
256,192,51413,1,8,0:0:0:0:
256,192,51596,1,0,0:0:0:0:
256,192,51779,1,8,0:0:0:0:
256,192,51962,1,8,0:0:0:0:
256,192,52053,1,8,0:0:0:0:
256,192,52145,1,0,0:0:0:0:
256,192,52328,1,8,0:0:0:0:
256,192,52511,1,0,0:0:0:0:
256,192,52694,1,8,0:0:0:0:
256,192,52877,1,8,0:0:0:0:
256,192,53242,1,4,0:0:0:0:
256,192,53425,1,0,0:0:0:0:
256,192,53517,1,0,0:0:0:0:
256,192,53608,1,8,0:0:0:0:
256,192,53791,1,0,0:0:0:0:
256,192,53974,1,8,0:0:0:0:
256,192,54066,1,0,0:0:0:0:
256,192,54157,1,8,0:0:0:0:
256,192,54249,1,8,0:0:0:0:
256,192,54340,1,0,0:0:0:0:
256,192,54523,1,8,0:0:0:0:
256,192,54706,1,0,0:0:0:0:
256,192,54889,1,8,0:0:0:0:
256,192,54980,1,8,0:0:0:0:
256,192,55072,1,0,0:0:0:0:
256,192,55255,1,8,0:0:0:0:
256,192,55438,1,0,0:0:0:0:
256,192,55803,1,0,0:0:0:0:
256,192,55986,1,8,0:0:0:0:
256,192,56078,1,8,0:0:0:0:
256,192,56169,1,0,0:0:0:0:
256,192,56352,1,0,0:0:0:0:
256,192,56444,1,0,0:0:0:0:
256,192,56535,1,8,0:0:0:0:
256,192,56718,1,0,0:0:0:0:
256,192,56901,1,8,0:0:0:0:
256,192,57084,1,8,0:0:0:0:
256,192,57175,1,0,0:0:0:0:
256,192,57267,1,8,0:0:0:0:
256,192,57450,1,0,0:0:0:0:
256,192,57633,1,8,0:0:0:0:
256,192,57816,1,0,0:0:0:0:
256,192,57907,1,0,0:0:0:0:
256,192,57999,1,8,0:0:0:0:
256,192,58181,1,0,0:0:0:0:
256,192,58364,1,8,0:0:0:0:
256,192,58547,1,8,0:0:0:0:
256,192,58639,1,8,0:0:0:0:
256,192,58730,1,0,0:0:0:0:
256,192,58913,1,0,0:0:0:0:
256,192,59096,1,12,0:0:0:0:
256,192,59462,1,0,0:0:0:0:
256,192,59645,1,8,0:0:0:0:
256,192,59736,1,0,0:0:0:0:
256,192,59828,1,8,0:0:0:0:
256,192,60011,1,0,0:0:0:0:
256,192,60194,1,8,0:0:0:0:
256,192,60377,1,0,0:0:0:0:
256,192,60560,1,8,0:0:0:0:
256,192,60742,1,0,0:0:0:0:
256,192,60834,1,0,0:0:0:0:
256,192,60925,1,8,0:0:0:0:
256,192,61108,1,0,0:0:0:0:
256,192,61291,1,8,0:0:0:0:
256,192,61657,1,8,0:0:0:0:
256,192,61840,1,0,0:0:0:0:
256,192,61932,1,0,0:0:0:0:
256,192,62023,1,8,0:0:0:0:
256,192,62206,1,0,0:0:0:0:
256,192,62389,1,8,0:0:0:0:
256,192,62572,1,8,0:0:0:0:
256,192,62663,1,0,0:0:0:0:
256,192,62755,1,8,0:0:0:0:
256,192,62938,1,0,0:0:0:0:
256,192,63121,1,8,0:0:0:0:
256,192,63303,1,0,0:0:0:0:
256,192,63486,1,8,0:0:0:0:
256,192,63669,1,0,0:0:0:0:
256,192,63761,1,0,0:0:0:0:
256,192,63852,1,8,0:0:0:0:
256,192,64035,1,0,0:0:0:0:
256,192,64218,1,8,0:0:0:0:
256,192,64401,1,8,0:0:0:0:
256,192,64492,1,8,0:0:0:0:
256,192,64584,1,0,0:0:0:0:
256,192,64950,1,12,0:0:0:0:
256,192,65133,5,0,0:0:0:0:
256,192,65316,1,8,0:0:0:0:
256,192,65499,1,8,0:0:0:0:
256,192,65681,1,0,0:0:0:0:
256,192,66047,1,0,0:0:0:0:
256,192,66230,1,0,0:0:0:0:
256,192,66413,1,8,0:0:0:0:
256,192,66779,1,0,0:0:0:0:
256,192,66962,1,8,0:0:0:0:
256,192,67145,1,8,0:0:0:0:
256,192,67328,1,0,0:0:0:0:
256,192,67511,1,8,0:0:0:0:
256,192,67694,1,0,0:0:0:0:
256,192,67877,1,0,0:0:0:0:
256,192,68059,1,8,0:0:0:0:
256,192,68242,1,0,0:0:0:0:
256,192,68425,1,8,0:0:0:0:
256,192,68608,1,8,0:0:0:0:
256,192,68791,1,0,0:0:0:0:
256,192,68974,1,0,0:0:0:0:
256,192,69157,1,8,0:0:0:0:
256,192,69340,1,0,0:0:0:0:
256,192,69523,1,8,0:0:0:0:
256,192,69706,1,8,0:0:0:0:
256,192,69889,1,0,0:0:0:0:
256,192,70072,1,8,0:0:0:0:
256,192,70438,1,0,0:0:0:0:
256,192,70803,1,8,0:0:0:0:
256,192,70986,1,0,0:0:0:0:
256,192,71169,1,8,0:0:0:0:
256,192,71352,1,8,0:0:0:0:
256,192,71535,1,0,0:0:0:0:
256,192,71901,1,0,0:0:0:0:
256,192,72084,1,0,0:0:0:0:
256,192,72267,1,8,0:0:0:0:
256,192,72633,1,8,0:0:0:0:
256,192,72816,1,0,0:0:0:0:
256,192,72999,1,8,0:0:0:0:
256,192,73181,1,8,0:0:0:0:
256,192,73364,1,0,0:0:0:0:
256,192,73547,1,0,0:0:0:0:
256,192,73730,1,8,0:0:0:0:
256,192,74279,1,0,0:0:0:0:
256,192,74462,1,8,0:0:0:0:
256,192,75011,1,8,0:0:0:0:
256,192,75377,1,8,0:0:0:0:
256,192,75742,1,0,0:0:0:0:
256,192,75925,1,0,0:0:0:0:
256,192,76108,1,8,0:0:0:0:
256,192,76291,1,8,0:0:0:0:
256,192,76474,1,8,0:0:0:0:
256,192,76657,1,4,0:0:0:0:
256,192,76840,1,0,0:0:0:0:
256,192,76931,1,0,0:0:0:0:
256,192,77023,1,8,0:0:0:0:
256,192,77206,1,0,0:0:0:0:
256,192,77389,1,8,0:0:0:0:
256,192,77755,1,8,0:0:0:0:
256,192,77938,1,8,0:0:0:0:
256,192,78120,1,0,0:0:0:0:
256,192,78303,1,8,0:0:0:0:
256,192,78395,1,0,0:0:0:0:
256,192,78486,1,8,0:0:0:0:
256,192,78669,1,0,0:0:0:0:
256,192,78852,1,8,0:0:0:0:
256,192,79035,1,0,0:0:0:0:
256,192,79218,1,8,0:0:0:0:
256,192,79401,1,8,0:0:0:0:
256,192,79584,1,0,0:0:0:0:
256,192,79767,1,8,0:0:0:0:
256,192,79858,1,8,0:0:0:0:
256,192,79950,1,0,0:0:0:0:
256,192,80133,1,0,0:0:0:0:
256,192,80316,1,8,0:0:0:0:
256,192,80681,1,8,0:0:0:0:
256,192,80864,1,8,0:0:0:0:
256,192,81047,1,0,0:0:0:0:
256,192,81230,1,8,0:0:0:0:
256,192,81322,1,0,0:0:0:0:
256,192,81413,1,8,0:0:0:0:
256,192,81505,1,8,0:0:0:0:
256,192,81596,1,0,0:0:0:0:
256,192,81779,1,0,0:0:0:0:
256,192,81962,1,8,0:0:0:0:
256,192,82145,1,8,0:0:0:0:
256,192,82511,1,0,0:0:0:0:
256,192,82694,1,8,0:0:0:0:
256,192,82785,1,0,0:0:0:0:
256,192,82877,1,8,0:0:0:0:
256,192,83059,1,8,0:0:0:0:
256,192,83242,1,0,0:0:0:0:
256,192,83425,1,8,0:0:0:0:
256,192,83608,1,8,0:0:0:0:
256,192,83791,1,0,0:0:0:0:
256,192,83974,1,8,0:0:0:0:
256,192,84157,1,8,0:0:0:0:
256,192,84249,1,0,0:0:0:0:
256,192,84340,1,8,0:0:0:0:
256,192,84523,1,0,0:0:0:0:
256,192,84706,1,8,0:0:0:0:
256,192,85072,1,0,0:0:0:0:
256,192,85255,1,0,0:0:0:0:
256,192,85438,1,8,0:0:0:0:
256,192,85620,1,0,0:0:0:0:
256,192,85712,1,8,0:0:0:0:
256,192,85803,1,0,0:0:0:0:
256,192,85986,1,8,0:0:0:0:
256,192,86169,1,0,0:0:0:0:
256,192,86535,1,0,0:0:0:0:
256,192,86718,1,0,0:0:0:0:
256,192,86901,1,8,0:0:0:0:
256,192,87084,1,0,0:0:0:0:
256,192,87175,1,8,0:0:0:0:
256,192,87267,1,0,0:0:0:0:
256,192,87358,1,8,0:0:0:0:
256,192,87450,1,0,0:0:0:0:
256,192,87633,1,8,0:0:0:0:
256,192,87816,1,8,0:0:0:0:
256,192,87999,1,0,0:0:0:0:
256,192,88181,1,0,0:0:0:0:
256,192,88364,1,12,0:0:0:0:
256,192,88547,1,0,0:0:0:0:
256,192,88639,1,0,0:0:0:0:
256,192,88730,1,8,0:0:0:0:
256,192,88913,1,0,0:0:0:0:
256,192,89096,1,8,0:0:0:0:
256,192,89279,1,0,0:0:0:0:
256,192,89370,1,0,0:0:0:0:
256,192,89462,1,8,0:0:0:0:
256,192,89645,1,0,0:0:0:0:
256,192,89828,1,8,0:0:0:0:
256,192,90011,1,8,0:0:0:0:
256,192,90102,1,0,0:0:0:0:
256,192,90194,1,8,0:0:0:0:
256,192,90285,1,8,0:0:0:0:
256,192,90377,1,0,0:0:0:0:
256,192,90559,1,8,0:0:0:0:
256,192,90925,1,0,0:0:0:0:
256,192,91108,1,8,0:0:0:0:
256,192,91200,1,8,0:0:0:0:
256,192,91291,1,0,0:0:0:0:
256,192,91474,1,8,0:0:0:0:
256,192,91566,1,8,0:0:0:0:
256,192,91657,1,0,0:0:0:0:
256,192,91749,1,0,0:0:0:0:
256,192,91840,1,8,0:0:0:0:
256,192,92023,1,0,0:0:0:0:
256,192,92206,1,8,0:0:0:0:
256,192,92297,1,8,0:0:0:0:
256,192,92389,1,0,0:0:0:0:
256,192,92572,1,8,0:0:0:0:
256,192,92755,1,0,0:0:0:0:
256,192,92938,1,0,0:0:0:0:
256,192,93029,1,8,0:0:0:0:
256,192,93120,1,0,0:0:0:0:
256,192,93303,1,8,0:0:0:0:
256,192,93486,1,0,0:0:0:0:
256,192,93669,1,8,0:0:0:0:
256,192,93852,1,8,0:0:0:0:
256,192,94218,1,4,0:0:0:0:
256,192,94401,1,0,0:0:0:0:
256,192,94492,1,0,0:0:0:0:
256,192,94584,1,8,0:0:0:0:
256,192,94767,1,0,0:0:0:0:
256,192,94950,1,8,0:0:0:0:
256,192,95133,1,8,0:0:0:0:
256,192,95224,1,8,0:0:0:0:
256,192,95316,1,0,0:0:0:0:
256,192,95499,1,8,0:0:0:0:
256,192,95681,1,0,0:0:0:0:
256,192,95864,1,0,0:0:0:0:
256,192,95956,1,0,0:0:0:0:
256,192,96047,1,8,0:0:0:0:
256,192,96230,1,0,0:0:0:0:
256,192,96413,1,8,0:0:0:0:
256,192,96779,1,8,0:0:0:0:
256,192,96870,1,8,0:0:0:0:
256,192,96962,1,0,0:0:0:0:
256,192,97053,1,0,0:0:0:0:
256,192,97145,1,8,0:0:0:0:
256,192,97328,1,0,0:0:0:0:
256,192,97419,1,0,0:0:0:0:
256,192,97511,1,8,0:0:0:0:
256,192,97694,1,0,0:0:0:0:
256,192,97877,1,8,0:0:0:0:
256,192,98059,1,0,0:0:0:0:
256,192,98151,1,0,0:0:0:0:
256,192,98242,1,8,0:0:0:0:
256,192,98334,1,0,0:0:0:0:
256,192,98425,1,8,0:0:0:0:
256,192,98608,1,0,0:0:0:0:
256,192,98791,1,8,0:0:0:0:
256,192,98883,1,8,0:0:0:0:
256,192,98974,1,0,0:0:0:0:
256,192,99157,1,0,0:0:0:0:
256,192,99340,1,8,0:0:0:0:
256,192,99431,1,8,0:0:0:0:
256,192,99523,1,0,0:0:0:0:
256,192,99614,1,0,0:0:0:0:
256,192,99706,1,8,0:0:0:0:
256,192,99889,1,0,0:0:0:0:
256,192,100072,1,12,0:0:0:0:
256,192,100255,1,8,0:0:0:0:
256,192,100346,1,8,0:0:0:0:
256,192,100438,1,0,0:0:0:0:
256,192,100620,1,8,0:0:0:0:
256,192,100803,1,0,0:0:0:0:
256,192,100986,1,0,0:0:0:0:
256,192,101078,1,0,0:0:0:0:
256,192,101169,1,8,0:0:0:0:
256,192,101352,1,0,0:0:0:0:
256,192,101535,1,8,0:0:0:0:
256,192,101718,1,8,0:0:0:0:
256,192,101809,1,8,0:0:0:0:
256,192,101901,1,0,0:0:0:0:
256,192,101992,1,0,0:0:0:0:
256,192,102084,1,8,0:0:0:0:
256,192,102267,1,0,0:0:0:0:
256,192,102633,1,8,0:0:0:0:
256,192,102816,1,0,0:0:0:0:
256,192,102907,1,0,0:0:0:0:
256,192,102999,1,8,0:0:0:0:
256,192,103181,1,0,0:0:0:0:
256,192,103273,1,0,0:0:0:0:
256,192,103364,1,8,0:0:0:0:
256,192,103456,1,8,0:0:0:0:
256,192,103547,1,0,0:0:0:0:
256,192,103730,1,8,0:0:0:0:
256,192,103913,1,0,0:0:0:0:
256,192,104096,1,8,0:0:0:0:
256,192,104279,1,0,0:0:0:0:
256,192,104370,1,0,0:0:0:0:
256,192,104462,1,8,0:0:0:0:
256,192,104645,1,8,0:0:0:0:
256,192,104736,1,8,0:0:0:0:
256,192,104828,1,0,0:0:0:0:
256,192,105011,1,8,0:0:0:0:
256,192,105194,1,0,0:0:0:0:
256,192,105377,1,8,0:0:0:0:
256,192,105559,1,8,0:0:0:0:
256,192,105925,1,4,0:0:0:0:
256,192,106108,1,8,0:0:0:0:
256,192,106200,1,8,0:0:0:0:
256,192,106291,1,0,0:0:0:0:
256,192,106474,1,8,0:0:0:0:
256,192,106657,1,0,0:0:0:0:
256,192,106840,1,8,0:0:0:0:
256,192,106931,1,8,0:0:0:0:
256,192,107023,1,0,0:0:0:0:
256,192,107206,1,8,0:0:0:0:
256,192,107389,1,0,0:0:0:0:
256,192,107572,1,8,0:0:0:0:
256,192,107663,1,8,0:0:0:0:
256,192,107755,1,0,0:0:0:0:
256,192,107938,1,0,0:0:0:0:
256,192,108120,1,8,0:0:0:0:
256,192,108486,1,0,0:0:0:0:
256,192,108669,1,0,0:0:0:0:
256,192,108761,1,0,0:0:0:0:
256,192,108852,1,8,0:0:0:0:
256,192,109035,1,8,0:0:0:0:
256,192,109127,1,0,0:0:0:0:
256,192,109218,1,8,0:0:0:0:
256,192,109309,1,8,0:0:0:0:
256,192,109401,1,0,0:0:0:0:
256,192,109584,1,8,0:0:0:0:
256,192,109767,1,0,0:0:0:0:
256,192,109950,1,0,0:0:0:0:
256,192,110041,1,0,0:0:0:0:
256,192,110133,1,8,0:0:0:0:
256,192,110316,1,0,0:0:0:0:
256,192,110499,1,8,0:0:0:0:
256,192,110590,1,8,0:0:0:0:
256,192,110681,1,0,0:0:0:0:
256,192,110864,1,0,0:0:0:0:
256,192,111047,1,8,0:0:0:0:
256,192,111230,1,8,0:0:0:0:
256,192,111322,1,8,0:0:0:0:
256,192,111413,1,0,0:0:0:0:
256,192,111596,1,0,0:0:0:0:
256,192,111688,1,0,0:0:0:0:
256,192,111779,1,12,0:0:0:0:
256,192,112145,1,0,0:0:0:0:
256,192,112328,1,8,0:0:0:0:
256,192,112419,1,0,0:0:0:0:
256,192,112511,1,8,0:0:0:0:
256,192,112694,1,0,0:0:0:0:
256,192,112877,1,8,0:0:0:0:
256,192,113060,1,0,0:0:0:0:
256,192,113243,1,8,0:0:0:0:
256,192,113425,1,8,0:0:0:0:
256,192,113517,1,8,0:0:0:0:
256,192,113608,1,0,0:0:0:0:
256,192,113791,1,0,0:0:0:0:
256,192,113974,1,8,0:0:0:0:
256,192,114340,1,8,0:0:0:0:
256,192,114523,1,0,0:0:0:0:
256,192,114615,1,0,0:0:0:0:
256,192,114706,1,8,0:0:0:0:
256,192,114889,1,0,0:0:0:0:
256,192,115072,1,8,0:0:0:0:
256,192,115255,1,0,0:0:0:0:
256,192,115346,1,8,0:0:0:0:
256,192,115438,1,0,0:0:0:0:
256,192,115621,1,8,0:0:0:0:
256,192,115804,1,0,0:0:0:0:
256,192,115986,1,8,0:0:0:0:
256,192,116169,1,0,0:0:0:0:
256,192,116352,1,8,0:0:0:0:
256,192,116444,1,8,0:0:0:0:
256,192,116535,1,0,0:0:0:0:
256,192,116718,1,8,0:0:0:0:
256,192,116901,1,0,0:0:0:0:
256,192,117084,1,8,0:0:0:0:
256,192,117175,1,8,0:0:0:0:
256,192,117267,1,0,0:0:0:0:
256,192,117450,1,8,0:0:0:0:
256,192,117541,1,8,0:0:0:0:
256,192,117633,5,4,0:0:0:0:
256,192,117999,1,0,0:0:0:0:
256,192,118182,1,8,0:0:0:0:
256,192,118273,1,0,0:0:0:0:
256,192,118365,1,8,0:0:0:0:
256,192,118548,1,0,0:0:0:0:
256,192,118731,1,8,0:0:0:0:
256,192,118914,1,0,0:0:0:0:
256,192,119097,1,8,0:0:0:0:
256,192,119279,1,0,0:0:0:0:
256,192,119370,1,0,0:0:0:0:
256,192,119462,1,8,0:0:0:0:
256,192,119645,1,0,0:0:0:0:
256,192,119828,1,8,0:0:0:0:
256,192,120194,1,8,0:0:0:0:
256,192,120377,1,0,0:0:0:0:
256,192,120469,1,0,0:0:0:0:
256,192,120560,1,8,0:0:0:0:
256,192,120743,1,8,0:0:0:0:
256,192,120926,1,0,0:0:0:0:
256,192,121109,1,8,0:0:0:0:
256,192,121200,1,0,0:0:0:0:
256,192,121292,1,8,0:0:0:0:
256,192,121475,1,0,0:0:0:0:
256,192,121658,1,8,0:0:0:0:
256,192,121840,1,8,0:0:0:0:
256,192,122023,1,0,0:0:0:0:
256,192,122206,1,8,0:0:0:0:
256,192,122298,1,8,0:0:0:0:
256,192,122389,1,0,0:0:0:0:
256,192,122572,5,0,0:0:0:0:
256,192,122755,1,8,0:0:0:0:
256,192,122938,1,8,0:0:0:0:
256,192,123121,1,0,0:0:0:0:
256,192,123487,1,8,0:0:0:0:
