osu file format v14

[General]
AudioFilename: audio.ogg
AudioLeadIn: 0
PreviewTime: 47041
Countdown: 0
SampleSet: Soft
StackLeniency: 0.4
Mode: 0
LetterboxInBreaks: 0
WidescreenStoryboard: 1

[Editor]
Bookmarks: 88382
DistanceSpacing: 0.9
BeatDivisor: 2
GridSize: 32
TimelineZoom: 2.1

[Metadata]
Title:Fuwari
TitleUnicode:ふわり
Artist:Hanon x Kotoha
ArtistUnicode:Hanon × Kotoha
Creator:Kyss
Version:gl's Normal
Source:
Tags:nodoro ganyu lover lian2002 -lian- pepekcz ふわり fuwari japanese mimi eshikara 可不 kafu 初音ミク hatsune miku hatsune_miku pop jpop j-pop female vocal vocaloid cover
BeatmapID:4225848
BeatmapSetID:1984719

[Difficulty]
HPDrainRate:4
CircleSize:3.3
OverallDifficulty:4
ApproachRate:5.5
SliderMultiplier:1.1
SliderTickRate:1

[Events]
//Background and Video events
0,0,"BG.jpg",0,0
//Break Periods
//Storyboard Layer 0 (Background)
//Storyboard Layer 1 (Fail)
//Storyboard Layer 2 (Pass)
//Storyboard Layer 3 (Foreground)
//Storyboard Layer 4 (Overlay)
//Storyboard Sound Samples

[TimingPoints]
578,365.853658536585,4,2,1,40,1,0
5699,-100,4,2,1,50,0,0
6065,-100,4,2,1,60,0,0
6431,-100,4,2,1,70,0,0
18138,-105.263157894737,4,2,1,40,0,0
29846,-100,4,2,1,50,0,0
38626,-100,4,2,1,60,0,0
39175,-100,4,2,1,50,0,0
47041,-100,4,2,1,30,0,0
47407,-90.9090909090909,4,2,1,70,0,1
47590,-90.9090909090909,4,2,1,70,0,0
48138,-90.9090909090909,4,2,1,70,0,1
48321,-90.9090909090909,4,2,1,70,0,0
53260,-90.9090909090909,4,2,1,70,0,1
53443,-90.9090909090909,4,2,1,70,0,0
53992,-90.9090909090909,4,2,1,70,0,1
54175,-90.9090909090909,4,2,1,70,0,0
64968,-100,4,2,1,50,0,0
73748,-100,4,2,1,60,0,0
74297,-100,4,2,1,50,0,0
76675,-100,4,2,1,70,0,0
88382,-90.9090909090909,4,2,1,70,0,1
88565,-90.9090909090909,4,2,1,70,0,0
89114,-90.9090909090909,4,2,1,70,0,1
89297,-90.9090909090909,4,2,1,70,0,0
94236,-90.9090909090909,4,2,1,70,0,1
94419,-90.9090909090909,4,2,1,70,0,0
94968,-90.9090909090909,4,2,1,70,0,1
95151,-90.9090909090909,4,2,1,70,0,0
100090,-90.9090909090909,4,2,1,80,0,1
111797,-90.9090909090909,4,2,1,70,0,0
123321,-100,4,2,1,30,0,0

[Colours]
Combo1 : 0,166,83
Combo2 : 255,255,128
Combo3 : 113,208,255
Combo4 : 0,255,128

[HitObjects]
381,130,578,5,6,0:0:0:0:
296,60,943,2,0,P|306:30|322:-1,2,55,2|2|2,0:0|0:0|0:0,0:0:0:0:
218,136,1675,2,0,P|228:165|244:197,2,55,2|2|2,0:0|0:0|0:0,0:0:0:0:
137,61,2407,1,2,0:0:0:0:
35,102,2773,2,0,P|17:157|-7:223,1,110,2|2,0:0|0:0,0:0:0:0:
52,302,3504,5,6,0:0:0:0:
154,262,3870,2,0,P|159:292|170:328,2,55,2|2|2,0:0|0:0|0:0,0:0:0:0:
257,223,4602,2,0,P|262:253|273:289,2,55,2|2|2,0:0|0:0|0:0,0:0:0:0:
325,136,5334,1,2,0:0:0:0:
283,34,5699,2,0,B|220:45|247:68|175:79,1,110,10|10,0:0|1:0,0:0:0:0:
90,20,6431,6,0,P|82:50|54:145,1,110,6|10,0:0|0:0,0:0:0:0:
34,176,6980,1,2,0:0:0:0:
34,176,7163,2,0,P|61:193|80:211,1,55,10|2,1:0|0:0,0:0:0:0:
118,245,7529,2,0,P|145:228|164:210,1,55,10|2,0:0|0:0,0:0:0:0:
201,173,7895,2,0,P|254:169|318:151,1,110,10|10,1:0|0:0,0:0:0:0:
382,73,8626,1,10,1:0:0:0:
487,104,8992,1,10,0:0:0:0:
488,214,9358,6,0,P|492:272|474:324,1,110,10|10,1:0|0:0,0:0:0:0:
434,355,9907,1,2,0:0:0:0:
434,355,10090,2,0,P|393:350|373:346,1,55,10|2,1:0|0:0,0:0:0:0:
330,322,10456,2,0,P|289:327|269:331,1,55,10|2,0:0|0:0,0:0:0:0:
227,303,10821,2,0,P|190:311|141:363,1,110,10|10,1:0|0:0,0:0:0:0:
34,336,11553,2,0,P|1:297|2:231,1,110,10|10,1:0|1:0,0:0:0:0:
86,172,12285,6,0,B|92:112|116:132|118:65,1,110,6|10,0:0|0:0,0:0:0:0:
157,30,12834,1,2,0:0:0:0:
157,30,13017,2,0,P|188:32|211:44,1,55,10|2,1:0|0:0,0:0:0:0:
264,54,13382,2,0,P|277:81|279:107,1,55,10|2,0:0|0:0,0:0:0:0:
315,147,13748,2,0,P|367:151|428:171,1,110,10|10,1:0|0:0,0:0:0:0:
475,264,14480,1,10,1:0:0:0:
407,351,14846,1,10,0:0:0:0:
299,329,15212,6,0,P|266:280|265:231,1,110,10|10,1:0|0:0,0:0:0:0:
261,180,15760,1,2,0:0:0:0:
261,180,15943,2,0,P|282:146|291:121,1,55,10|2,1:0|0:0,0:0:0:0:
324,90,16309,2,0,P|364:92|390:88,1,55,10|2,0:0|0:0,0:0:0:0:
425,120,16675,2,0,P|420:206|388:231,1,110,10|10,1:0|0:0,0:0:0:0:
302,254,17407,2,0,P|248:263|202:236,1,110,10|10,1:0|0:0,0:0:0:0:
149,145,18138,5,2,0:0:0:0:
54,191,18504,2,0,L|4:176,2,52.2499986047745,2|0|2,0:0|0:0|0:0,0:0:0:0:
124,268,19236,2,0,L|174:253,2,52.2499986047745,2|0|2,0:0|0:0|0:0,0:0:0:0:
54,346,19968,2,0,L|104:361,1,52.2499986047745,2|2,0:0|0:0,0:0:0:0:
154,374,20334,1,2,0:0:0:0:
240,315,20699,1,2,0:0:0:0:
320,381,21065,5,2,0:0:0:0:
391,305,21431,2,0,P|416:320|437:330,1,52.2499986047745,2|0,0:0|0:0,0:0:0:0:
487,342,21797,1,2,0:0:0:0:
498,238,22163,2,0,P|506:208|515:181,1,52.2499986047745,2|0,0:0|0:0,0:0:0:0:
479,147,22529,2,0,P|477:91|465:37,2,104.499997209549,2|2|2,0:0|0:0|0:0,0:0:0:0:
397,212,23626,1,2,0:0:0:0:
302,167,23992,5,2,0:0:0:0:
227,240,24358,2,0,L|216:294,2,52.2499986047745,2|0|2,0:0|0:0|0:0,0:0:0:0:
162,157,25090,2,0,L|173:103,2,52.2499986047745,2|0|2,0:0|0:0|0:0,0:0:0:0:
73,213,25821,2,0,L|62:267,1,52.2499986047745,2|0,0:0|0:0,0:0:0:0:
49,315,26187,1,2,0:0:0:0:
132,377,26553,1,2,0:0:0:0:
218,318,26919,5,2,0:0:0:0:
187,218,27285,2,0,L|238:199,1,52.2499986047745,2|0,0:0|0:0,0:0:0:0:
273,163,27651,1,2,0:0:0:0:
374,188,28017,2,0,P|380:220|385:248,1,52.2499986047745,2|0,0:0|0:0,0:0:0:0:
352,281,28382,2,0,P|355:332|389:376,2,104.499997209549,2|2|2,0:0|0:0|0:0,0:0:0:0:
202,115,29846,6,0,B|246:106|246:106|265:113|265:113|309:104,1,110,6|10,0:0|0:0,0:0:0:0:
361,82,30395,1,2,0:0:0:0:
361,82,30577,2,0,P|409:115|419:166,1,110,2|10,1:0|0:0,0:0:0:0:
392,213,31126,1,2,0:0:0:0:
392,213,31309,1,2,1:0:0:0:
458,300,31675,2,0,P|433:317|405:332,1,55,10|2,0:0|1:0,0:0:0:0:
361,352,32041,6,0,P|336:335|308:320,1,55,2|2,1:0|1:0,0:0:0:0:
264,298,32407,1,10,0:0:0:0:
158,330,32773,2,0,L|168:385,2,55,2|2|10,1:0|0:0|0:0,0:0:0:0:
120,297,33321,1,2,0:0:0:0:
120,297,33504,2,0,P|85:249|41:211,1,110,2|10,1:0|0:0,0:0:0:0:
8,185,34053,1,2,0:0:0:0:
8,185,34236,5,8,1:0:0:0:
62,89,34602,2,0,P|85:73|119:62,1,55,10|2,0:0|1:0,0:0:0:0:
158,36,34968,2,0,B|217:53|195:79|245:98,1,110,2|10,1:0|0:0,0:0:0:0:
340,41,35699,6,0,P|391:81|390:130,1,110,6|10,0:0|0:0,0:0:0:0:
372,175,36248,1,2,0:0:0:0:
372,175,36430,2,0,P|381:231|404:301,1,110,2|10,1:0|0:0,0:0:0:0:
422,336,36979,1,2,0:0:0:0:
422,336,37162,1,2,1:0:0:0:
509,268,37529,2,0,P|502:238|495:210,1,55,10|2,0:0|1:0,0:0:0:0:
471,165,37895,6,0,P|477:135|485:107,1,55,2|2,1:0|1:0,0:0:0:0:
499,58,38260,1,10,0:0:0:0:
404,1,38626,2,0,P|357:16|301:38,1,110,10|0,0:0|0:0,0:0:0:0:
225,118,39358,2,0,P|158:102|128:47,1,110,10|0,1:0|0:0,0:0:0:0:
94,32,39907,1,10,1:0:0:0:
4,95,40273,1,10,1:0:0:0:
69,189,40638,1,10,1:0:0:0:
69,189,40821,1,10,1:0:0:0:
1,383,41553,6,0,P|52:368|119:340,1,110,10|10,1:0|0:0,0:0:0:0:
158,326,42102,1,0,1:0:0:0:
158,326,42285,1,10,1:0:0:0:
245,259,42651,2,0,P|276:275|295:292,1,55,8|2,0:0|0:0,0:0:0:0:
316,337,43017,2,0,P|376:340|414:307,1,110,10|10,1:0|0:0,0:0:0:0:
437,262,43565,1,2,1:0:0:0:
437,262,43748,1,10,1:0:0:0:
504,175,44114,2,0,P|486:150|476:120,1,55,10|2,0:0|1:0,0:0:0:0:
493,74,44480,6,0,P|471:24|410:8,1,110,10|10,1:0|0:0,0:0:0:0:
378,39,45029,1,2,1:0:0:0:
378,39,45212,2,0,B|317:44|329:70|269:69,1,110,10|10,1:0|0:0,0:0:0:0:
227,50,45760,1,2,0:0:0:0:
227,50,45943,1,2,1:0:0:0:
174,147,46309,1,10,0:0:0:0:
249,227,46675,1,10,1:0:0:0:
349,181,47041,5,2,0:0:0:0:
437,244,47407,2,0,P|425:269|394:369,1,121.000003692627,6|10,0:0|0:0,0:0:0:0:
348,379,47956,1,2,0:0:0:0:
348,379,48138,1,10,1:0:0:0:
259,336,48504,1,10,0:0:0:0:
259,336,48687,1,2,0:0:0:0:
259,336,48870,6,0,P|215:347|184:353,1,60.5000018463135,10|2,1:0|0:0,0:0:0:0:
149,328,49236,2,0,P|116:296|95:272,1,60.5000018463135,10|2,0:0|0:0,0:0:0:0:
66,247,49602,1,10,1:0:0:0:
67,138,49968,2,0,P|60:104|53:77,1,60.5000018463135,10|2,0:0|0:0,0:0:0:0:
86,35,50334,6,0,B|153:18|138:61|206:41,1,121.000003692627,10|10,1:0|0:0,0:0:0:0:
254,18,50882,1,2,0:0:0:0:
254,18,51065,2,0,P|287:35|302:59,1,60.5000018463135,10|2,1:0|0:0,0:0:0:0:
349,76,51431,2,0,P|350:113|337:138,1,60.5000018463135,10|2,0:0|0:0,0:0:0:0:
299,169,51797,1,10,1:0:0:0:
360,259,52163,2,0,P|369:285|382:316,1,60.5000018463135,10|2,0:0|0:0,0:0:0:0:
398,367,52529,6,0,P|317:350|268:342,1,121.000003692627,10|10,1:0|1:0,0:0:0:0:
229,357,53077,1,2,0:0:0:0:
229,357,53260,2,0,P|180:327|180:261,1,121.000003692627,6|10,0:0|0:0,0:0:0:0:
148,227,53809,1,2,0:0:0:0:
148,227,53992,1,10,1:0:0:0:
49,213,54357,1,10,0:0:0:0:
49,213,54540,1,2,0:0:0:0:
49,213,54723,6,0,P|37:173|25:139,1,60.5000018463135,10|2,1:0|0:0,0:0:0:0:
67,113,55090,2,0,P|63:71|63:36,1,60.5000018463135,10|2,0:0|0:0,0:0:0:0:
34,6,55455,1,10,1:0:0:0:
142,1,55821,2,0,P|171:16|199:50,1,60.5000018463135,10|2,0:0|0:0,0:0:0:0:
194,90,56187,6,0,P|254:107|316:126,1,121.000003692627,10|10,1:0|0:0,0:0:0:0:
357,161,56735,1,2,0:0:0:0:
357,161,56919,2,0,P|345:193|335:225,1,60.5000018463135,10|2,1:0|0:0,0:0:0:0:
303,261,57285,2,0,P|324:287|347:312,1,60.5000018463135,10|2,0:0|0:0,0:0:0:0:
377,348,57650,1,10,1:0:0:0:
479,310,58016,2,0,P|488:284|501:253,1,60.5000018463135,10|2,0:0|0:0,0:0:0:0:
480,202,58382,2,0,P|471:176|458:145,1,60.5000018463135,10|10,1:0|0:0,0:0:0:0:
482,96,58748,1,10,1:0:0:0:
403,20,59114,6,0,B|335:31|369:60|296:78,1,121.000003692627,6|10,0:0|0:0,0:0:0:0:
255,55,59663,1,2,0:0:0:0:
255,55,59846,2,0,P|218:61|195:78,1,60.5000018463135,10|2,1:0|0:0,0:0:0:0:
153,103,60212,2,0,P|116:97|93:80,1,60.5000018463135,10|2,0:0|0:0,0:0:0:0:
46,65,60577,2,0,P|10:107|18:180,1,121.000003692627,10|10,1:0|0:0,0:0:0:0:
75,258,61309,1,10,1:0:0:0:
29,357,61675,1,10,0:0:0:0:
134,383,62041,6,0,P|178:338|235:344,1,121.000003692627,10|10,1:0|0:0,0:0:0:0:
283,372,62590,1,2,0:0:0:0:
283,372,62773,2,0,P|318:362|342:353,1,60.5000018463135,10|2,1:0|0:0,0:0:0:0:
391,372,63138,2,0,P|426:362|450:353,1,60.5000018463135,10|2,0:0|0:0,0:0:0:0:
503,355,63504,2,0,P|510:301|465:251,1,121.000003692627,10|10,1:0|0:0,0:0:0:0:
472,143,64236,2,0,P|428:109|362:123,1,121.000003692627,10|10,1:0|0:0,0:0:0:0:
284,47,64968,6,0,P|251:85|190:97,1,110,6|2,0:0|0:0,0:0:0:0:
147,83,65517,1,2,1:0:0:0:
147,83,65699,1,10,1:0:0:0:
40,54,66065,2,0,P|32:21|15:-15,2,55,2|2|10,1:0|0:0|0:0,0:0:0:0:
24,163,66797,2,0,P|7:193|13:223,1,55,2|2,1:0|0:0,0:0:0:0:
1,268,67163,6,0,P|18:297|47:308,1,55,10|2,0:0|0:0,0:0:0:0:
79,341,67529,1,2,1:0:0:0:
188,329,67895,2,0,L|178:384,2,55,10|0|2,1:0|0:0|0:0,0:0:0:0:
238,303,68443,1,2,1:0:0:0:
238,303,68626,2,0,B|303:316|274:345|332:359,1,110,10|2,0:0|1:0,0:0:0:0:
388,362,69175,1,2,0:0:0:0:
388,362,69358,5,10,0:0:0:0:
432,261,69724,2,0,P|466:250|489:234,1,55,10|2,1:0|0:0,0:0:0:0:
507,190,70090,2,0,P|491:139|444:109,1,110,10|10,0:0|1:0,0:0:0:0:
371,27,70821,6,0,P|312:47|254:64,1,110,6|2,0:0|0:0,0:0:0:0:
221,89,71370,1,2,1:0:0:0:
221,89,71553,1,10,1:0:0:0:
273,185,71919,2,0,P|305:195|330:199,2,55,2|2|10,1:0|0:0|0:0,0:0:0:0:
213,278,72651,2,0,P|182:282|148:293,1,55,2|2,1:0|0:0,0:0:0:0:
107,270,73017,6,0,P|88:245|61:221,1,55,10|2,0:0|0:0,0:0:0:0:
23,200,73382,1,2,1:0:0:0:
65,98,73748,2,0,P|39:50|55:-4,1,110,10|0,1:0|0:0,0:0:0:0:
112,4,74297,1,10,0:0:0:0:
112,4,74480,6,0,P|169:12|235:31,1,110,10|0,1:0|0:0,0:0:0:0:
274,25,75029,1,10,1:0:0:0:
331,118,75395,1,10,1:0:0:0:
411,42,75760,1,10,1:0:0:0:
411,42,75943,1,10,0:0:0:0:
512,84,76309,1,2,0:0:0:0:
495,192,76675,6,0,P|436:226|392:257,1,110,6|10,1:0|0:0,0:0:0:0:
353,272,77224,1,2,0:0:0:0:
353,272,77407,2,0,P|325:262|294:254,1,55,10|2,1:0|0:0,0:0:0:0:
247,269,77773,1,10,0:0:0:0:
141,257,78138,1,10,1:0:0:0:
141,257,78321,2,0,L|131:196,2,55,2|10|2,0:0|0:0|0:0,0:0:0:0:
105,299,78870,1,10,1:0:0:0:
6,249,79236,1,10,0:0:0:0:
2,139,79602,6,0,P|43:97|104:88,1,110,10|10,1:0|0:0,0:0:0:0:
148,107,80151,1,2,0:0:0:0:
148,107,80334,2,0,P|186:117|210:120,1,55,10|2,1:0|0:0,0:0:0:0:
256,113,80699,1,10,0:0:0:0:
348,51,81065,1,10,1:0:0:0:
348,51,81248,2,0,P|356:21|366:-1,2,55,2|10|2,0:0|0:0|0:0,0:0:0:0:
380,95,81797,2,0,P|412:115|430:130,1,55,10|8,1:0|0:0,0:0:0:0:
469,159,82163,1,10,1:0:0:0:
510,260,82529,6,0,P|483:304|418:329,1,110,6|10,0:0|0:0,0:0:0:0:
383,350,83078,1,2,0:0:0:0:
383,350,83260,2,0,P|346:340|329:328,1,55,10|2,1:0|0:0,0:0:0:0:
281,309,83626,1,10,0:0:0:0:
309,206,83992,1,10,1:0:0:0:
309,206,84175,2,0,L|299:145,1,55,2|10,0:0|0:0,0:0:0:0:
294,101,84541,1,2,0:0:0:0:
294,101,84724,1,10,1:0:0:0:
209,30,85090,2,0,P|186:42|161:62,1,55,10|2,0:0|0:0,0:0:0:0:
115,87,85456,6,0,B|70:114|98:143|44:177,1,110,10|10,1:0|0:0,0:0:0:0:
13,213,86004,1,2,0:0:0:0:
13,213,86187,2,0,P|21:237|35:267,1,55,10|2,1:0|0:0,0:0:0:0:
56,314,86553,1,10,0:0:0:0:
169,302,86919,1,10,1:0:0:0:
169,302,87102,2,0,L|166:245,2,55,2|10|2,0:0|0:0|0:0,0:0:0:0:
208,340,87651,2,0,P|237:354|263:358,1,55,10|8,1:0|0:0,0:0:0:0:
314,355,88017,1,10,1:0:0:0:
413,311,88382,6,0,P|446:268|446:187,1,121.000003692627,6|10,0:0|0:0,0:0:0:0:
426,160,88931,1,2,0:0:0:0:
426,160,89114,1,10,1:0:0:0:
336,120,89479,1,10,0:0:0:0:
336,120,89662,1,2,0:0:0:0:
336,120,89845,6,0,P|292:127|262:136,1,60.5000018463135,10|2,1:0|0:0,0:0:0:0:
230,101,90212,2,0,P|186:94|156:85,1,60.5000018463135,10|2,0:0|0:0,0:0:0:0:
123,63,90577,1,10,1:0:0:0:
40,134,90943,2,0,P|33:168|26:195,1,60.5000018463135,10|2,0:0|0:0,0:0:0:0:
34,247,91309,6,0,B|79:262|79:262|90:284|90:284|141:303,1,121.000003692627,10|10,1:0|0:0,0:0:0:0:
182,338,91857,1,2,0:0:0:0:
182,338,92040,2,0,P|210:329|252:312,1,60.5000018463135,10|2,1:0|0:0,0:0:0:0:
291,335,92407,2,0,P|319:326|361:309,1,60.5000018463135,10|2,0:0|0:0,0:0:0:0:
399,296,92772,1,10,1:0:0:0:
483,366,93138,2,0,P|495:338|508:295,1,60.5000018463135,10|2,0:0|0:0,0:0:0:0:
491,256,93504,6,0,P|494:202|428:157,1,121.000003692627,10|10,1:0|1:0,0:0:0:0:
408,129,94052,1,2,0:0:0:0:
408,129,94236,2,0,B|388:74|356:102|331:31,1,121.000003692627,6|10,0:0|0:0,0:0:0:0:
289,14,94785,1,2,0:0:0:0:
289,14,94968,1,10,1:0:0:0:
205,81,95334,1,10,0:0:0:0:
205,81,95517,1,2,0:0:0:0:
205,81,95698,6,0,P|201:121|215:157,1,60.5000018463135,10|2,1:0|0:0,0:0:0:0:
186,191,96065,2,0,P|218:214|256:220,1,60.5000018463135,10|2,0:0|0:0,0:0:0:0:
287,241,96430,1,10,1:0:0:0:
285,350,96796,2,0,P|246:362|209:379,1,60.5000018463135,10|2,0:0|0:0,0:0:0:0:
174,382,97162,6,0,P|114:365|52:346,1,121.000003692627,10|10,1:0|0:0,0:0:0:0:
25,311,97712,1,2,0:0:0:0:
25,311,97894,2,0,P|13:279|3:247,1,60.5000018463135,10|2,1:0|0:0,0:0:0:0:
26,203,98260,2,0,P|38:171|48:139,1,60.5000018463135,10|2,0:0|0:0,0:0:0:0:
66,95,98625,1,10,1:0:0:0:
158,37,98991,2,0,P|184:46|215:59,1,60.5000018463135,10|2,0:0|0:0,0:0:0:0:
254,96,99358,2,0,P|280:87|311:74,1,60.5000018463135,10|8,1:0|0:0,0:0:0:0:
363,62,99723,1,10,1:0:0:0:
459,10,100090,6,0,P|498:35|509:114,1,121.000003692627,6|10,0:0|0:0,0:0:0:0:
485,156,100639,1,2,0:0:0:0:
485,156,100821,2,0,P|493:195|503:234,1,60.5000018463135,10|2,1:0|0:0,0:0:0:0:
483,276,101187,1,10,0:0:0:0:
483,276,101370,1,2,0:0:0:0:
483,276,101553,6,0,P|447:264|420:270,1,60.5000018463135,10|2,1:0|0:0,0:0:0:0:
384,308,101919,2,0,P|355:331|328:336,1,60.5000018463135,10|2,0:0|0:0,0:0:0:0:
278,318,102285,1,10,1:0:0:0:
172,363,102651,2,0,P|143:335|117:313,1,60.5000018463135,10|2,0:0|0:0,0:0:0:0:
89,278,103017,6,0,P|83:217|119:166,1,121.000003692627,10|10,1:0|0:0,0:0:0:0:
162,137,103565,1,2,0:0:0:0:
162,137,103748,2,0,P|193:142|225:151,1,60.5000018463135,10|2,1:0|0:0,0:0:0:0:
265,187,104114,2,0,P|296:181|328:173,1,60.5000018463135,10|2,0:0|0:0,0:0:0:0:
380,157,104480,1,10,1:0:0:0:
472,90,104846,2,0,P|443:67|426:44,1,60.5000018463135,10|2,0:0|0:0,0:0:0:0:
390,5,105212,6,0,B|321:34|362:50|288:78,1,121.000003692627,2|10,1:0|1:0,0:0:0:0:
242,93,105760,1,2,0:0:0:0:
242,93,105943,2,0,P|186:68|123:53,1,121.000003692627,6|10,0:0|0:0,0:0:0:0:
77,77,106492,1,2,0:0:0:0:
77,77,106674,2,0,P|82:112|86:146,1,60.5000018463135,10|2,1:0|0:0,0:0:0:0:
60,192,107040,1,10,0:0:0:0:
60,192,107223,1,2,0:0:0:0:
60,192,107407,6,0,P|48:225|56:254,1,60.5000018463135,10|2,1:0|0:0,0:0:0:0:
37,304,107773,2,0,P|59:330|88:338,1,60.5000018463135,10|2,0:0|0:0,0:0:0:0:
140,335,108138,1,10,1:0:0:0:
248,295,108504,2,0,P|278:308|321:327,1,60.5000018463135,10|2,0:0|0:0,0:0:0:0:
356,343,108870,6,0,P|416:326|478:307,1,121.000003692627,10|10,1:0|0:0,0:0:0:0:
502,262,109418,1,2,0:0:0:0:
502,262,109602,2,0,P|514:230|507:192,1,60.5000018463135,10|2,1:0|0:0,0:0:0:0:
463,172,109968,2,0,P|441:145|404:132,1,60.5000018463135,10|2,0:0|0:0,0:0:0:0:
364,156,110333,1,10,1:0:0:0:
303,253,110699,2,0,P|268:261|233:274,1,60.5000018463135,10|2,0:0|0:0,0:0:0:0:
197,302,111065,2,0,P|162:293|127:281,1,60.5000018463135,10|10,1:0|0:0,0:0:0:0:
91,252,111431,1,10,1:0:0:0:
15,173,111797,6,0,P|32:121|92:90,1,121.000003692627,6|10,0:0|0:0,0:0:0:0:
140,69,112346,1,2,0:0:0:0:
140,69,112529,2,0,P|177:75|206:83,1,60.5000018463135,10|2,1:0|0:0,0:0:0:0:
244,111,112895,2,0,P|281:105|310:97,1,60.5000018463135,10|2,0:0|0:0,0:0:0:0:
349,70,113260,2,0,P|389:24|458:22,1,121.000003692627,10|10,1:0|0:0,0:0:0:0:
511,105,113992,1,10,1:0:0:0:
422,169,114358,1,10,0:0:0:0:
454,276,114724,6,0,B|440:304|440:304|349:325,1,121.000003692627,10|10,1:0|0:0,0:0:0:0:
308,301,115273,1,2,0:0:0:0:
308,301,115456,2,0,P|272:307|250:325,1,60.5000018463135,10|2,1:0|0:0,0:0:0:0:
205,347,115821,2,0,P|169:341|147:323,1,60.5000018463135,10|2,0:0|0:0,0:0:0:0:
95,321,116187,2,0,P|63:272|77:212,1,121.000003692627,10|10,1:0|0:0,0:0:0:0:
3,133,116919,2,0,P|35:84|21:24,1,121.000003692627,10|10,1:0|0:0,0:0:0:0:
130,39,117651,6,0,P|194:57|255:60,1,121.000003692627,6|10,0:0|0:0,0:0:0:0:
301,87,118200,1,2,0:0:0:0:
301,87,118383,2,0,P|331:72|356:63,1,60.5000018463135,10|2,1:0|0:0,0:0:0:0:
407,80,118748,2,0,P|437:65|462:56,1,60.5000018463135,10|2,0:0|0:0,0:0:0:0:
511,79,119114,2,0,P|513:145|469:190,1,121.000003692627,10|10,1:0|0:0,0:0:0:0:
374,154,119846,1,10,1:0:0:0:
304,238,120212,1,10,0:0:0:0:
367,326,120578,6,0,B|303:333|330:367|256:376,1,121.000003692627,10|10,1:0|0:0,0:0:0:0:
211,364,121126,1,2,0:0:0:0:
211,364,121309,2,0,P|176:343|166:324,1,60.5000018463135,10|2,1:0|0:0,0:0:0:0:
124,291,121675,2,0,P|124:250|136:232,1,60.5000018463135,10|2,0:0|0:0,0:0:0:0:
124,180,122041,2,0,P|139:121|150:59,1,121.000003692627,10|10,1:0|0:0,0:0:0:0:
257,46,122773,2,0,P|242:105|231:167,1,121.000003692627,10|10,1:0|0:0,0:0:0:0:
250,215,123321,1,2,0:0:0:0:
250,215,123504,5,2,0:0:0:0:
