osu file format v14

[General]
AudioFilename: audio.ogg
AudioLeadIn: 0
PreviewTime: 47041
Countdown: 0
SampleSet: Soft
StackLeniency: 0.4
Mode: 0
LetterboxInBreaks: 0
WidescreenStoryboard: 1

[Editor]
Bookmarks: 59109,123499
DistanceSpacing: 1.1
BeatDivisor: 6
GridSize: 8
TimelineZoom: 2.6

[Metadata]
Title:Fuwari
TitleUnicode:ふわり
Artist:Hanon x Kotoha
ArtistUnicode:Hanon × Kotoha
Creator:Kyss
Version:Lian's Hard
Source:
Tags:nodoro ganyu lover lian2002 -lian- pepekcz ふわり fuwari japanese mimi eshikara 可不 kafu 初音ミク hatsune miku hatsune_miku pop jpop j-pop female vocal vocaloid cover
BeatmapID:4149343
BeatmapSetID:1984719

[Difficulty]
HPDrainRate:4.5
CircleSize:4
OverallDifficulty:6
ApproachRate:7.5
SliderMultiplier:1.4
SliderTickRate:1

[Events]
//Background and Video events
0,0,"BG.jpg",0,0
//Break Periods
//Storyboard Layer 0 (Background)
//Storyboard Layer 1 (Fail)
//Storyboard Layer 2 (Pass)
//Storyboard Layer 3 (Foreground)
//Storyboard Layer 4 (Overlay)
//Storyboard Sound Samples

[TimingPoints]
578,365.853658536585,4,2,1,40,1,0
578,-100,4,2,1,40,0,0
5699,-100,4,2,1,50,0,0
6065,-100,4,2,1,60,0,0
6431,-83.3333333333333,4,2,1,70,0,0
18138,-125,4,2,1,40,0,0
29846,-100,4,2,1,50,0,0
38626,-100,4,2,1,60,0,0
39175,-100,4,2,1,50,0,0
41553,-111.111111111111,4,2,1,50,0,0
47041,-111.111111111111,4,2,1,30,0,0
47407,-83.3333333333333,4,2,1,70,0,1
64968,-100,4,2,1,50,0,0
73748,-100,4,2,1,60,0,0
74297,-100,4,2,1,50,0,0
76675,-90.9090909090909,4,2,1,70,0,0
88382,-83.3333333333333,4,2,1,70,0,1
100090,-83.3333333333333,4,2,1,80,0,1
111797,-76.9230769230769,4,2,1,70,0,0
123321,-76.9230769230769,4,2,1,30,0,0

[Colours]
Combo1 : 0,166,83
Combo2 : 255,255,128
Combo3 : 113,208,255
Combo4 : 0,255,128

[HitObjects]
256,43,578,5,6,0:0:0:0:
120,141,943,2,0,L|136:221,1,70,2|2,0:0|0:0,0:0:0:0:
49,198,1309,2,0,L|65:278,1,70,2|2,0:0|0:0,0:0:0:0:
49,350,1675,2,0,L|129:334,1,70,2|2,0:0|0:0,0:0:0:0:
199,317,2041,5,2,0:0:0:0:
281,301,2224,2,0,L|287:335,2,35,2|2|2,0:0|0:0|0:0,0:0:0:0:
331,233,2590,1,2,0:0:0:0:
403,275,2773,2,0,P|468:275|483:199,2,140,2|2|6,0:0|0:0|0:0,0:0:0:0:
337,120,3870,6,0,P|300:120|268:136,1,70,2|2,0:0|0:0,0:0:0:0:
187,117,4236,2,0,P|187:154|203:186,1,70,2|2,0:0|0:0,0:0:0:0:
284,200,4602,2,0,P|284:163|268:131,1,70,2|2,0:0|0:0,0:0:0:0:
200,183,4968,1,2,0:0:0:0:
162,258,5151,2,0,L|127:251,2,35,2|2|2,0:0|0:0|0:0,0:0:0:0:
227,310,5517,1,2,0:0:0:0:
298,353,5699,2,0,L|457:321,1,140,10|10,0:0|1:0,0:0:0:0:
466,125,6431,6,0,L|383:141,1,83.9999974365235,6|2,0:0|0:0,0:0:0:0:
338,212,6797,2,0,L|255:195,1,83.9999974365235,10|2,0:0|0:0,0:0:0:0:
212,122,7163,2,0,L|129:138,1,83.9999974365235,10|2,1:0|0:0,0:0:0:0:
49,111,7529,2,0,P|49:167|67:194,1,83.9999974365235,10|2,0:0|0:0,0:0:0:0:
129,138,7895,5,10,1:0:0:0:
145,219,8077,2,0,L|186:210,2,41.9999987182618,2|2|10,0:0|0:0|0:0,0:0:0:0:
97,289,8443,1,2,0:0:0:0:
120,369,8626,2,0,L|297:337,2,167.999994873047,10|10|10,1:0|0:0|1:0,0:0:0:0:
261,243,9724,6,0,P|309:243|341:260,1,83.9999974365235,10|2,0:0|0:0,0:0:0:0:
393,193,10090,2,0,P|441:193|473:176,1,83.9999974365235,10|2,1:0|0:0,0:0:0:0:
451,94,10456,2,0,P|403:94|371:111,1,83.9999974365235,10|2,0:0|0:0,0:0:0:0:
302,62,10821,5,10,1:0:0:0:
250,128,11004,2,0,L|258:169,2,41.9999987182618,2|2|10,0:0|0:0|0:0,0:0:0:0:
171,96,11370,1,2,0:0:0:0:
123,165,11553,2,0,L|40:148,1,83.9999974365235,10|8,1:0|0:0,0:0:0:0:
14,121,11827,1,8,0:0:0:0:
14,121,11919,1,10,1:0:0:0:
57,48,12102,2,0,L|98:56,2,41.9999987182618,8|8|6,0:0|0:0|0:0,0:0:0:0:
215,43,12651,6,0,L|198:125,1,83.9999974365235,10|2,0:0|0:0,0:0:0:0:
123,165,13017,2,0,L|139:247,1,83.9999974365235,10|2,1:0|0:0,0:0:0:0:
155,329,13382,2,0,P|115:329|75:298,1,83.9999974365235,10|2,0:0|0:0,0:0:0:0:
139,247,13748,5,10,1:0:0:0:
219,271,13931,2,0,L|260:279,2,41.9999987182618,2|2|10,0:0|0:0|0:0,0:0:0:0:
202,188,14297,1,2,0:0:0:0:
139,247,14480,2,0,L|105:82,2,167.999994873047,10|10|10,1:0|0:0|1:0,0:0:0:0:
279,339,15577,6,0,L|295:256,1,83.9999974365235,10|2,0:0|0:0,0:0:0:0:
270,175,15943,2,0,L|352:191,1,83.9999974365235,10|2,1:0|0:0,0:0:0:0:
370,108,16309,2,0,L|287:91,1,83.9999974365235,10|2,0:0|0:0,0:0:0:0:
206,113,16675,5,10,1:0:0:0:
141,58,16858,2,0,L|149:16,2,41.9999987182618,2|2|10,0:0|0:0|0:0,0:0:0:0:
87,123,17224,1,2,0:0:0:0:
6,98,17407,2,0,P|62:41|140:57,1,167.999994873047,10|10,1:0|0:0,0:0:0:0:
246,20,18138,6,0,P|246:82|283:128,1,112,2|2,0:0|0:0,0:0:0:0:
358,148,18687,1,0,0:0:0:0:
358,148,18870,2,0,L|478:124,1,112,2|2,0:0|0:0,0:0:0:0:
456,212,19419,1,0,0:0:0:0:
456,212,19602,2,0,L|387:225,1,56,2|2,0:0|0:0,0:0:0:0:
368,301,19968,6,0,L|299:314,1,56,2|2,0:0|0:0,0:0:0:0:
229,298,20334,2,0,P|229:330|249:366,1,56,2|2,0:0|0:0,0:0:0:0:
313,311,20699,2,0,P|313:279|293:243,1,56,2|0,0:0|0:0,0:0:0:0:
231,214,21065,6,0,P|199:215|164:237,3,56,2|2|2|0,0:0|0:0|0:0|0:0,0:0:0:0:
105,193,21797,5,2,0:0:0:0:
105,193,21980,1,2,0:0:0:0:
58,263,22163,2,0,P|83:274|111:274,1,56,2|0,0:0|0:0,0:0:0:0:
152,348,22529,2,0,P|174:331|188:307,1,56,2|2,0:0|0:0,0:0:0:0:
273,306,22895,2,0,P|269:278|256:253,1,56,2|2,0:0|0:0,0:0:0:0:
299,181,23260,2,0,P|273:169|245:169,2,56,2|2|2,0:0|0:0|0:0,0:0:0:0:
443,267,23992,6,0,L|459:139,1,112,2|2,0:0|0:0,0:0:0:0:
461,75,24541,1,0,0:0:0:0:
461,75,24724,2,0,P|407:77|353:33,1,112,2|2,0:0|0:0,0:0:0:0:
281,30,25273,1,0,0:0:0:0:
281,30,25456,6,0,P|281:67|296:98,1,56,2|2,0:0|0:0,0:0:0:0:
346,143,25821,2,0,P|346:180|330:211,1,56,2|2,0:0|0:0,0:0:0:0:
274,251,26187,2,0,L|219:240,1,56,2|2,0:0|0:0,0:0:0:0:
168,172,26553,2,0,L|99:185,1,56,2|2,0:0|0:0,0:0:0:0:
30,165,26919,6,0,P|30:202|45:233,1,56,2|2,0:0|0:0,0:0:0:0:
119,237,27285,2,0,P|119:200|104:169,1,56,2|0,0:0|0:0,0:0:0:0:
36,219,27651,1,2,0:0:0:0:
158,334,28017,2,0,P|190:315|209:287,1,56,2|0,0:0|0:0,0:0:0:0:
256,237,28382,1,2,0:0:0:0:
256,237,28565,1,2,0:0:0:0:
308,302,28748,2,0,P|327:322|352:334,1,56,2|0,0:0|0:0,0:0:0:0:
400,265,29114,2,0,P|380:244|355:232,1,56,2|2,0:0|0:0,0:0:0:0:
87,64,29846,6,0,P|96:130|156:160,1,140,6|10,0:0|0:0,0:0:0:0:
236,131,30395,1,2,0:0:0:0:
236,131,30577,2,0,P|274:131|317:153,2,70,2|2|10,1:0|1:0|0:0,0:0:0:0:
156,160,31126,1,2,0:0:0:0:
156,160,31309,2,0,P|129:182|112:212,1,70,2|2,1:0|1:0,0:0:0:0:
29,195,31675,6,0,P|29:227|47:262,3,70,10|2|2|2,0:0|1:0|1:0|1:0,0:0:0:0:
123,304,32407,1,10,0:0:0:0:
123,304,32590,1,2,0:0:0:0:
186,248,32773,6,0,L|261:232,1,70,2|2,1:0|0:0,0:0:0:0:
275,155,33138,1,10,0:0:0:0:
275,155,33321,1,2,0:0:0:0:
222,89,33504,2,0,L|153:102,1,70,2|2,1:0|1:0,0:0:0:0:
71,83,33870,6,0,P|72:130|92:162,1,70,10|2,0:0|0:0,0:0:0:0:
164,169,34236,2,0,P|163:122|143:90,1,70,8|2,1:0|1:0,0:0:0:0:
212,42,34602,1,10,0:0:0:0:
212,42,34785,1,2,1:0:0:0:
262,109,34968,2,0,L|246:253,1,140,2|10,1:0|0:0,0:0:0:0:
104,338,35699,6,0,L|88:198,1,140,6|10,0:0|0:0,0:0:0:0:
77,119,36248,1,2,0:0:0:0:
77,119,36431,2,0,L|-15:129,2,70,2|2|10,1:0|1:0|0:0,0:0:0:0:
123,50,36980,1,2,0:0:0:0:
123,50,37163,2,0,L|215:60,1,70,2|2,1:0|1:0,0:0:0:0:
275,40,37529,6,0,P|275:77|262:107,3,70,10|2|2|2,0:0|1:0|1:0|1:0,0:0:0:0:
205,168,38260,1,10,0:0:0:0:
205,168,38443,1,2,0:0:0:0:
264,226,38626,5,10,0:0:0:0:
406,326,39175,2,0,L|411:360,2,35,0|0|10,1:0|1:0|1:0,0:0:0:0:
421,158,39724,5,0,0:0:0:0:
421,158,39907,2,0,P|478:134|483:200,2,140,10|10|10,1:0|1:0|1:0,0:0:0:0:
415,250,40821,1,10,1:0:0:0:
256,352,41553,5,10,1:0:0:0:
256,352,41919,2,0,L|244:288,2,62.9999980773926,10|0|10,0:0|1:0|1:0,0:0:0:0:
394,289,42651,2,0,L|382:225,1,62.9999980773926,8|0,0:0|0:0,0:0:0:0:
316,177,43017,2,0,P|374:146|440:168,2,125.999996154785,10|10|10,1:0|0:0|1:0,0:0:0:0:
205,56,44114,6,0,P|158:56|123:78,2,62.9999980773926,10|2|10,0:0|1:0|1:0,0:0:0:0:
71,151,44846,2,0,P|24:151|-11:129,2,62.9999980773926,10|2|10,0:0|1:0|1:0,0:0:0:0:
225,205,45577,6,0,P|195:214|163:210,1,62.9999980773926,10|2,0:0|0:0,0:0:0:0:
113,275,45943,2,0,P|56:257|31:318,1,125.999996154785,2|10,1:0|0:0,0:0:0:0:
27,306,46492,2,0,L|16:271,3,20.9999993591309,2|0|2|10,0:0|1:0|1:0|1:0,0:0:0:0:
364,348,47407,5,6,0:0:0:0:
429,193,47773,5,10,0:0:0:0:
510,214,47956,1,2,0:0:0:0:
488,133,48138,1,10,1:0:0:0:
334,196,48504,5,10,0:0:0:0:
334,196,48687,1,2,0:0:0:0:
272,252,48870,2,0,P|251:215|251:174,1,83.9999974365235,10|2,1:0|0:0,0:0:0:0:
313,116,49236,2,0,P|354:116|390:137,1,83.9999974365235,10|2,0:0|0:0,0:0:0:0:
469,104,49602,2,0,P|406:67|391:138,1,167.999994873047,10|10,1:0|0:0,0:0:0:0:
463,194,50151,1,2,0:0:0:0:
463,194,50242,1,0,0:0:0:0:
463,194,50334,6,0,L|447:276,1,83.9999974365235,10|2,1:0|0:0,0:0:0:0:
383,331,50699,2,0,P|341:330|305:309,1,83.9999974365235,10|2,0:0|0:0,0:0:0:0:
243,366,51065,2,0,P|222:329|222:288,1,83.9999974365235,10|2,1:0|0:0,0:0:0:0:
285,231,51431,2,0,P|305:267|305:308,2,83.9999974365235,10|2|10,0:0|0:0|1:0,0:0:0:0:
215,203,51980,5,2,0:0:0:0:
215,203,52071,1,2,0:0:0:0:
215,203,52163,1,10,0:0:0:0:
135,229,52346,1,2,0:0:0:0:
79,165,52529,1,10,1:0:0:0:
124,94,52712,1,8,0:0:0:0:
204,117,52895,1,10,1:0:0:0:
352,39,53260,5,6,0:0:0:0:
461,166,53626,5,10,0:0:0:0:
416,237,53809,1,2,0:0:0:0:
336,214,53992,1,10,1:0:0:0:
223,339,54358,5,10,0:0:0:0:
223,339,54541,1,2,0:0:0:0:
146,303,54724,2,0,P|100:303|65:279,1,83.9999974365235,10|2,1:0|0:0,0:0:0:0:
93,202,55090,2,0,P|139:202|174:226,1,83.9999974365235,10|2,0:0|0:0,0:0:0:0:
245,183,55456,2,0,P|302:138|301:48,1,167.999994873047,10|10,1:0|0:0,0:0:0:0:
234,95,56004,1,2,0:0:0:0:
234,95,56096,1,8,0:0:0:0:
234,95,56187,6,0,L|143:80,1,83.9999974365235,10|2,1:0|0:0,0:0:0:0:
81,33,56553,2,0,L|67:115,1,83.9999974365235,10|2,0:0|0:0,0:0:0:0:
16,183,56919,2,0,L|31:274,1,83.9999974365235,10|2,1:0|0:0,0:0:0:0:
86,328,57285,2,0,P|52:344|6:344,2,83.9999974365235,10|2|10,0:0|0:0|1:0,0:0:0:0:
162,287,57834,5,2,0:0:0:0:
162,287,57925,1,2,0:0:0:0:
162,287,58017,1,10,0:0:0:0:
221,346,58199,1,2,0:0:0:0:
299,314,58382,1,10,1:0:0:0:
322,238,58565,1,10,0:0:0:0:
322,238,58657,1,8,0:0:0:0:
322,238,58748,1,10,1:0:0:0:
258,182,58931,1,10,0:0:0:0:
175,199,59114,5,6,0:0:0:0:
244,59,59480,2,0,P|291:59|336:92,1,83.9999974365235,10|2,0:0|0:0,0:0:0:0:
383,18,59846,2,0,P|406:58|400:114,1,83.9999974365235,10|2,1:0|0:0,0:0:0:0:
488,118,60212,2,0,P|464:158|413:181,1,83.9999974365235,10|2,0:0|0:0,0:0:0:0:
350,164,60577,5,10,1:0:0:0:
286,218,60760,2,0,P|285:243|297:272,2,41.9999987182618,2|2|10,0:0|0:0|0:0,0:0:0:0:
350,164,61126,1,2,0:0:0:0:
433,176,61309,2,0,L|407:372,2,167.999994873047,10|10|10,1:0|0:0|1:0,0:0:0:0:
309,61,62407,6,0,P|267:59|230:78,1,83.9999974365235,10|2,0:0|0:0,0:0:0:0:
212,161,62773,2,0,P|253:162|290:143,1,83.9999974365235,10|2,1:0|0:0,0:0:0:0:
230,78,63138,2,0,P|188:76|151:95,1,83.9999974365235,10|2,0:0|0:0,0:0:0:0:
78,138,63504,5,10,1:0:0:0:
15,82,63687,2,0,P|12:52|16:40,2,41.9999987182618,2|2|10,0:0|0:0|0:0,0:0:0:0:
78,138,64053,1,2,0:0:0:0:
33,209,64236,1,10,1:0:0:0:
115,254,64419,1,8,0:0:0:0:
115,254,64510,1,8,0:0:0:0:
115,254,64602,1,10,1:0:0:0:
256,192,64968,5,6,0:0:0:0:
335,307,65334,2,0,L|424:290,2,70,2|2|10,0:0|1:0|1:0,0:0:0:0:
202,353,66065,2,0,L|113:336,2,70,2|2|10,1:0|0:0|0:0,0:0:0:0:
195,212,66797,6,0,L|106:195,1,70,2|2,1:0|0:0,0:0:0:0:
75,131,67163,2,0,P|42:131|6:106,3,70,10|2|2|0,0:0|0:0|1:0|0:0,0:0:0:0:
71,50,67895,5,10,1:0:0:0:
232,95,68260,2,0,L|300:81,1,70,2|2,0:0|1:0,0:0:0:0:
344,9,68626,2,0,P|383:66|366:131,1,140,10|2,0:0|1:0,0:0:0:0:
298,177,69175,1,2,0:0:0:0:
298,177,69358,2,0,L|229:190,1,70,10|2,0:0|0:0,0:0:0:0:
182,260,69724,2,0,L|113:246,1,70,10|2,1:0|0:0,0:0:0:0:
60,317,70090,2,0,L|197:343,1,140,10|10,0:0|1:0,0:0:0:0:
362,374,70821,5,6,0:0:0:0:
432,252,71187,2,0,P|476:252|508:276,2,70,2|2|10,0:0|1:0|1:0,0:0:0:0:
340,145,71919,2,0,P|296:145|264:169,2,70,2|2|10,1:0|0:0|0:0,0:0:0:0:
475,44,72651,6,0,L|461:112,1,70,2|2,1:0|0:0,0:0:0:0:
418,183,73017,2,0,L|431:251,1,70,10|2,0:0|0:0,0:0:0:0:
403,331,73382,1,2,1:0:0:0:
320,313,73565,1,2,0:0:0:0:
258,369,73748,5,10,1:0:0:0:
136,220,74297,1,10,0:0:0:0:
215,193,74480,1,10,1:0:0:0:
368,96,75029,6,0,P|406:66|441:130,2,140,10|10|10,1:0|1:0|1:0,0:0:0:0:
378,179,75943,1,10,0:0:0:0:
451,220,76126,2,0,P|491:200|507:177,2,70,2|2|2,0:0|0:0|0:0,0:0:0:0:
399,297,76675,6,0,L|311:281,1,77.0000023498536,6|2,1:0|0:0,0:0:0:0:
292,311,76949,1,2,0:0:0:0:
292,311,77041,2,0,L|216:324,1,77.0000023498536,10|2,0:0|0:0,0:0:0:0:
142,366,77407,2,0,L|129:290,1,77.0000023498536,10|2,1:0|0:0,0:0:0:0:
113,206,77773,1,10,0:0:0:0:
113,206,77956,1,2,0:0:0:0:
40,162,78138,6,0,L|53:86,1,77.0000023498536,10|2,1:0|0:0,0:0:0:0:
68,48,78413,1,2,0:0:0:0:
68,48,78505,2,0,L|144:61,1,77.0000023498536,10|2,0:0|0:0,0:0:0:0:
189,132,78870,2,0,L|265:119,1,77.0000023498536,10|2,1:0|0:0,0:0:0:0:
290,40,79236,1,10,0:0:0:0:
290,40,79419,1,2,0:0:0:0:
348,101,79602,6,0,L|424:88,1,77.0000023498536,10|2,1:0|0:0,0:0:0:0:
468,81,79876,1,2,0:0:0:0:
468,81,79968,2,0,L|481:157,1,77.0000023498536,10|2,0:0|0:0,0:0:0:0:
459,239,80334,2,0,L|383:252,1,77.0000023498536,10|2,1:0|0:0,0:0:0:0:
311,216,80699,1,10,0:0:0:0:
311,216,80882,1,2,0:0:0:0:
248,159,81065,6,0,L|172:172,1,77.0000023498536,10|2,1:0|0:0,0:0:0:0:
135,159,81340,1,2,0:0:0:0:
135,159,81431,2,0,L|128:121,3,38.5000011749268,10|2|2|2,0:0|0:0|0:0|0:0,0:0:0:0:
123,78,81797,1,10,1:0:0:0:
41,53,81980,1,8,0:0:0:0:
4,135,82163,1,10,1:0:0:0:
17,303,82529,6,0,P|54:303|99:338,1,77.0000023498536,6|2,0:0|0:0,0:0:0:0:
121,297,82803,1,2,0:0:0:0:
121,297,82895,2,0,P|158:297|203:262,1,77.0000023498536,10|2,0:0|0:0,0:0:0:0:
259,328,83260,2,0,P|296:328|341:363,1,77.0000023498536,10|2,1:0|0:0,0:0:0:0:
372,275,83626,1,10,0:0:0:0:
372,275,83809,1,2,0:0:0:0:
378,190,83992,5,10,1:0:0:0:
301,225,84175,2,0,L|266:221,3,25.6666674499512,2|2|2|10,0:0|0:0|0:0|0:0,0:0:0:0:
232,215,84541,1,2,0:0:0:0:
211,132,84724,1,10,1:0:0:0:
372,36,85090,1,10,0:0:0:0:
459,55,85273,1,2,0:0:0:0:
477,137,85456,6,0,P|476:175|457:207,1,77.0000023498536,10|2,1:0|0:0,0:0:0:0:
421,196,85730,1,2,0:0:0:0:
421,196,85821,2,0,P|384:196|339:231,1,77.0000023498536,10|2,0:0|0:0,0:0:0:0:
274,255,86187,2,0,P|237:255|192:220,1,77.0000023498536,10|2,1:0|0:0,0:0:0:0:
138,290,86553,2,0,P|119:257|127:201,1,77.0000023498536,10|2,0:0|0:0,0:0:0:0:
39,189,86919,6,0,P|57:156|110:135,1,77.0000023498536,10|2,1:0|0:0,0:0:0:0:
137,134,87193,1,2,0:0:0:0:
137,134,87285,2,0,L|124:72,3,38.5000011749268,10|2|2|2,0:0|0:0|0:0|0:0,0:0:0:0:
119,54,87651,1,10,1:0:0:0:
201,35,87834,1,8,0:0:0:0:
284,19,88017,1,10,1:0:0:0:
425,137,88382,5,6,0:0:0:0:
382,316,88748,5,10,0:0:0:0:
283,292,88931,1,2,0:0:0:0:
184,268,89114,1,10,1:0:0:0:
193,89,89480,5,10,0:0:0:0:
97,56,89663,1,2,0:0:0:0:
40,139,89846,2,0,P|73:158|120:158,1,83.9999974365235,10|2,1:0|0:0,0:0:0:0:
193,89,90212,2,0,P|226:70|273:70,1,83.9999974365235,10|2,0:0|0:0,0:0:0:0:
366,103,90577,2,0,P|429:67|435:146,1,167.999994873047,10|10,1:0|0:0,0:0:0:0:
371,205,91126,1,2,0:0:0:0:
371,205,91218,1,8,0:0:0:0:
371,205,91309,6,0,L|386:297,1,83.9999974365235,10|2,1:0|0:0,0:0:0:0:
318,365,91675,2,0,B|290:342|290:342|283:294,1,83.9999974365235,10|2,0:0|0:0,0:0:0:0:
200,235,92041,2,0,P|158:234|121:254,1,83.9999974365235,10|2,1:0|0:0,0:0:0:0:
81,160,92407,2,0,P|39:160|2:140,1,83.9999974365235,10|2,0:0|0:0,0:0:0:0:
23,41,92773,6,0,P|64:40|101:60,1,83.9999974365235,10|2,1:0|0:0,0:0:0:0:
155,60,93047,1,2,0:0:0:0:
155,60,93138,1,10,0:0:0:0:
199,150,93321,1,2,0:0:0:0:
297,170,93504,1,10,1:0:0:0:
372,102,93687,1,8,0:0:0:0:
372,1,93870,1,10,1:0:0:0:
493,157,94236,5,6,0:0:0:0:
441,334,94602,5,10,0:0:0:0:
369,262,94785,1,2,0:0:0:0:
282,314,94968,1,10,1:0:0:0:
112,354,95334,5,10,0:0:0:0:
30,295,95517,1,2,0:0:0:0:
41,195,95699,2,0,P|80:179|130:188,1,83.9999974365235,10|2,1:0|0:0,0:0:0:0:
163,91,96065,2,0,P|196:115|214:163,1,83.9999974365235,10|2,0:0|0:0,0:0:0:0:
304,110,96431,2,0,L|287:282,1,167.999994873047,10|10,1:0|0:0,0:0:0:0:
389,249,96980,1,2,0:0:0:0:
389,249,97072,1,8,0:0:0:0:
389,249,97163,6,0,P|430:248|467:268,1,83.9999974365235,10|2,1:0|0:0,0:0:0:0:
439,365,97529,2,0,P|397:365|360:345,1,83.9999974365235,10|2,0:0|0:0,0:0:0:0:
287,277,97895,6,0,P|245:276|208:296,1,83.9999974365235,10|2,1:0|0:0,0:0:0:0:
130,358,98260,1,10,0:0:0:0:
130,358,98443,1,2,0:0:0:0:
32,333,98626,6,0,P|12:296|12:254,1,83.9999974365235,10|2,1:0|0:0,0:0:0:0:
30,209,98901,1,2,0:0:0:0:
30,209,98992,1,10,0:0:0:0:
109,146,99175,1,2,0:0:0:0:
208,128,99358,2,0,P|271:116|300:117,1,83.9999974365235,10|8,1:0|0:0,0:0:0:0:
290,116,99632,1,8,0:0:0:0:
290,116,99724,1,10,1:0:0:0:
432,172,100090,5,6,0:0:0:0:
362,324,100456,1,10,0:0:0:0:
266,353,100638,1,2,0:0:0:0:
193,282,100821,1,10,1:0:0:0:
296,133,101187,6,0,L|277:34,1,83.9999974365235,10|2,0:0|0:0,0:0:0:0:
376,17,101553,2,0,L|391:99,1,83.9999974365235,10|2,1:0|0:0,0:0:0:0:
404,153,101827,1,2,0:0:0:0:
404,153,101919,1,10,0:0:0:0:
480,219,102102,1,2,0:0:0:0:
440,311,102285,6,0,L|275:342,1,167.999994873047,10|10,1:0|0:0,0:0:0:0:
208,275,102834,1,2,0:0:0:0:
208,275,102925,1,8,0:0:0:0:
208,275,103017,6,0,L|125:290,1,83.9999974365235,10|2,1:0|0:0,0:0:0:0:
43,349,103382,2,0,L|27:266,1,83.9999974365235,10|2,0:0|0:0,0:0:0:0:
126,290,103748,2,0,L|110:207,1,83.9999974365235,10|2,1:0|0:0,0:0:0:0:
29,146,104114,1,10,0:0:0:0:
68,53,104297,1,2,0:0:0:0:
163,85,104480,6,0,P|206:85|241:104,1,83.9999974365235,10|2,1:0|0:0,0:0:0:0:
275,148,104754,1,2,0:0:0:0:
275,148,104846,2,0,P|318:148|353:129,1,83.9999974365235,10|2,0:0|0:0,0:0:0:0:
451,153,105212,1,2,1:0:0:0:
472,54,105395,1,8,0:0:0:0:
373,34,105577,1,10,1:0:0:0:
241,104,105943,5,6,0:0:0:0:
70,190,106309,5,10,0:0:0:0:
37,94,106492,1,2,0:0:0:0:
134,70,106674,1,10,1:0:0:0:
251,217,107041,6,0,L|235:300,1,83.9999974365235,10|2,0:0|0:0,0:0:0:0:
333,275,107407,2,0,L|349:358,1,83.9999974365235,10|2,1:0|0:0,0:0:0:0:
423,289,107773,2,0,P|473:289|516:251,1,83.9999974365235,10|2,0:0|0:0,0:0:0:0:
442,189,108138,2,0,P|479:115|443:41,1,167.999994873047,10|10,1:0|0:0,0:0:0:0:
353,28,108687,1,2,0:0:0:0:
353,28,108779,1,10,0:0:0:0:
353,28,108870,6,0,L|270:44,1,83.9999974365235,10|2,1:0|0:0,0:0:0:0:
210,125,109236,2,0,L|293:141,1,83.9999974365235,10|2,0:0|0:0,0:0:0:0:
233,223,109602,2,0,L|150:239,1,83.9999974365235,10|2,1:0|0:0,0:0:0:0:
92,323,109968,1,10,0:0:0:0:
92,323,110151,1,2,0:0:0:0:
181,368,110334,6,0,L|264:352,1,83.9999974365235,10|2,1:0|0:0,0:0:0:0:
313,334,110608,1,2,0:0:0:0:
313,334,110699,1,10,0:0:0:0:
409,363,110882,1,2,0:0:0:0:
384,265,111065,2,0,L|400:182,1,83.9999974365235,10|10,1:0|0:0,0:0:0:0:
412,135,111340,1,8,0:0:0:0:
412,135,111431,1,10,1:0:0:0:
352,53,111614,1,10,0:0:0:0:
451,8,111797,5,6,0:0:0:0:
254,88,112163,6,0,B|200:73|200:73|159:99,1,90.9999958343508,10|2,0:0|0:0,0:0:0:0:
77,52,112529,2,0,B|62:105|62:105|88:146,1,90.9999958343508,10|2,1:0|0:0,0:0:0:0:
43,228,112895,2,0,B|73:247|73:247|126:233,1,90.9999958343508,10|2,0:0|0:0,0:0:0:0:
219,269,113260,5,10,1:0:0:0:
280,192,113443,1,2,0:0:0:0:
280,192,113535,1,2,0:0:0:0:
280,192,113626,1,10,0:0:0:0:
370,235,113809,1,2,0:0:0:0:
417,146,113992,5,10,1:0:0:0:
246,83,114358,1,10,0:0:0:0:
136,228,114724,1,10,1:0:0:0:
283,363,115090,6,0,L|384:343,1,90.9999958343508,10|2,0:0|0:0,0:0:0:0:
410,252,115456,2,0,L|390:151,1,90.9999958343508,10|2,1:0|0:0,0:0:0:0:
305,112,115821,2,0,L|215:129,1,90.9999958343508,10|2,0:0|0:0,0:0:0:0:
141,61,116187,5,10,1:0:0:0:
67,126,116370,1,2,0:0:0:0:
67,126,116462,1,2,0:0:0:0:
67,126,116553,1,10,0:0:0:0:
94,222,116736,1,2,0:0:0:0:
194,223,116919,1,10,1:0:0:0:
215,128,117102,6,0,L|259:119,2,45.4999979171754,8|8|10,0:0|0:0|1:0,0:0:0:0:
194,223,117468,2,0,L|202:267,2,45.4999979171754,8|8|6,0:0|0:0|0:0,0:0:0:0:
328,336,118017,6,0,P|385:337|416:311,1,90.9999958343508,10|2,0:0|0:0,0:0:0:0:
471,237,118382,2,0,P|432:213|388:218,1,90.9999958343508,10|2,1:0|0:0,0:0:0:0:
367,119,118748,2,0,P|328:142|284:137,1,90.9999958343508,10|2,0:0|0:0,0:0:0:0:
195,185,119114,1,10,1:0:0:0:
102,196,119297,1,2,0:0:0:0:
102,196,119388,1,2,0:0:0:0:
102,196,119480,1,10,0:0:0:0:
37,119,119663,1,2,0:0:0:0:
45,19,119846,5,10,1:0:0:0:
235,82,120212,1,10,0:0:0:0:
427,133,120577,1,10,1:0:0:0:
251,229,120943,6,0,L|271:337,1,90.9999958343508,10|2,0:0|0:0,0:0:0:0:
174,356,121309,2,0,L|157:266,1,90.9999958343508,10|2,1:0|0:0,0:0:0:0:
56,258,121675,2,0,L|76:366,1,90.9999958343508,10|2,0:0|0:0,0:0:0:0:
174,356,122041,5,10,1:0:0:0:
273,323,122224,1,2,0:0:0:0:
273,323,122315,1,2,0:0:0:0:
273,323,122407,1,10,0:0:0:0:
358,354,122590,1,2,0:0:0:0:
413,282,122773,1,10,1:0:0:0:
364,205,122956,1,10,0:0:0:0:
278,233,123138,1,10,0:0:0:0:
212,191,123321,5,2,0:0:0:0:
235,128,123504,5,2,0:0:0:0:
