osu file format v14

[General]
AudioFilename: audio.ogg
AudioLeadIn: 0
PreviewTime: 46944
Countdown: 0
SampleSet: Soft
StackLeniency: 0.4
Mode: 0
LetterboxInBreaks: 0
WidescreenStoryboard: 1

[Editor]
Bookmarks: 573,6426,18133,29841,41548,47402,59109,64963,76670,88377,100085,111792,123499,126426
DistanceSpacing: 0.3
BeatDivisor: 4
GridSize: 32
TimelineZoom: 5.499998

[Metadata]
Title:Fuwari
TitleUnicode:ふわり
Artist:Hanon x Kotoha
ArtistUnicode:Hanon × Kotoha
Creator:DH02
Version:Heilia's Extra Fuwari
Source:
Tags:Heilia juquett cotton__123 Shiraya_Sayuki Cellina ふわり fuwari japanese hanonxkotoha hanon kotoha mimi eshikara 可不 kafu 初音ミク hatsune miku hatsune_miku pop jpop j-pop female vocal vocaloid cover 藍瀬まなみ はるっと Haる
BeatmapID:4283978
BeatmapSetID:2026271

[Difficulty]
HPDrainRate:6
CircleSize:3.5
OverallDifficulty:9
ApproachRate:9.6
SliderMultiplier:2.6
SliderTickRate:1

[Events]
//Background and Video events
0,0,"BG1.jpg",0,0
Video,0,"video.mp4"
//Break Periods
//Storyboard Layer 0 (Background)
//Storyboard Layer 1 (Fail)
//Storyboard Layer 2 (Pass)
//Storyboard Layer 3 (Foreground)
//Storyboard Layer 4 (Overlay)
//Storyboard Sound Samples

[TimingPoints]
578,365.853658536585,4,2,1,60,1,0
943,-133.333333333333,4,2,1,60,0,0
2407,-100,4,2,1,60,0,0
3504,-133.333333333333,4,2,1,60,0,0
4968,-100,4,2,1,60,0,0
5699,-250,4,2,1,60,0,0
6431,-62.5,4,2,1,75,0,0
6797,-76.9230769230769,4,2,1,75,0,0
8260,-100,4,2,1,75,0,0
13748,-76.9230769230769,4,2,1,75,0,0
14114,-100,4,2,1,75,0,0
14297,-66.6666666666667,4,2,1,75,0,0
17041,-100,4,2,1,75,0,0
17590,-50,4,2,1,75,0,0
18138,-100,4,2,1,55,0,0
18504,-250,4,2,1,55,0,0
19236,-200,4,2,1,55,0,0
22163,-100,4,2,1,55,0,0
23992,-200,4,2,1,55,0,0
29846,-200,4,2,1,70,0,0
30577,-133.333333333333,4,2,1,70,0,0
33138,-100,4,2,1,70,0,0
34236,-133.333333333333,4,2,1,70,0,0
36797,-100,4,2,1,80,0,0
43382,-66.6666666666667,4,2,1,80,0,0
43748,-50,4,2,1,80,0,0
44114,-66.6666666666667,4,2,1,80,0,0
45212,-50,4,2,1,80,0,0
45943,-40,4,2,1,80,0,0
47407,-50,4,2,1,90,0,1
50334,-66.6666666666667,4,2,1,90,0,1
50882,-50,4,2,1,90,0,1
51065,-133.333333333333,4,2,1,90,0,1
51248,-50,4,2,1,90,0,1
51614,-66.6666666666667,4,2,1,90,0,1
52163,-50,4,2,1,90,0,1
53077,-133.333333333333,4,2,1,90,0,1
53260,-50,4,2,1,90,0,1
53626,-100,4,2,1,90,0,1
53809,-50,4,2,1,90,0,1
55090,-50,4,2,1,90,0,1
55273,-100,4,2,1,90,0,1
55456,-43.4782608695652,4,2,1,90,0,1
55638,-50,4,2,1,90,0,1
57102,-66.6666666666667,4,2,1,90,0,1
57651,-43.4782608695652,4,2,1,90,0,1
57788,-43.4782608695652,4,2,1,5,0,1
57834,-43.4782608695652,4,2,1,90,0,1
58199,-66.6666666666667,4,2,1,90,0,1
58382,-40,4,2,1,90,0,1
59297,-200,4,2,1,90,0,0
59480,-50,4,2,1,90,0,1
59846,-66.6666666666667,4,2,1,90,0,1
60212,-100,4,2,1,90,0,1
60943,-66.6666666666667,4,2,1,90,0,1
61126,-40,4,2,1,90,0,1
62041,-50,4,2,1,90,0,1
62407,-66.6666666666667,4,2,1,90,0,1
63138,-50,4,2,1,90,0,1
63870,-66.6666666666667,4,2,1,90,0,1
64968,-100,4,2,1,70,0,0
65334,-200,4,2,1,70,0,0
65699,-66.6666666666667,4,2,1,70,0,0
66065,-100,4,2,1,70,0,0
66248,-50,4,2,1,70,0,0
66431,-133.333333333333,4,2,1,70,0,0
66797,-100,4,2,1,70,0,0
66980,-50,4,2,1,70,0,0
67346,-66.6666666666667,4,2,1,70,0,0
67895,-200,4,2,1,70,0,0
68443,-66.6666666666667,4,2,1,70,0,0
69175,-100,4,2,1,70,0,0
70456,-66.6666666666667,4,2,1,70,0,0
70821,-133.333333333333,4,2,1,70,0,0
71370,-66.6666666666667,4,2,1,70,0,0
73199,-133.333333333333,4,2,1,80,0,0
88017,-66.6666666666667,4,2,1,80,0,0
88154,-66.6666666666667,4,2,1,5,0,0
88199,-50,4,2,1,80,0,0
88337,-50,4,2,1,5,0,0
88382,-33.3333333333333,4,2,1,90,0,1
88748,-50,4,2,1,90,0,1
88931,-40,4,2,1,90,0,1
89388,-50,4,2,1,90,0,1
90943,-40,4,2,1,90,0,1
91675,-50,4,2,1,90,0,1
91858,-40,4,2,1,90,0,1
92407,-50,4,2,1,90,0,1
92773,-66.6666666666667,4,2,1,90,0,1
92910,-66.6666666666667,4,2,1,5,0,1
92956,-66.6666666666667,4,2,1,90,0,1
94236,-40,4,2,1,90,0,1
96431,-50,4,2,1,90,0,1
99175,-100,4,2,1,90,0,1
99358,-66.6666666666667,4,2,1,90,0,1
99724,-40,4,2,1,90,0,0
100273,-100,4,2,1,90,0,1
100456,-40,4,2,1,90,0,1
100593,-40,4,2,1,5,0,1
100638,-40,4,2,1,90,0,1
100776,-40,4,2,1,5,0,1
100821,-40,4,2,1,90,0,1
100959,-40,4,2,1,5,0,1
101004,-40,4,2,1,90,0,1
101142,-40,4,2,1,5,0,1
101187,-40,4,2,1,90,0,1
101690,-40,4,2,1,5,0,1
101735,-40,4,2,1,90,0,1
101919,-80,4,2,1,90,0,1
102102,-40,4,2,1,90,0,1
102651,-100,4,2,1,90,0,1
102879,-40,4,2,1,5,0,1
102925,-100,4,2,1,90,0,1
102971,-66.6666666666667,4,2,1,5,0,1
103016,-40,4,2,1,90,0,1
103245,-40,4,2,1,5,0,1
103290,-40,4,2,1,90,0,1
103382,-50,4,2,1,90,0,1
103565,-40,4,2,1,90,0,1
104068,-40,4,2,1,5,0,1
104113,-40,4,2,1,90,0,1
104615,-40,4,2,1,5,0,1
104660,-40,4,2,1,90,0,1
104709,-40,4,2,1,5,0,1
104754,-40,4,2,1,90,0,1
104800,-40,4,2,1,5,0,1
104846,-80,4,2,1,90,0,1
105029,-40,4,2,1,90,0,1
105166,-40,4,2,1,5,0,1
105211,-40,4,2,1,90,0,1
105532,-40,4,2,1,5,0,1
105577,-40,4,2,1,90,0,1
105715,-40,4,2,1,5,0,1
105760,-40,4,2,1,90,0,1
106995,-40,4,2,1,5,0,1
107041,-66.6666666666667,4,2,1,90,0,1
107224,-40,4,2,1,90,0,1
107544,-40,4,2,1,5,0,1
107589,-40,4,2,1,90,0,1
107727,-40,4,2,1,5,0,1
107772,-40,4,2,1,90,0,1
107910,-40,4,2,1,5,0,1
107955,-40,4,2,1,90,0,1
109007,-40,4,2,1,5,0,1
109052,-40,4,2,1,90,0,1
109190,-40,4,2,1,5,0,1
109235,-40,4,2,1,90,0,1
109373,-40,4,2,1,5,0,1
109418,-40,4,2,1,90,0,1
110105,-40,4,2,1,5,0,1
110150,-40,4,2,1,90,0,1
110288,-40,4,2,1,5,0,1
110333,-40,4,2,1,90,0,1
110699,-66.6666666666667,4,2,1,90,0,1
110882,-40,4,2,1,90,0,1
111020,-40,4,2,1,5,0,1
111065,-40,4,2,1,90,0,1
111797,-40,4,2,1,90,0,0
112163,-45.4545454545455,4,2,1,90,0,1
112529,-66.6666666666667,4,2,1,90,0,1
112895,-100,4,2,1,90,0,1
113809,-50,4,2,1,90,0,1
114724,-250,4,2,1,90,0,1
115090,-45.4545454545455,4,2,1,90,0,1
115456,-66.6666666666667,4,2,1,90,0,1
115821,-100,4,2,1,90,0,1
117651,-45.4545454545455,4,2,1,90,0,1
118382,-66.6666666666667,4,2,1,90,0,1
118748,-100,4,2,1,90,0,1
120943,-45.4545454545455,4,2,1,90,0,1
121309,-66.6666666666667,4,2,1,90,0,1
121675,-100,4,2,1,90,0,1
122773,-100,4,2,1,90,0,0
122956,-500,4,2,1,80,0,0
123138,-200,4,2,1,70,0,0
123321,-66.6666666666667,4,2,1,70,0,0
123504,-66.6666666666667,4,2,1,50,0,0
126431,-66.6666666666667,4,2,1,5,0,0

[Colours]
Combo1 : 255,217,217
Combo2 : 255,157,157

[HitObjects]
41,353,578,5,2,3:0:0:0:
112,317,760,1,0,3:0:0:0:
158,130,943,2,0,B|196:215|199:165|237:251,1,146.250005578995,2|0,0:1|0:0,0:0:0:0:
316,250,1309,6,0,P|317:231|310:192,1,48.750001859665,2|0,0:0|0:0,0:0:0:0:
345,331,1492,6,0,P|380:313|405:310,1,48.750001859665,2|0,3:0|3:0,3:0:0:0:
206,326,1675,5,2,3:1:0:0:
274,379,1858,1,2,3:0:0:0:
452,273,2041,5,2,0:0:0:0:
439,264,2224,5,0,3:0:0:0:
460,215,2316,1,0,3:0:0:0:
391,262,2407,2,0,L|306:268,1,65,2|0,3:0|0:0,0:0:0:0:
459,287,2590,2,0,L|544:354,1,97.5,2|0,0:0|0:0,0:0:0:0:
492,132,2773,5,2,0:1:0:0:
488,94,2956,1,0,0:0:0:0:
232,202,3138,5,2,0:1:0:0:
214,100,3321,1,0,0:0:0:0:
12,199,3504,6,0,P|56:172|77:105,1,97.50000371933,2|0,0:1|3:0,0:0:0:0:
68,94,3779,1,0,3:0:0:0:
130,47,3870,6,0,P|142:23|137:-3,1,48.750001859665,2|0,3:0|0:0,0:0:0:0:
150,58,4053,2,0,P|187:52|200:27,1,48.750001859665,2|0,0:0|0:0,0:0:0:0:
181,137,4236,5,2,0:0:0:0:
189,233,4419,5,2,0:0:0:0:
263,278,4602,1,2,0:0:0:0:
409,254,4785,1,2,0:0:0:0:
486,130,4968,6,0,P|447:149|357:177,1,130,2|2,0:0|0:0,0:0:0:0:
314,110,5242,1,2,0:0:0:0:
431,252,5334,2,0,P|450:282|490:311,1,65,2|0,0:0|0:0,0:0:0:0:
397,346,5517,1,2,3:0:0:0:
244,374,5699,6,0,L|263:262,1,104,2|2,0:3|1:2,0:0:0:0:
262,267,6431,6,0,L|243:155,1,104,14|0,3:0|0:0,0:0:0:0:
231,161,6614,1,2,3:3:0:0:
512,101,6797,5,6,3:1:0:0:
512,101,6980,1,2,3:3:0:0:
303,141,7163,5,2,3:2:0:0:
40,196,7346,1,2,3:3:0:0:
121,179,7529,5,6,1:1:0:0:
388,125,7712,1,2,3:3:0:0:
294,141,7895,5,2,3:2:0:0:
297,293,8077,1,6,0:3:0:0:
244,365,8169,1,6,0:3:0:0:
372,268,8260,2,0,P|413:303|455:314,1,65,6|0,1:1|0:0,0:0:0:0:
300,304,8443,2,0,P|295:349|269:402,1,65,2|0,0:0|0:0,0:0:0:0:
107,55,8626,5,2,3:1:0:0:
107,55,8809,1,2,3:0:0:0:
460,222,8992,5,2,1:1:0:0:
460,222,9175,1,2,3:0:0:0:
438,354,9358,5,6,3:1:0:0:
289,279,9542,1,2,3:0:0:0:
55,161,9725,5,6,1:1:0:0:
362,316,9908,1,2,3:0:0:0:
213,243,10091,5,2,3:2:0:0:
213,243,10274,1,2,3:0:0:0:
137,202,10456,5,6,1:1:0:0:
188,384,10639,1,2,3:0:0:0:
503,242,10821,5,2,3:2:0:0:
288,52,11004,1,6,3:0:0:0:
337,124,11096,1,6,3:0:0:0:
282,46,11187,2,0,L|371:19,1,65,6|0,1:1|0:0,0:0:0:0:
289,222,11370,2,0,L|378:195,1,65,2|0,0:0|0:0,0:0:0:0:
14,236,11553,6,0,L|103:209,1,65,2|0,3:2|0:0,0:0:0:0:
81,185,11736,1,2,3:1:0:0:
143,136,11827,1,2,3:0:0:0:
190,202,11919,1,2,3:0:0:0:
224,360,12102,5,6,3:1:0:0:
283,245,12194,5,6,3:0:0:0:
411,289,12285,5,6,3:2:0:0:
411,289,12468,1,2,3:0:0:0:
424,200,12651,5,6,1:1:0:0:
450,12,12834,1,2,3:0:0:0:
438,96,13017,5,2,3:0:0:0:
393,384,13199,1,2,3:0:0:0:
393,384,13382,1,6,1:1:0:0:
255,195,13565,5,2,0:0:0:0:
300,90,13748,2,0,B|268:58|296:48|244:-1,1,84.4999961318971,2|0,3:2|0:0,0:0:0:0:
92,176,13931,1,6,3:0:0:0:
187,236,14023,1,6,3:0:0:0:
178,248,14114,2,0,L|233:330,1,65,6|0,1:1|0:0,0:0:0:0:
343,289,14297,2,0,L|365:385,1,97.50000371933,2|0,0:0|0:0,0:0:0:0:
442,366,14480,5,2,3:1:0:0:
442,366,14663,1,2,3:0:0:0:
231,182,14846,5,6,1:1:0:0:
231,182,15029,1,2,3:0:0:0:
116,68,15212,5,2,3:1:0:0:
116,68,15395,1,2,3:0:0:0:
28,372,15577,5,6,1:1:0:0:
109,346,15760,1,2,3:0:0:0:
206,317,15943,5,2,3:2:0:0:
287,291,16126,1,2,3:0:0:0:
389,260,16309,5,6,1:1:0:0:
470,234,16492,1,2,3:0:0:0:
511,67,16675,5,6,3:3:0:0:
337,361,16858,1,6,3:0:0:0:
430,318,16949,1,6,3:0:0:0:
321,369,17041,2,0,L|280:294,1,65,6|0,1:1|0:0,0:0:0:0:
348,174,17224,2,0,P|405:104|380:34,1,130,2|2,0:0|3:2,0:0:0:0:
402,70,17590,6,0,B|386:77|386:77|408:32|408:32|108:-19,2,260,8|8|8,0:0|0:0|0:3,0:0:0:0:
18,258,18138,6,0,L|53:392,1,130,2|0,0:0|0:0,0:0:0:0:
318,275,18504,2,0,P|340:245|351:216,1,52,2|2,3:0|0:0,0:0:0:0:
364,348,18870,5,2,3:3:0:0:
282,381,19053,1,0,3:3:0:0:
250,65,19236,2,0,L|252:0,1,65,2|2,3:2|0:2,0:0:0:0:
72,6,19602,5,2,3:3:0:0:
331,91,19785,1,0,3:3:0:0:
368,20,19968,2,0,P|423:9|446:7,1,65,2|2,3:0|0:0,0:0:0:0:
288,15,20334,1,0,3:3:0:0:
414,92,20517,1,0,3:3:0:0:
374,162,20699,2,0,P|394:219|411:246,1,65,2|2,3:0|0:0,0:0:0:0:
426,278,20974,5,2,0:0:0:0:
465,299,21065,6,0,B|452:332|447:315|431:356,2,65,2|0|2,0:3|0:0|0:0,0:0:0:0:
353,370,21614,1,0,0:0:0:0:
61,353,21797,2,0,P|111:335|131:325,1,65,2|2,0:0|0:0,0:0:0:0:
15,271,22163,2,0,P|109:281|176:362,1,195,2|2,3:3|0:0,0:0:0:0:
249,325,22529,5,2,0:3:0:0:
261,351,22712,5,2,0:0:0:0:
401,326,22895,5,2,3:3:0:0:
453,262,23078,1,2,3:3:0:0:
251,113,23260,5,2,0:0:0:0:
118,149,23443,1,2,0:0:0:0:
35,171,23626,1,2,3:0:0:0:
7,244,23809,5,2,0:3:0:0:
28,256,23901,1,2,0:3:0:0:
29,269,23992,6,0,P|16:309|1:328,1,65,2|0,0:0|0:0,0:0:0:0:
185,360,24358,2,0,P|245:333|289:304,1,97.5,2|0,0:2|0:0,0:0:0:0:
324,378,24724,5,2,0:0:0:0:
351,257,24907,1,2,0:0:0:0:
400,6,25090,2,0,L|372:140,1,130,2|2,0:2|0:0,0:0:0:0:
39,46,25821,5,2,0:0:0:0:
201,99,26004,1,2,0:0:0:0:
116,174,26187,1,2,0:0:0:0:
116,174,26370,1,2,0:0:0:0:
186,234,26553,1,2,0:0:0:0:
153,368,26736,2,0,L|166:321,1,32.5,2|0,0:0|0:0,0:0:0:0:
120,337,26919,5,2,0:0:0:0:
199,319,27102,1,2,0:0:0:0:
315,302,27285,5,2,0:3:0:0:
329,352,27651,5,2,0:0:0:0:
114,317,27834,1,2,0:0:0:0:
10,115,28017,2,0,B|15:76|24:87|29:53,2,65,2|2|2,0:3|0:0|0:0,0:0:0:0:
96,12,28565,1,2,0:0:0:0:
23,195,28748,6,0,P|122:218|140:232,1,97.5,2|0,0:3|0:0,0:0:0:0:
131,258,29114,1,2,0:0:0:0:
477,325,29297,5,0,3:0:0:0:
416,375,29480,1,0,3:0:0:0:
400,298,29663,1,0,3:0:0:0:
451,90,29846,6,0,P|447:117|456:147,1,32.5,6|0,0:3|0:0,0:0:0:0:
405,26,30029,2,0,P|386:23|366:15,1,32.5,2|0,0:3|0:0,0:0:0:0:
315,119,30212,2,0,P|382:95|417:61,1,97.5,10|0,0:0|0:0,0:0:0:0:
500,27,30577,5,10,0:3:0:0:
383,322,30760,2,0,L|365:268,1,48.750001859665,8|0,0:3|0:0,0:0:0:0:
494,139,30943,2,0,B|456:131|415:168|423:209|423:209|445:227|436:254,1,146.250005578995,10|0,0:0|0:0,0:0:0:0:
469,306,31309,5,10,0:3:0:0:
52,363,31492,1,6,0:3:0:0:
180,156,31675,5,8,0:0:0:0:
67,368,31858,1,10,0:3:0:0:
8,214,32041,5,6,0:3:0:0:
81,375,32224,1,10,0:3:0:0:
171,316,32407,5,10,0:0:0:0:
96,383,32590,1,2,0:3:0:0:
269,355,32773,6,0,P|317:332|331:263,1,97.50000371933,6|2,0:3|0:0,0:0:0:0:
202,231,33138,2,0,L|261:32,1,195,10|0,0:0|0:0,0:0:0:0:
297,32,33504,1,10,0:3:0:0:
103,83,33687,1,10,0:3:0:0:
32,47,33870,2,0,P|-19:140|9:236,1,195,10|0,0:0|0:0,0:0:0:0:
18,219,34236,6,0,P|46:234|47:276,1,48.750001859665,10|0,0:3|0:0,0:0:0:0:
52,289,34419,1,10,0:3:0:0:
221,210,34602,2,0,L|345:167,2,97.50000371933,10|10|2,0:0|0:3|0:0,0:0:0:0:
356,108,35151,1,4,0:3:0:0:
512,384,35334,2,0,B|401:354|401:354|366:301,1,146.250005578995,8|0,0:0|0:0,0:0:0:0:
454,288,35699,6,0,P|485:248|484:188,1,97.50000371933,6|0,0:3|0:0,0:0:0:0:
304,384,36065,2,0,L|263:229,1,146.250005578995,10|0,0:0|0:0,0:0:0:0:
324,186,36431,1,14,0:3:0:0:
396,233,36614,5,4,0:3:0:0:
59,107,36797,2,0,B|128:144|115:114|180:150,1,130,10|2,0:0|0:0,0:0:0:0:
217,81,37163,1,8,0:3:0:0:
217,81,37346,1,8,0:3:0:0:
57,373,37529,6,0,P|109:299|189:271,2,130,10|10|2,0:0|0:3|0:0,0:0:0:0:
230,293,38077,1,6,0:3:0:0:
292,345,38260,2,0,L|427:319,1,130,10|2,0:0|0:0,0:0:0:0:
512,303,38626,5,4,1:0:0:0:
512,303,38992,5,2,0:0:0:0:
346,198,39175,5,10,3:0:0:0:
329,145,39267,1,8,3:0:0:0:
306,70,39358,5,6,0:0:0:0:
306,70,39724,5,2,0:0:0:0:
156,186,39907,6,0,L|56:217,1,65,6|0,1:2|0:0,0:0:0:0:
156,186,40273,2,0,L|56:217,1,65,6|0,1:2|0:0,0:0:0:0:
306,70,40456,5,0,0:0:0:0:
156,186,40639,6,0,L|56:217,1,65,6|0,1:2|0:0,0:0:0:0:
238,269,40821,2,0,L|229:373,1,65,6|0,1:2|0:0,0:0:0:0:
256,192,40936,12,6,41553,1:0:0:0:
99,252,41736,5,14,0:3:0:0:
0,33,41919,2,0,P|84:79|146:94,1,130,10|2,0:0|0:0,0:0:0:0:
160,67,42193,1,2,0:3:0:0:
196,103,42285,1,2,1:3:0:0:
197,203,42468,5,8,0:0:0:0:
322,321,42651,5,8,0:0:0:0:
503,232,42834,5,2,0:0:0:0:
418,35,43017,6,0,P|441:122|356:227,1,195,2|0,1:0|0:0,0:0:0:0:
249,165,43382,6,0,P|225:93|437:65,1,292.50001115799,14|0,0:0|0:0,0:0:0:0:
469,127,43748,6,0,P|252:228|192:140,1,390,6|0,1:0|0:0,0:0:0:0:
269,119,44114,2,0,P|283:66|302:25,1,97.50000371933,14|0,0:3|0:0,0:0:0:0:
139,221,44297,2,0,P|86:206|41:202,1,97.50000371933,14|0,0:3|0:0,0:0:0:0:
57,384,44480,6,0,B|16:294|41:278|-11:148,2,195.00000743866,6|0|8,1:0|0:0|0:0,0:0:0:0:
209,274,45029,1,2,0:3:0:0:
210,286,45120,1,2,0:3:0:0:
159,319,45212,6,0,B|182:196|218:191|232:55,2,260,6|8|8,1:0|0:0|0:0,0:0:0:0:
403,269,45760,1,2,0:3:0:0:
388,279,45852,1,2,0:3:0:0:
304,298,45943,6,0,B|391:162|430:187|511:47,2,325,14|0|10,1:2|0:0|1:2,0:0:0:0:
62,106,46492,1,8,0:3:0:0:
60,100,46553,5,8,0:3:0:0:
63,87,46614,5,8,0:3:0:0:
77,76,46675,5,14,1:2:0:0:
256,192,46698,12,0,47315,0:0:0:0:
512,268,47407,6,0,B|499:292|499:292|385:298|260:403,1,260,6|0,1:2|0:0,0:0:0:0:
347,260,47681,1,2,0:0:0:0:
403,323,47773,2,0,B|411:350|411:350|434:307|406:277|363:287,1,130,2|0,1:2|0:0,0:0:0:0:
315,60,47956,1,2,0:3:0:0:
315,60,48047,1,2,0:3:0:0:
391,133,48138,6,0,P|360:185|262:171,1,130,4|0,3:1|0:0,0:0:0:0:
248,229,48321,1,4,0:1:0:0:
303,105,48504,2,0,B|268:107|268:107|215:-19|48:2,1,260,6|2,1:2|0:0,0:0:0:0:
121,51,48779,1,2,0:0:0:0:
168,119,48870,2,0,P|189:161|143:132,1,130,8|0,3:0|0:0,0:0:0:0:
306,124,49053,2,0,B|326:119|336:156|336:156|518:-17,2,260,4|6|2,0:1|1:3|0:0,0:0:0:0:
438,142,49602,5,14,3:0:0:0:
0,282,49785,5,10,0:3:0:0:
438,142,49968,5,6,1:1:0:0:
0,282,50151,5,8,1:3:0:0:
0,282,50242,1,8,1:3:0:0:
2,384,50334,6,0,L|57:168,2,195.00000743866,6|2|2,3:1|0:3|1:2,0:0:0:0:
15,111,50882,2,2,B|6:48|6:48|93:33,1,130,2|2,0:3|0:3,0:3:0:0:
87,172,51065,6,0,L|101:118,1,48.750001859665,8|0,3:0|0:0,0:0:0:0:
225,384,51248,2,0,B|270:365|268:333|268:333|168:172,1,260,4|2,0:1|1:2,0:0:0:0:
434,240,51614,2,0,B|414:252|421:273|421:273|334:302,1,97.50000371933,10|0,0:3|0:0,0:0:0:0:
414,143,51797,5,10,3:3:0:0:
408,127,51888,1,2,0:0:0:0:
305,225,51980,1,8,0:3:0:0:
267,182,52071,1,8,0:3:0:0:
193,214,52163,2,0,B|182:265|182:265|251:365,1,130,2|0,1:2|0:0,0:0:0:0:
465,221,52346,6,0,B|479:143|499:164|514:42,1,130,2|0,0:1|0:0,0:0:0:0:
494,60,52529,5,8,3:0:0:0:
35,207,52712,5,12,0:0:0:0:
35,207,52895,1,12,0:0:0:0:
22,296,53077,6,0,P|38:322|60:335,1,48.750001859665,2|2,0:3|0:3,0:0:0:0:
53,189,53260,2,0,B|60:191|60:191|98:124|20:50|20:50|130:126,1,260,6|0,1:2|0:0,0:0:0:0:
97,103,53626,6,0,L|160:148,1,65,6|0,1:3|0:0,0:0:0:0:
290,87,53809,2,0,L|429:27,1,130,6|0,0:3|0:0,0:0:0:0:
385,28,53992,2,0,B|323:1|323:1|563:61,2,260,6|0|2,3:1|0:1|1:2,0:0:0:0:
425,359,54541,6,0,L|476:197,1,130,2|0,0:0|0:0,0:0:0:0:
482,267,54724,5,6,3:1:0:0:
332,81,54907,5,6,0:3:0:0:
256,0,54998,5,6,0:3:0:0:
180,81,55090,5,6,1:3:0:0:
75,333,55273,6,0,P|107:341|128:397,1,65,2|0,0:1|0:0,0:0:0:0:
36,304,55456,2,0,P|125:277|185:257,1,149.500002851486,12|0,3:2|0:0,0:0:0:0:
130,241,55638,2,0,B|102:193|102:193|198:-9,2,260,4|2|2,0:1|1:3|0:3,0:0:0:0:
209,276,56096,1,14,0:3:0:0:
351,347,56187,1,14,3:3:0:0:
346,307,56370,5,2,0:3:0:0:
396,370,56462,1,2,0:3:0:0:
314,380,56553,1,2,1:3:0:0:
500,242,56736,6,0,B|478:328|478:328|415:376,1,130,2|0,0:0|0:0,0:0:0:0:
262,378,56919,2,0,B|218:359|218:359|175:282,1,130,6|0,3:1|0:0,0:0:0:0:
116,109,57102,5,2,0:3:0:0:
59,129,57193,1,2,0:3:0:0:
0,75,57285,1,2,1:3:0:0:
0,384,57468,5,2,0:0:0:0:
216,175,57651,6,0,B|234:171|234:171|215:281|215:281|304:314,1,224.250004277229,4|0,3:1|0:0,0:0:0:0:
293,327,57834,2,2,B|381:348|349:306|445:333,2,149.500002851486,2|2|2,3:0|3:0|1:3,3:0:0:0:
428,280,58199,2,0,B|419:257|446:220|446:220|400:231,1,97.50000371933,2|0,0:0|0:0,0:0:0:0:
131,379,58382,6,0,B|109:392|74:383|78:319|145:333|102:243|102:243|275:143,1,325,4|0,3:3|1:0,0:0:0:0:
225,121,58657,2,0,L|193:30,1,81.25,0|0,1:0|0:0,0:0:0:0:
227,52,58748,6,0,B|263:71|263:71|306:144|289:246|289:246|453:313,2,325,0|0|4,1:0|1:0|1:0,0:0:0:0:
389,156,59297,6,0,L|439:142,1,48.75,2|0,0:0|0:0,0:0:0:0:
443,244,59480,6,0,P|398:318|348:349,1,130,6|0,1:1|0:0,0:0:0:0:
259,379,59663,2,0,P|174:362|127:326,1,130,2|0,0:0|0:0,0:0:0:0:
204,12,59846,6,0,P|156:28|118:60,1,97.50000371933,8|0,3:3|0:0,0:0:0:0:
84,245,60029,2,0,P|70:196|75:146,1,97.50000371933,2|0,0:0|0:0,0:0:0:0:
441,160,60212,6,0,P|439:126|426:95,1,65,6|0,1:1|0:0,0:0:0:0:
301,9,60395,2,0,P|334:14|363:30,1,65,2|0,0:0|0:0,0:0:0:0:
477,137,60578,5,8,3:3:0:0:
394,151,60760,5,14,3:3:0:0:
351,219,60852,1,14,3:3:0:0:
392,306,60943,2,0,P|325:343|273:339,1,97.50000371933,6|0,1:1|0:0,0:0:0:0:
206,383,61126,6,0,P|123:329|123:205,1,162.5,4|0,0:1|0:0,0:0:0:0:
289,76,61309,5,6,3:1:0:0:
289,76,61675,5,2,1:1:0:0:
289,76,62041,6,0,B|158:39|190:78|66:45|66:45|3:-8,1,260,6|2,3:1|0:0,0:0:0:0:
266,48,62315,1,2,0:0:0:0:
379,101,62407,6,0,L|492:181,1,97.50000371933,6|0,1:1|0:0,0:0:0:0:
289,164,62590,2,0,L|319:296,1,97.50000371933,2|0,0:0|0:0,0:0:0:0:
35,340,62773,6,0,B|2:305|2:305|-5:213,1,97.50000371933,8|0,3:0|0:0,0:0:0:0:
115,373,62956,2,0,B|172:376|172:376|237:328,1,97.50000371933,2|0,0:0|0:0,0:0:0:0:
431,224,63138,6,0,L|256:170,1,130,6|0,1:1|0:0,0:0:0:0:
124,132,63321,2,0,L|-51:78,1,130,2|0,0:0|0:0,0:0:0:0:
0,0,63504,5,4,3:1:0:0:
24,76,63687,1,14,0:3:0:0:
60,201,63779,1,14,0:3:0:0:
17,57,63870,2,0,P|45:50|97:1,1,97.50000371933,6|0,1:1|0:0,0:0:0:0:
155,212,64053,6,0,B|172:234|170:261|170:261|305:390,1,195.00000743866,2|8,0:0|3:0,0:0:0:0:
273,359,64419,5,2,1:3:0:0:
273,359,64510,5,2,1:3:0:0:
273,359,64602,5,10,3:3:0:0:
273,359,64785,5,4,0:3:0:0:
82,321,64968,6,0,B|56:341|56:341|66:314|66:314|20:171,1,195,14|0,0:3|0:0,0:0:0:0:
187,319,65334,2,0,L|229:336,1,32.5,2|0,0:0|0:0,0:0:0:0:
138,384,65517,5,8,3:0:0:0:
376,226,65699,2,0,B|363:220|363:220|423:192|423:192|512:-1,1,292.50001115799,2|0,1:2|0:0,0:0:0:0:
452,75,66065,6,0,B|451:90|440:99|440:99|498:171,1,65,8|0,3:0|0:0,0:0:0:0:
278,202,66248,2,0,L|152:169,1,130,14|0,0:3|0:0,0:0:0:0:
29,92,66431,2,0,L|0:0,1,97.50000371933,2|0,0:0|0:0,0:0:0:0:
452,75,66797,6,0,B|451:90|440:99|440:99|498:171,1,65,8|0,3:0|0:0,0:0:0:0:
278,202,66980,2,0,L|152:169,1,130,14|0,0:3|0:0,0:0:0:0:
29,92,67163,1,2,1:2:0:0:
165,31,67346,2,0,B|87:62|112:76|55:115|55:115|-22:108,2,195.00000743866,6|2|2,0:3|0:0|0:0,0:0:0:0:
240,61,67895,6,0,L|315:76,1,65,14|2,3:0|0:0,0:0:0:0:
367,37,68260,1,2,0:3:0:0:
192,368,68443,2,0,L|156:269,1,97.50000371933,8|0,3:3|0:0,0:0:0:0:
287,329,68626,2,0,B|316:362|358:357|358:357|347:370|347:370|519:325,2,195.00000743866,2|2|8,1:2|0:0|3:3,0:0:0:0:
94,348,69175,2,0,L|21:367,1,65,6|0,0:3|0:0,0:0:0:0:
0,384,69358,5,2,0:0:0:0:
23,306,69541,1,2,0:0:0:0:
375,273,69724,1,10,3:3:0:0:
502,63,69907,1,2,0:3:0:0:
453,0,70090,2,0,B|462:66|487:45|502:127,1,130,4|0,1:1|0:0,0:0:0:0:
305,200,70456,6,0,P|363:190|482:77,1,195.00000743866,12|2,3:0|0:3,0:0:0:0:
385,124,70730,1,2,0:3:0:0:
346,95,70821,6,0,P|335:66|389:57,1,97.50000371933,14|0,3:3|0:0,0:0:0:0:
503,181,71187,2,0,L|489:254,1,48.750001859665,2|0,0:0|0:0,0:0:0:0:
420,252,71370,6,0,L|262:294,1,97.50000371933,12|0,3:3|0:0,0:0:0:0:
33,272,71553,6,0,B|-6:225|-6:225|2:227|2:227|50:87,2,195.00000743866,6|2|8,1:2|0:3|3:3,0:0:0:0:
168,0,72102,2,0,L|198:116,1,97.50000371933,2|0,0:0|0:0,0:0:0:0:
80,355,72285,5,2,0:3:0:0:
166,371,72468,1,2,0:3:0:0:
325,321,72651,2,0,B|480:282|480:282|510:293|536:323,2,195.00000743866,14|2|2,3:3|0:0|1:2,0:0:0:0:
396,384,73199,6,0,L|412:305,1,48.750001859665,2|0,0:0|0:0,0:0:0:0:
437,288,73382,1,8,3:0:0:0:
262,55,73565,1,2,0:0:0:0:
124,17,73748,1,8,3:0:0:0:
124,17,74114,5,2,0:0:0:0:
0,203,74297,6,0,L|34:141,1,48.750001859665,8|0,3:0|0:0,0:0:0:0:
22,118,74480,5,2,1:2:0:0:
101,92,74663,5,2,0:0:0:0:
179,132,74846,5,2,0:0:0:0:
185,223,75029,5,10,3:3:0:0:
246,326,75212,5,2,0:0:0:0:
388,336,75395,5,10,3:3:0:0:
501,230,75577,5,2,0:0:0:0:
493,67,75760,5,10,3:0:0:0:
318,1,75943,5,6,3:0:0:0:
157,110,76126,5,2,0:3:0:0:
180,119,76218,5,2,0:3:0:0:
177,90,76309,5,2,0:3:0:0:
171,106,76492,5,2,0:0:0:0:
105,169,76675,5,12,3:0:0:0:
18,137,76858,5,2,0:3:0:0:
20,48,76949,5,2,0:3:0:0:
110,19,77040,5,2,1:3:0:0:
171,99,77223,5,2,0:0:0:0:
111,184,77407,5,8,3:0:0:0:
135,291,77590,5,2,0:0:0:0:
250,370,77773,5,2,1:2:0:0:
402,334,77956,5,2,0:0:0:0:
452,200,78138,5,12,3:0:0:0:
427,172,78321,5,2,0:3:0:0:
488,189,78412,5,2,0:3:0:0:
447,226,78503,5,2,1:3:0:0:
452,200,78686,5,2,0:0:0:0:
363,214,78870,5,8,3:0:0:0:
271,259,79053,5,2,0:0:0:0:
197,344,79236,5,2,1:2:0:0:
59,333,79419,5,2,0:0:0:0:
0,204,79602,5,12,3:0:0:0:
14,122,79785,5,2,0:3:0:0:
99,110,79876,5,2,0:3:0:0:
135,190,79967,5,2,1:3:0:0:
71,245,80150,5,2,0:0:0:0:
81,341,80334,5,8,3:0:0:0:
184,378,80517,5,2,0:0:0:0:
295,302,80700,5,2,1:2:0:0:
289,126,80883,5,2,0:0:0:0:
177,46,81065,5,12,3:0:0:0:
95,61,81248,5,2,0:3:0:0:
86,142,81339,5,2,0:3:0:0:
161,176,81430,5,2,1:3:0:0:
219,116,81523,5,2,0:3:0:0:
180,36,81614,5,2,0:3:0:0:
88,52,81706,5,2,0:3:0:0:
70,146,81797,5,10,3:3:0:0:
162,191,81980,5,10,0:3:0:0:
193,320,82163,5,2,1:2:0:0:
193,320,82529,5,12,3:0:0:0:
264,374,82712,5,2,0:3:0:0:
347,377,82803,5,2,0:3:0:0:
377,303,82894,5,2,1:3:0:0:
310,249,83077,5,2,0:0:0:0:
243,295,83261,5,8,3:0:0:0:
151,296,83444,5,10,0:3:0:0:
55,210,83627,5,2,1:2:0:0:
32,89,83810,5,2,0:0:0:0:
122,0,83992,5,12,3:0:0:0:
200,7,84175,5,2,0:3:0:0:
215,79,84236,5,2,0:3:0:0:
148,120,84297,5,2,0:3:0:0:
85,70,84358,5,2,1:3:0:0:
4,125,84541,5,8,3:0:0:0:
1,251,84724,5,10,3:3:0:0:
1,251,85090,5,6,1:2:0:0:
58,312,85273,5,2,0:0:0:0:
174,321,85456,5,8,3:0:0:0:
200,346,85638,5,2,0:3:0:0:
141,334,85730,5,2,0:3:0:0:
177,291,85821,5,2,1:3:0:0:
182,199,86004,5,2,0:0:0:0:
245,97,86187,5,8,3:0:0:0:
393,70,86370,5,2,0:0:0:0:
505,176,86553,5,2,1:2:0:0:
508,304,86736,5,2,0:0:0:0:
390,384,86919,5,12,3:0:0:0:
266,340,87102,5,2,0:3:0:0:
226,273,87193,5,2,0:3:0:0:
277,214,87285,5,2,1:3:0:0:
350,240,87376,5,2,0:3:0:0:
341,320,87468,5,2,0:3:0:0:
263,348,87559,5,2,0:3:0:0:
210,269,87651,5,10,3:3:0:0:
140,189,87834,5,4,0:3:0:0:
40,166,88017,6,0,B|36:145|36:145|86:97|86:97|167:121,1,146.250005578995,2|0,1:1|0:0,0:0:0:0:
161,149,88199,2,0,B|171:248|171:248|283:149,1,195,2|0,0:0|0:0,0:0:0:0:
242,184,88382,6,0,B|275:204|275:204|331:176|344:62|249:19|187:-3|135:72|118:130|216:141|229:80,1,390.00001487732,6|2,1:2|0:3,0:0:0:0:
277,159,88657,1,2,0:3:0:0:
197,272,88748,2,2,B|224:304|224:304|328:243,1,130,2|2,1:2|2:0,2:0:0:0:
512,384,88931,6,0,B|508:361|515:349|515:349|458:321|458:321|346:101,2,325,6|2|2,0:1|3:1|0:2,0:0:0:0:
363,203,89388,1,2,0:2:0:0:
460,230,89480,2,0,L|336:341,1,130,2|0,1:1|0:0,0:0:0:0:
41,365,89663,2,0,B|12:371|12:371|-8:285|-8:285|23:227,1,130,2|0,0:0|0:0,0:0:0:0:
113,330,89846,5,12,3:0:0:0:
134,327,90029,5,8,3:3:0:0:
206,370,90120,1,8,3:3:0:0:
253,300,90212,1,8,1:3:0:0:
218,278,90395,6,0,B|233:261|233:261|208:192|110:223,1,130,2|0,0:0|0:0,0:0:0:0:
304,152,90577,2,0,B|301:127|291:112|291:112|301:42|391:-21|482:4,1,260,6|0,3:1|0:0,0:0:0:0:
404,137,90852,1,0,0:0:0:0:
344,228,90943,2,0,B|372:258|341:325|295:338|295:338|312:355|393:346|424:243|355:187,1,325,2|2,1:1|3:0,0:0:0:0:
286,135,91218,1,2,3:0:0:0:
465,216,91309,5,6,3:1:0:0:
465,216,91492,1,14,0:3:0:0:
168,338,91675,6,0,L|-8:383,1,130,2|0,1:1|0:0,0:0:0:0:
232,267,91858,2,0,B|188:299|188:299|254:72|254:72|333:14,2,325,4|6|2,0:1|3:3|0:0,0:0:0:0:
299,361,92315,1,0,0:0:0:0:
249,237,92407,2,0,L|212:95,1,130,2|0,1:2|0:0,0:0:0:0:
397,9,92590,5,2,0:3:0:0:
397,9,92681,1,2,0:3:0:0:
478,81,92773,6,0,L|428:219,1,146.250005578995,4|0,3:1|0:0,0:0:0:0:
436,223,92956,1,14,0:3:0:0:
343,192,93047,1,14,0:3:0:0:
455,227,93138,2,0,L|381:104,1,97.50000371933,2|0,1:2|0:0,0:0:0:0:
224,379,93321,6,0,L|150:256,1,97.50000371933,2|0,0:1|0:0,0:0:0:0:
130,285,93504,1,10,3:0:0:0:
397,9,93687,5,12,0:0:0:0:
397,9,93870,1,14,0:0:0:0:
85,107,94053,6,0,B|118:109|133:98|133:98|134:103|134:103|155:66,1,97.50000371933,2|0,0:0|0:0,0:0:0:0:
11,95,94236,2,0,B|67:133|150:119|150:119|144:126|144:126|324:-5,2,325,6|2|2,1:2|0:0|1:2,0:0:0:0:
415,108,94785,2,2,B|455:34|455:34|337:-24,1,162.5,2|2,3:1|3:0,3:0:0:0:
341,79,94968,1,6,3:1:0:0:
163,363,95151,5,6,3:3:0:0:
5,147,95334,6,0,B|11:162|11:162|-6:221|-6:221|93:138,1,162.5,2|0,1:2|0:0,0:0:0:0:
131,93,95517,2,0,B|125:78|125:78|142:19|142:19|43:102,1,162.5,2|0,0:0|0:0,0:0:0:0:
243,366,95699,2,0,B|223:319|223:319|239:279|239:279|28:89,3,325,6|6|4|2,3:1|0:3|1:3|0:2,0:0:0:0:
144,87,96431,2,0,B|99:17|99:17|108:-11|140:2,1,130,6|0,3:1|0:0,0:0:0:0:
385,64,96614,5,8,0:3:0:0:
385,64,96706,1,8,0:3:0:0:
277,44,96797,6,0,B|324:199|324:199|348:101,1,260,6|0,1:1|0:0,0:0:0:0:
147,186,97163,5,4,3:0:0:0:
147,186,97346,1,4,0:3:0:0:
509,145,97529,6,0,P|446:124|440:208,1,130,2|0,1:2|0:0,0:0:0:0:
294,340,97712,6,0,B|267:363|267:363|105:333,1,195,2|0,0:1|0:0,0:0:0:0:
128,363,97895,1,8,3:0:0:0:
371,316,98077,1,6,0:3:0:0:
366,233,98169,1,6,0:3:0:0:
306,221,98260,2,0,B|260:198|263:170|263:170|373:-7,2,260,6|0|8,1:1|0:1|3:0,0:0:0:0:
381,11,98809,1,8,0:3:0:0:
272,67,98901,1,8,0:3:0:0:
405,5,98992,2,0,L|381:192,1,130,8|0,1:3|0:0,0:0:0:0:
424,218,99175,2,0,L|501:160,1,65,2|0,0:0|0:0,0:0:0:0:
326,268,99358,2,0,L|538:357,1,195.00000743866,6|2,3:1|3:0,0:0:0:0:
321,249,99632,5,2,3:0:0:0:
250,324,99724,6,0,P|333:179|276:-9,1,325,12|2,3:0|1:2,0:0:0:0:
68,39,99998,1,6,0:3:0:0:
41,154,100090,2,0,P|82:81|53:-12,1,162.5,6|0,1:0|0:0,0:0:0:0:
113,30,100273,6,2,L|195:12,1,65,2|2,3:0|3:0,3:0:0:0:
451,4,100456,2,0,B|472:-9|472:-9|509:9|518:84|455:112|414:127|380:77|369:39|429:41|442:72,1,243.75,2|0,1:1|0:0,0:0:0:0:
461,135,100638,2,0,B|497:192|497:192|355:89,1,243.75,2|0,0:0|0:0,0:0:0:0:
220,248,100821,6,0,B|196:258|196:258|201:303|163:340|163:340|-16:402,1,243.75,6|0,3:1|0:0,0:0:0:0:
79,323,101004,2,0,B|111:341|111:341|281:285|281:285|352:319,1,243.75,2|0,0:2|0:0,0:0:0:0:
325,334,101187,2,0,P|351:295|290:326,1,162.5,14|0,1:3|0:0,0:0:0:0:
231,224,101370,5,2,0:3:0:0:
175,238,101462,1,2,0:3:0:0:
121,180,101553,2,0,B|72:202|72:202|102:157|102:157|65:122|73:43|121:33,1,243.75,6|0,3:1|0:0,0:0:0:0:
170,48,101736,6,0,L|264:99,1,81.25,8|0,0:3|0:0,0:0:0:0:
271,49,101827,6,0,B|234:63|234:63|233:136,1,81.25,8|0,0:3|0:0,0:0:0:0:
319,123,101919,6,0,L|413:174,1,81.25,8|0,1:3|0:0,0:0:0:0:
512,230,102102,2,0,B|472:204|472:204|503:117|449:0|336:-9,2,325,4|2|2,0:1|3:1|0:0,0:0:0:0:
491,312,102559,1,2,0:0:0:0:
428,230,102651,6,0,L|361:267,1,65,6|0,1:2|0:0,0:0:0:0:
453,138,102834,2,0,L|502:113,1,32.5,2|0,3:0|0:0,0:0:0:0:
447,132,102925,2,0,L|470:78,1,32.5,2|0,3:0|0:0,0:0:0:0:
380,92,103017,6,0,B|362:114|328:112|328:112|359:200|299:269|299:269|307:291|307:291|205:263|205:263|195:237|229:224|244:244,1,406.25,6|0,3:1|0:0,0:0:0:0:
250,197,103291,1,2,0:3:0:0:
201,262,103382,2,0,B|134:244|134:244|106:161,1,130,2|0,1:2|0:0,0:0:0:0:
0,156,103565,6,2,L|162:77,1,162.5,6|2,3:1|3:0,3:0:0:0:
167,73,103748,2,0,B|150:83|155:103|155:103|127:77|139:31|188:28|213:65|203:91,1,162.5,8|0,3:0|0:0,0:0:0:0:
346,0,103931,6,0,B|342:17|348:26|348:26|304:47|304:47|219:215,1,243.75,2|0,0:0|0:0,0:0:0:0:
292,139,104114,2,0,P|238:125|276:32,1,162.5,2|0,1:1|0:0,0:0:0:0:
394,69,104297,1,2,0:3:0:0:
483,78,104388,1,2,0:3:0:0:
512,114,104480,6,0,B|485:175|485:175|505:184|505:184|322:243,1,243.75,10|0,3:0|0:0,0:0:0:0:
281,179,104663,6,0,L|252:304,1,81.25,8|0,0:3|0:0,0:0:0:0:
258,278,104754,6,0,L|164:190,1,81.25,8|0,0:3|0:0,0:0:0:0:
184,210,104846,6,0,L|291:177,1,81.25,8|0,1:3|0:0,0:0:0:0:
163,296,105029,6,0,B|8:346|8:346|62:317|62:317|10:284,1,243.75,2|0,0:0|0:0,0:0:0:0:
0,203,105212,2,0,B|76:224|76:224|40:264|40:264|54:328,1,162.5,2|0,3:1|0:0,0:0:0:0:
195,384,105394,6,0,B|199:388|199:388|337:191|337:191|330:187,1,243.75,10|0,0:0|0:0,0:0:0:0:
376,196,105577,6,0,B|370:193|370:193|508:-4|508:-4|512:0,1,243.75,8|2,0:0|0:0,0:0:0:0:
510,89,105760,5,10,0:3:0:0:
510,89,105852,1,10,0:3:0:0:
411,82,105943,6,0,B|393:92|393:92|410:53|410:53|106:14,1,325,6|0,0:2|0:0,0:0:0:0:
150,19,106309,6,0,B|171:104|171:104|295:35,1,162.5,2|0,1:2|0:0,0:0:0:0:
354,32,106492,2,0,B|420:-4|420:-4|440:79,1,162.5,2|0,0:0|0:0,0:0:0:0:
507,116,106675,6,0,B|489:126|489:126|506:87|506:87|1:18,1,568.75,6|0,3:1|0:0,0:0:0:0:
85,0,107041,2,0,L|115:125,1,97.50000371933,2|0,1:2|0:0,0:0:0:0:
59,184,107224,6,0,B|5:209|5:209|-21:236|-20:301|18:324,1,162.5,0|2,0:0|0:0,0:0:0:0:
116,270,107407,6,0,B|140:372|140:372|160:341|160:341|131:210,1,243.75,10|0,3:0|0:0,0:0:0:0:
162,266,107590,6,0,B|169:254|169:254|179:259|179:259|427:198,1,243.75,2|0,0:1|0:0,0:0:0:0:
457,165,107773,6,0,B|509:170|521:249|495:283|495:283|524:328|524:328|476:306,1,243.75,2|0,1:2|0:0,0:0:0:0:
436,265,107956,6,0,P|476:212|414:237,1,162.5,2|2,3:3|3:3,0:0:0:0:
237,384,108138,6,0,B|231:353|231:353|202:353|204:321|204:321|356:51,2,325,4|2|2,3:1|0:1|1:2,0:0:0:0:
474,20,108687,1,2,3:0:0:0:
474,20,108779,1,2,3:0:0:0:
401,80,108870,6,0,L|484:336,1,243.75,4|0,3:1|0:0,0:0:0:0:
482,240,109053,6,0,B|475:212|475:212|540:146|504:64|504:64|400:112,1,243.75,2|0,0:0|0:0,0:0:0:0:
378,95,109236,2,0,P|351:125|484:211,1,243.75,2|0,1:1|0:0,0:0:0:0:
386,208,109419,6,0,B|349:216|349:216|279:379|279:379|445:332,2,325,4|2|2,0:1|3:1|0:0,0:0:0:0:
460,170,109876,1,2,0:3:0:0:
498,98,109968,6,0,B|491:47|491:47|411:49|366:-11|366:-11|316:19,1,243.75,2|0,1:2|0:0,0:0:0:0:
418,85,110151,2,0,B|446:129|446:129|387:134|328:201|358:283,1,243.75,2|0,0:0|0:0,0:0:0:0:
319,300,110334,5,2,3:3:0:0:
307,145,110425,1,2,2:3:0:0:
234,98,110517,5,14,2:3:0:0:
200,178,110608,5,10,2:3:0:0:
275,316,110699,2,0,L|172:354,1,97.50000371933,2|0,1:2|0:0,0:0:0:0:
97,337,110882,6,0,B|145:346|145:346|290:292|290:292|215:272,1,243.75,2|0,0:0|0:0,0:0:0:0:
196,290,111065,1,4,3:1:0:0:
500,65,111248,5,12,3:0:0:0:
486,31,111340,5,8,3:0:0:0:
417,20,111431,5,10,3:0:0:0:
347,85,111523,5,2,3:0:0:0:
367,216,111614,5,10,3:0:0:0:
289,356,111706,5,2,3:0:0:0:
103,384,111797,5,4,3:1:0:0:
91,383,111980,5,4,0:1:0:0:
82,384,112163,6,0,B|129:249,1,143.000004364014,6|0,1:1|0:0,0:0:0:0:
383,135,112346,2,0,B|430:0,1,143.000004364014,2|0,0:0|0:0,0:0:0:0:
137,37,112529,6,0,B|165:130,1,97.50000371933,8|0,3:3|0:0,0:0:0:0:
347,254,112712,2,0,B|375:347,1,97.50000371933,2|0,0:0|0:0,0:0:0:0:
197,302,112895,6,0,B|224:219,1,65,6|0,1:1|0:0,0:0:0:0:
294,143,113077,2,0,B|315:82,1,65,2|0,0:0|0:0,0:0:0:0:
256,192,113261,5,8,3:3:0:0:
184,143,113443,1,14,3:3:0:0:
327,240,113535,1,14,3:3:0:0:
191,148,113626,2,0,P|204:108|237:68,1,65,6|0,1:1|0:0,0:0:0:0:
74,81,113809,2,0,P|90:155|139:215,1,130,2|0,0:0|0:0,0:0:0:0:
406,39,113992,5,6,3:1:0:0:
406,39,114358,5,6,1:1:0:0:
402,12,114724,6,0,L|415:79,1,52,6|2,3:1|0:0,0:0:0:0:
488,29,114998,1,2,0:0:0:0:
308,32,115090,6,0,B|230:25|248:6|169:-2,1,143.000004364014,6|0,1:1|0:0,0:0:0:0:
64,83,115273,2,0,B|86:157|62:148|84:224,1,143.000004364014,2|0,0:0|0:0,0:0:0:0:
424,206,115456,6,0,B|423:256|439:255|437:302,1,97.50000371933,8|0,3:0|0:0,0:0:0:0:
327,384,115638,2,0,B|280:365|275:380|232:361,1,97.50000371933,2|0,0:0|0:0,0:0:0:0:
248,30,115821,6,0,B|221:16|219:29|185:14,1,65,6|0,1:1|0:0,0:0:0:0:
78,107,116004,2,0,B|75:137|87:134|87:171,1,65,2|0,0:0|0:0,0:0:0:0:
297,360,116187,6,0,B|268:357|266:346|235:343,1,65,8|0,3:0|0:0,0:0:0:0:
194,191,116370,1,14,3:3:0:0:
349,115,116461,1,14,3:3:0:0:
506,47,116553,1,14,1:3:0:0:
506,47,116736,5,2,0:3:0:0:
506,47,116919,6,0,L|469:-17,1,65,6|0,3:1|0:0,0:0:0:0:
512,239,117102,5,2,1:3:0:0:
512,239,117193,1,2,1:3:0:0:
512,239,117285,1,10,3:3:0:0:
0,145,117468,1,2,3:3:0:0:
0,145,117559,1,2,3:3:0:0:
0,145,117651,6,0,P|117:127|247:17,1,286.000008728028,4|0,1:0|0:0,0:0:0:0:
243,22,118017,6,0,P|277:-6|273:55,1,143.000004364014,6|0,1:1|0:0,0:0:0:0:
214,109,118199,2,0,P|179:137|184:76,1,143.000004364014,2|0,0:0|0:0,0:0:0:0:
385,0,118382,6,0,P|425:27|471:44,1,97.50000371933,8|0,3:3|0:0,0:0:0:0:
428,216,118565,2,0,P|456:177|494:146,1,97.50000371933,2|0,0:0|0:0,0:0:0:0:
281,353,118748,6,0,P|247:308|254:277,1,65,6|0,1:1|0:0,0:0:0:0:
49,1,118931,2,0,P|74:20|83:51,1,65,2|0,0:0|0:0,0:0:0:0:
81,130,119114,5,8,3:3:0:0:
85,211,119297,5,14,3:3:0:0:
108,292,119389,1,14,3:3:0:0:
7,179,119480,1,14,1:3:0:0:
168,26,119663,6,0,B|200:32|191:42|249:56,1,65,2|0,0:0|0:0,0:0:0:0:
405,0,119846,5,6,3:1:0:0:
405,0,120212,5,6,1:1:0:0:
405,0,120577,6,0,L|387:77,1,65,6|0,3:1|0:0,0:0:0:0:
355,205,120760,2,0,L|369:141,1,65,2|0,0:0|0:0,0:0:0:0:
512,66,120943,6,0,P|460:126|370:154,1,143.000004364014,6|0,1:1|0:0,0:0:0:0:
251,182,121126,2,0,P|172:173|97:116,1,143.000004364014,2|0,0:0|0:0,0:0:0:0:
19,28,121309,6,0,P|26:87|69:158,1,97.50000371933,8|0,3:0|0:0,0:0:0:0:
153,247,121492,2,0,P|202:279|284:292,1,97.50000371933,2|0,0:0|0:0,0:0:0:0:
470,202,121675,6,0,P|457:240|430:270,1,65,6|0,1:1|0:0,0:0:0:0:
297,358,121858,2,0,P|258:371|218:367,1,65,2|0,0:0|0:0,0:0:0:0:
186,384,122041,5,8,3:0:0:0:
318,271,122224,5,14,0:3:0:0:
271,208,122315,1,14,0:3:0:0:
200,172,122407,1,14,1:3:0:0:
401,16,122590,5,2,0:0:0:0:
327,51,122773,6,0,P|323:99|347:135,1,65,10|0,3:0|0:0,0:0:0:0:
405,145,122956,6,0,L|417:153,1,13,2|0,0:0|0:0,0:0:0:0:
427,59,123138,6,0,L|479:46,1,32.5,6|0,0:1|0:0,0:0:0:0:
347,210,123321,6,0,B|295:321|295:321|294:370|353:358,1,195.00000743866,6|2,0:3|0:0,0:0:0:0:
348,357,123550,5,2,0:0:0:0:
349,350,123596,5,2,0:0:0:0:
256,192,123642,12,0,126431,0:0:0:0:
