osu file format v14

[General]
AudioFilename: audio.ogg
AudioLeadIn: 0
PreviewTime: 46944
Countdown: 0
SampleSet: Soft
StackLeniency: 0.2
Mode: 0
LetterboxInBreaks: 0
WidescreenStoryboard: 1

[Editor]
Bookmarks: 573,6426,18133,29841,41548,47402,59109,64963,76670,88377,100085,111792,123499,126426
DistanceSpacing: 0.9
BeatDivisor: 2
GridSize: 32
TimelineZoom: 2.5

[Metadata]
Title:Fuwari
TitleUnicode:ふわり
Artist:Hanon x Kotoha
ArtistUnicode:Hanon × Kotoha
Creator:DH02
Version:Cellina's Normal
Source:
Tags:Heilia juquett cotton__123 Shiraya_Sayuki Cellina ふわり fuwari japanese hanonxkotoha hanon kotoha mimi eshikara 可不 kafu 初音ミク hatsune miku hatsune_miku pop jpop j-pop female vocal vocaloid cover 藍瀬まなみ はるっと Haる
BeatmapID:4379529
BeatmapSetID:2026271

[Difficulty]
HPDrainRate:4
CircleSize:2.5
OverallDifficulty:5
ApproachRate:5
SliderMultiplier:1.2
SliderTickRate:1

[Events]
//Background and Video events
0,0,"BG.jpg",0,0
Video,0,"video.mp4"
//Break Periods
//Storyboard Layer 0 (Background)
//Storyboard Layer 1 (Fail)
//Storyboard Layer 2 (Pass)
//Storyboard Layer 3 (Foreground)
//Storyboard Layer 4 (Overlay)
//Storyboard Sound Samples

[TimingPoints]
578,365.853658536585,4,2,1,65,1,0
578,-100,4,2,1,65,0,0
6431,-100,4,2,1,75,0,0
18138,-111.111111111111,4,2,1,50,0,0
21202,-111.111111111111,4,2,1,5,0,0
21248,-111.111111111111,4,2,1,50,0,0
21568,-111.111111111111,4,2,1,5,0,0
21614,-111.111111111111,4,2,1,50,0,0
29846,-100,4,2,1,65,0,0
30898,-100,4,2,1,5,0,0
30943,-100,4,2,1,65,0,0
33093,-100,4,2,1,5,0,0
33138,-100,4,2,1,65,0,0
41553,-100,4,2,1,70,0,0
42422,-100,4,2,1,5,0,0
42468,-100,4,2,1,70,0,0
47407,-90.9090909090909,4,2,1,85,0,0
48824,-90.9090909090909,4,2,1,5,0,0
48870,-90.9090909090909,4,2,1,85,0,0
49007,-90.9090909090909,4,2,1,5,0,0
49053,-90.9090909090909,4,2,1,85,0,0
50837,-90.9090909090909,4,2,1,5,0,0
50882,-90.9090909090909,4,2,1,85,0,0
51751,-90.9090909090909,4,2,1,5,0,0
51797,-90.9090909090909,4,2,1,85,0,0
51934,-90.9090909090909,4,2,1,5,0,0
51980,-90.9090909090909,4,2,1,85,0,0
52666,-90.9090909090909,4,2,1,5,0,0
52712,-90.9090909090909,4,2,1,85,0,0
52849,-90.9090909090909,4,2,1,5,0,0
52895,-90.9090909090909,4,2,1,85,0,0
53032,-90.9090909090909,4,2,1,5,0,0
53077,-90.9090909090909,4,2,1,85,0,0
54129,-90.9090909090909,4,2,1,5,0,0
54175,-90.9090909090909,4,2,1,85,0,0
55044,-90.9090909090909,4,2,1,5,0,0
55090,-90.9090909090909,4,2,1,85,0,0
59114,-100,4,2,1,75,0,0
61081,-100,4,2,1,5,0,0
61126,-100,4,2,1,75,0,0
64465,-100,4,2,1,5,0,0
64510,-100,4,2,1,75,0,0
64556,-100,4,2,1,5,0,0
64602,-100,4,2,1,75,0,0
64739,-100,4,2,1,5,0,0
64785,-100,4,2,1,75,0,0
64968,-100,4,2,1,70,0,0
76675,-90.9090909090909,4,2,1,75,0,0
88382,-90.9090909090909,4,2,1,85,0,0
90074,-90.9090909090909,4,2,1,5,0,0
90120,-90.9090909090909,4,2,1,85,0,0
90166,-90.9090909090909,4,2,1,5,0,0
90212,-90.9090909090909,4,2,1,85,0,0
90257,-90.9090909090909,4,2,1,5,0,0
90303,-90.9090909090909,4,2,1,85,0,0
92910,-90.9090909090909,4,2,1,5,0,0
92956,-90.9090909090909,4,2,1,85,0,0
93642,-90.9090909090909,4,2,1,5,0,0
93687,-90.9090909090909,4,2,1,85,0,0
95105,-90.9090909090909,4,2,1,5,0,0
95151,-90.9090909090909,4,2,1,85,0,0
95654,-90.9090909090909,4,2,1,5,0,0
95699,-90.9090909090909,4,2,1,85,0,0
95837,-90.9090909090909,4,2,1,5,0,0
95882,-90.9090909090909,4,2,1,85,0,0
97026,-90.9090909090909,4,2,1,5,0,0
97071,-90.9090909090909,4,2,1,85,0,0
97117,-90.9090909090909,4,2,1,5,0,0
97163,-90.9090909090909,4,2,1,85,0,0
99587,-90.9090909090909,4,2,1,5,0,0
99632,-90.9090909090909,4,2,1,85,0,0
99678,-90.9090909090909,4,2,1,5,0,0
99724,-90.9090909090909,4,2,1,85,0,0
100227,-90.9090909090909,4,2,1,5,0,0
100273,-90.9090909090909,4,2,1,85,0,0
101324,-90.9090909090909,4,2,1,5,0,0
101370,-90.9090909090909,4,2,1,85,0,0
101690,-90.9090909090909,4,2,1,5,0,0
101736,-90.9090909090909,4,2,1,85,0,0
102879,-90.9090909090909,4,2,1,5,0,0
102925,-90.9090909090909,4,2,1,85,0,0
102971,-90.9090909090909,4,2,1,5,0,0
103017,-90.9090909090909,4,2,1,85,0,0
103885,-90.9090909090909,4,2,1,5,0,0
103931,-90.9090909090909,4,2,1,85,0,0
105349,-90.9090909090909,4,2,1,5,0,0
105395,-90.9090909090909,4,2,1,85,0,0
105532,-90.9090909090909,4,2,1,5,0,0
105577,-90.9090909090909,4,2,1,85,0,0
105715,-90.9090909090909,4,2,1,5,0,0
105760,-90.9090909090909,4,2,1,85,0,0
106812,-90.9090909090909,4,2,1,5,0,0
106858,-90.9090909090909,4,2,1,85,0,0
107544,-90.9090909090909,4,2,1,5,0,0
107590,-90.9090909090909,4,2,1,85,0,0
108733,-90.9090909090909,4,2,1,5,0,0
108779,-90.9090909090909,4,2,1,85,0,0
108824,-90.9090909090909,4,2,1,5,0,0
108870,-90.9090909090909,4,2,1,85,0,0
109007,-90.9090909090909,4,2,1,5,0,0
109053,-90.9090909090909,4,2,1,85,0,0
110105,-90.9090909090909,4,2,1,5,0,0
110151,-90.9090909090909,4,2,1,85,0,0
111202,-90.9090909090909,4,2,1,5,0,0
111248,-90.9090909090909,4,2,1,85,0,0
111797,-100,4,2,1,75,0,0
113763,-100,4,2,1,5,0,0
113809,-100,4,2,1,75,0,0
119617,-100,4,2,1,5,0,0
119663,-100,4,2,1,75,0,0
122544,-100,4,2,1,5,0,0
122590,-100,4,2,1,75,0,0
122956,-100,4,2,1,50,0,0
123504,-100,4,2,1,50,0,0
123565,-100,4,2,1,40,0,0
123596,-100,4,2,2,15,0,0

[Colours]
Combo1 : 137,202,2
Combo2 : 139,179,252

[HitObjects]
79,27,6431,6,0,P|23:60|26:138,1,120,4|2,1:0|1:2,0:0:0:0:
56,153,6980,1,2,3:2:0:0:
56,153,7163,2,0,P|140:172|195:202,1,120,10|2,3:0|1:2,0:0:0:0:
253,255,7895,1,10,3:0:0:0:
341,193,8260,2,0,L|403:215,1,60,2|2,1:2|0:0,0:0:0:0:
451,217,8626,2,0,P|426:291|415:351,1,120,10|2,3:0|1:2,0:0:0:0:
312,359,9358,5,10,3:0:0:0:
235,283,9724,2,0,P|222:242|220:215,1,60,2|2,1:2|0:0,0:0:0:0:
268,199,10090,2,0,P|301:125|304:67,1,120,10|2,3:0|1:2,0:0:0:0:
214,27,10821,2,0,P|137:46|85:64,1,120,10|2,3:0|1:2,0:0:0:0:
57,92,11370,1,2,0:0:0:0:
57,92,11553,2,0,P|84:167|94:215,1,120,10|4,3:0|0:3,0:0:0:0:
33,296,12285,6,0,P|87:344|157:331,1,120,6|2,3:0|1:2,0:0:0:0:
172,307,12834,1,2,0:0:0:0:
172,307,13017,2,0,P|255:335|318:358,1,120,10|2,3:0|1:2,0:0:0:0:
332,248,13748,1,10,3:0:0:0:
438,268,14114,2,0,L|453:195,1,60,2|2,1:3|0:0,0:0:0:0:
487,169,14480,2,0,P|415:150|371:130,1,120,10|2,3:0|1:2,0:0:0:0:
318,37,15212,6,0,P|252:51|225:114,1,120,10|2,3:0|1:2,0:0:0:0:
249,141,15760,2,0,P|232:171|222:209,1,60,2|10,0:0|3:0,0:0:0:0:
184,296,16309,1,2,1:2:0:0:
75,300,16675,2,0,P|18:270|3:186,1,120,10|2,3:0|1:2,0:0:0:0:
4,166,17224,1,2,0:0:0:0:
4,166,17407,2,0,P|53:157|123:118,1,120,10|8,3:0|0:0,0:0:0:0:
179,51,18138,6,0,P|273:67|319:200,1,215.999993408203,2|2,0:0|0:0,0:0:0:0:
410,214,19236,1,10,0:0:0:0:
386,308,19602,2,0,P|252:333|140:370,1,215.999993408203,2|2,0:0|0:0,0:0:0:0:
79,343,20699,1,10,0:0:0:0:
31,257,21065,6,0,P|92:152|183:153,2,215.999993408203,2|2|2,0:0|0:0|0:0,0:0:0:0:
76,343,22895,2,0,P|156:318|221:299,1,107.999996704102,10|2,0:0|0:0,0:0:0:0:
258,367,23626,1,10,0:0:0:0:
345,324,23992,6,0,P|393:217|484:137,1,215.999993408203,2|2,0:0|0:0,0:0:0:0:
441,54,25090,1,10,0:0:0:0:
344,40,25456,2,0,B|228:27|261:112|143:96,1,215.999993408203,2|2,0:0|0:0,0:0:0:0:
61,148,26553,1,10,0:0:0:0:
136,209,26919,6,0,P|110:282|105:338,1,107.999996704102,2|10,0:0|0:0,0:0:0:0:
191,358,27651,2,0,P|252:344|316:340,1,107.999996704102,2|10,0:0|0:0,0:0:0:0:
379,289,28382,2,0,P|438:317|502:337,2,107.999996704102,2|10|2,0:0|0:0|0:0,0:0:0:0:
306,224,29480,2,0,L|286:153,1,53.9999983520508,10|2,0:0|0:0,0:0:0:0:
308,120,29846,6,0,P|380:62|434:91,1,120,4|8,1:0|1:0,0:0:0:0:
449,83,30395,1,2,0:3:0:0:
449,83,30577,2,0,P|469:167|496:226,1,120,10|8,0:3|1:0,0:0:0:0:
440,298,31309,1,6,0:3:0:0:
342,252,31675,1,8,1:0:0:0:
297,350,32041,2,0,P|234:325|160:316,1,120,8|8,0:3|1:0,0:0:0:0:
83,361,32773,6,0,P|57:229|48:117,1,240,4|10,0:3|0:3,0:0:0:0:
124,47,33870,1,8,1:0:0:0:
205,117,34236,2,0,P|268:135|348:141,1,120,8|8,0:3|1:0,0:0:0:0:
370,116,34785,1,6,0:3:0:0:
370,116,34968,2,0,P|389:181|355:238,1,120,10|8,0:3|1:0,0:0:0:0:
424,318,35699,6,0,P|352:246|223:267,1,240,4|8,0:3|0:3,0:0:0:0:
117,252,36797,1,8,1:0:0:0:
42,330,37163,2,0,P|8:254|8:194,1,120,4|8,0:3|1:0,0:0:0:0:
51,189,37712,1,8,3:0:0:0:
51,189,37895,2,0,P|77:119|77:65,1,120,8|8,0:3|1:0,0:0:0:0:
181,41,38626,6,0,P|261:43|309:133,1,180,4|10,1:0|3:0,0:0:0:0:
354,152,39358,2,0,P|335:216|325:283,1,120,6|2,0:0|0:0,0:0:0:0:
360,310,39907,1,6,1:2:0:0:
273,374,40273,2,0,P|213:350|146:338,1,120,6|6,1:2|1:2,0:0:0:0:
106,353,40821,2,0,P|76:293|98:232,1,120,6|2,1:2|0:0,0:0:0:0:
38,148,41553,6,0,P|56:38|166:35,1,240,6|2,1:0|1:0,0:0:0:0:
242,113,42651,1,8,0:0:0:0:
330,51,43017,2,0,P|378:76|469:94,1,120,2|8,1:0|0:0,0:0:0:0:
501,181,43748,2,0,P|489:244|423:268,1,120,2|8,1:0|0:0,0:0:0:0:
392,248,44297,1,4,0:3:0:0:
392,248,44480,6,0,P|319:263|266:289,1,120,2|8,1:0|0:0,0:0:0:0:
239,320,45029,2,0,L|161:302,1,60,8|2,0:3|1:0,0:0:0:0:
76,336,45577,2,0,L|48:267,1,60,10|2,0:0|0:0,0:0:0:0:
11,246,45943,6,0,P|35:165|39:109,1,120,4|0,0:3|1:0,0:0:0:0:
77,92,46492,1,8,0:3:0:0:
77,92,46675,1,4,1:0:0:0:
179,57,47041,2,0,L|261:77,1,60,2|2,0:0|0:0,0:0:0:0:
296,62,47407,6,0,P|266:140|257:204,1,132.00000402832,4|2,1:0|1:2,0:0:0:0:
276,249,47956,1,10,0:3:0:0:
276,249,48138,2,0,P|370:264|430:289,1,132.00000402832,8|2,3:0|1:2,0:0:0:0:
492,196,48870,1,8,3:0:0:0:
479,77,49236,2,0,L|413:95,1,66.0000020141602,2|10,1:2|0:3,0:0:0:0:
375,139,49602,2,0,P|299:113|229:93,1,132.00000402832,10|2,3:0|1:2,0:0:0:0:
152,29,50334,6,0,P|68:51|42:162,1,198.000006042481,8|2,3:0|0:0,0:0:0:0:
86,183,51065,2,0,P|63:265|56:327,1,132.00000402832,8|2,3:0|1:2,0:0:0:0:
158,372,51797,1,8,3:3:0:0:
257,306,52163,2,0,L|340:333,1,66.0000020141602,0|2,1:3|0:0,0:0:0:0:
366,363,52529,2,0,P|435:331|401:257,1,132.00000402832,8|8,3:0|0:0,0:0:0:0:
404,231,53077,1,8,0:3:0:0:
404,231,53260,5,4,1:0:0:0:
490,149,53626,2,0,L|469:77,1,66.0000020141602,2|10,1:2|0:3,0:0:0:0:
490,29,53992,2,0,P|377:59|337:61,1,132.00000402832,8|2,3:3|1:2,0:0:0:0:
304,44,54541,1,10,0:3:0:0:
304,44,54724,2,0,P|246:78|257:152,1,132.00000402832,8|2,3:0|1:2,0:0:0:0:
311,236,55456,1,8,3:0:0:0:
245,335,55821,2,0,P|204:324|166:318,1,66.0000020141602,2|10,1:2|0:3,0:0:0:0:
131,354,56187,6,0,P|82:305|80:222,1,132.00000402832,4|2,3:0|1:2,0:0:0:0:
41,195,56736,1,10,0:3:0:0:
41,195,56919,2,0,P|118:176|168:157,1,132.00000402832,8|2,3:0|1:2,0:0:0:0:
248,70,57651,1,8,3:0:0:0:
328,157,58017,2,0,P|380:177|425:188,1,66.0000020141602,2|2,1:2|0:0,0:0:0:0:
430,222,58382,2,0,P|445:146|472:70,1,132.00000402832,4|0,3:3|1:0,0:0:0:0:
395,8,59114,6,0,P|306:18|301:138,1,180,4|2,1:0|0:0,0:0:0:0:
318,130,59846,1,8,3:3:0:0:
300,236,60212,1,2,1:2:0:0:
208,294,60577,2,0,P|134:269|76:266,1,120,8|2,3:3|1:2,0:0:0:0:
44,241,61126,1,2,0:0:0:0:
44,241,61309,2,0,P|15:174|52:120,1,120,8|2,3:0|1:2,0:0:0:0:
62,30,62041,6,0,P|152:55|265:80,1,180,8|2,3:0|0:0,0:0:0:0:
287,56,62773,2,0,P|325:105|308:165,1,120,8|2,3:0|1:2,0:0:0:0:
259,251,63504,2,0,P|335:277|380:301,1,120,8|2,3:0|1:2,0:0:0:0:
478,303,64236,2,0,L|497:368,2,60,8|2|8,3:0|1:3|3:0,0:0:0:0:
493,195,64968,6,0,P|486:125|360:117,1,180,6|8,0:0|3:0,0:0:0:0:
347,63,65699,2,0,P|288:84|276:142,1,120,2|8,1:0|3:0,0:0:0:0:
308,237,66431,2,0,B|181:238|218:304|86:317,1,240,8|2,0:3|1:0,0:0:0:0:
26,228,67529,1,2,0:0:0:0:
39,120,67895,6,0,P|151:91|304:50,1,240,8|2,3:0|1:0,0:0:0:0:
374,88,68992,1,8,3:3:0:0:
408,190,69358,2,0,P|384:249|370:307,1,120,2|8,0:0|3:0,0:0:0:0:
279,362,70090,2,0,P|217:325|232:242,1,120,2|8,1:0|3:0,0:0:0:0:
157,187,70821,6,0,P|199:116|312:159,1,180,4|8,1:2|3:3,0:0:0:0:
320,166,71553,2,0,P|393:141|454:103,1,120,2|8,1:0|3:3,0:0:0:0:
491,209,72285,2,0,P|483:272|425:304,1,120,2|8,0:0|3:3,0:0:0:0:
341,348,73017,1,2,1:0:0:0:
267,269,73382,1,8,3:0:0:0:
187,342,73748,6,0,P|125:310|69:295,1,120,8|2,3:0|0:0,0:0:0:0:
23,306,74297,1,8,3:0:0:0:
23,306,74480,2,0,P|57:221|59:177,1,120,2|2,1:2|0:0,0:0:0:0:
105,165,75029,1,8,3:3:0:0:
77,60,75395,2,0,P|144:50|187:108,1,120,8|8,3:3|3:0,0:0:0:0:
227,108,75943,2,0,P|307:89|360:86,1,120,4|2,3:0|0:0,0:0:0:0:
453,37,76675,5,4,1:0:0:0:
436,154,77041,2,0,L|420:236,1,66.0000020141602,2|2,1:2|0:0,0:0:0:0:
412,277,77407,2,0,P|340:290|284:319,1,132.00000402832,8|2,3:0|1:2,0:0:0:0:
170,304,78138,2,0,P|152:236|148:166,1,132.00000402832,8|2,3:0|1:2,0:0:0:0:
107,130,78687,1,2,0:0:0:0:
107,130,78870,2,0,P|200:105|248:85,1,132.00000402832,8|2,3:0|1:2,0:0:0:0:
344,50,79602,6,0,P|437:67|447:167,1,198.000006042481,8|2,3:0|0:0,0:0:0:0:
476,211,80334,2,0,P|402:222|341:241,1,132.00000402832,8|2,3:0|1:2,0:0:0:0:
255,162,81065,2,0,P|191:212|206:275,1,132.00000402832,8|2,3:0|1:2,0:0:0:0:
218,310,81614,1,2,0:0:0:0:
218,310,81797,2,0,L|298:327,2,66.0000020141602,8|2|2,3:0|0:0|1:2,0:0:0:0:
103,344,82529,6,0,P|60:236|56:173,1,132.00000402832,8|2,3:0|1:2,0:0:0:0:
25,171,83077,1,2,0:0:0:0:
25,171,83260,2,0,P|56:101|116:61,1,132.00000402832,8|2,3:0|1:2,0:0:0:0:
199,4,83992,1,8,3:0:0:0:
316,23,84358,2,0,L|336:100,1,66.0000020141602,2|2,1:2|0:0,0:0:0:0:
383,118,84724,2,0,P|310:148|257:188,1,132.00000402832,8|2,3:0|1:2,0:0:0:0:
153,216,85456,6,0,P|135:285|179:354,1,132.00000402832,8|2,3:0|1:2,0:0:0:0:
221,355,86004,1,2,0:0:0:0:
221,355,86187,2,0,P|296:331|383:335,1,132.00000402832,8|2,3:0|1:2,0:0:0:0:
462,364,86919,2,0,P|509:262|455:175,1,198.000006042481,8|2,3:0|0:0,0:0:0:0:
485,131,87651,2,0,P|397:110|326:84,1,132.00000402832,8|2,3:0|1:2,0:0:0:0:
257,32,88382,6,0,P|186:36|157:98,1,132.00000402832,4|2,1:0|1:3,0:0:0:0:
99,99,88931,1,2,0:3:0:0:
99,99,89114,2,0,P|143:149|166:216,1,132.00000402832,8|2,3:0|1:2,0:0:0:0:
273,259,89846,1,8,3:0:0:0:
220,365,90212,2,0,L|140:354,1,66.0000020141602,10|2,1:3|0:0,0:0:0:0:
96,366,90577,2,0,P|73:298|62:221,1,132.00000402832,8|2,3:0|1:2,0:0:0:0:
73,120,91309,6,0,P|115:67|187:56,1,132.00000402832,4|2,3:0|1:2,0:0:0:0:
226,23,91858,1,2,0:3:0:0:
226,23,92041,2,0,P|248:119|266:160,1,132.00000402832,8|2,3:0|1:2,0:0:0:0:
346,232,92773,1,8,3:0:0:0:
234,272,93138,2,0,P|254:318|260:346,1,66.0000020141602,8|8,1:3|0:3,0:0:0:0:
312,357,93504,1,12,3:0:0:0:
312,357,93687,2,0,P|348:340|390:337,1,66.0000020141602,8|8,0:0|0:0,0:0:0:0:
490,362,94236,6,0,P|491:298|430:244,1,132.00000402832,4|2,1:0|1:2,0:0:0:0:
473,199,94785,1,2,0:3:0:0:
473,199,94968,2,0,P|401:179|347:158,1,132.00000402832,8|2,3:0|1:2,0:0:0:0:
275,65,95699,1,8,3:0:0:0:
169,118,96065,2,0,L|186:193,1,66.0000020141602,2|10,1:3|0:3,0:0:0:0:
225,224,96431,2,0,P|147:241|77:272,1,132.00000402832,8|2,3:0|1:2,0:0:0:0:
5,186,97163,5,4,3:0:0:0:
33,70,97529,2,0,P|80:90|130:106,1,66.0000020141602,2|8,1:2|0:3,0:0:0:0:
130,142,97895,2,0,P|213:106|284:106,1,132.00000402832,4|2,3:0|1:2,0:0:0:0:
316,1,98626,2,0,P|382:18|411:83,1,132.00000402832,8|2,3:0|1:2,0:0:0:0:
482,167,99358,2,0,L|464:238,1,66.0000020141602,12|10,0:3|3:0,0:0:0:0:
414,262,99724,2,0,L|433:354,1,66.0000020141602,12|2,3:0|1:2,0:0:0:0:
452,381,100090,6,0,P|384:336|331:333,1,132.00000402832,4|4,1:0|1:3,0:0:0:0:
283,355,100638,1,2,1:2:0:0:
283,355,100821,2,0,P|231:289|253:235,1,132.00000402832,8|2,3:0|1:2,0:0:0:0:
308,149,101553,1,4,3:0:0:0:
218,70,101919,2,0,L|128:79,1,66.0000020141602,2|6,1:2|0:3,0:0:0:0:
107,37,102285,2,0,P|69:112|82:177,1,132.00000402832,4|6,3:0|1:3,0:0:0:0:
47,273,103017,6,0,P|123:264|155:204,1,132.00000402832,4|2,1:0|1:2,0:0:0:0:
189,176,103565,1,2,3:0:0:0:
189,176,103748,2,0,P|260:208|330:229,1,132.00000402832,8|2,3:0|1:2,0:0:0:0:
429,210,104480,2,0,P|440:135|452:70,1,132.00000402832,4|6,3:0|1:3,0:0:0:0:
354,7,105212,1,8,3:0:0:0:
257,75,105577,2,0,L|176:56,1,66.0000020141602,10|10,0:0|3:0,0:0:0:0:
135,42,105943,6,0,P|148:110|158:195,1,132.00000402832,4|2,1:0|1:2,0:0:0:0:
184,224,106492,2,0,L|270:213,1,66.0000020141602,2|8,3:0|3:0,0:0:0:0:
366,237,107041,2,0,L|354:321,1,66.0000020141602,2|10,1:2|3:3,0:0:0:0:
351,361,107407,6,0,P|265:346|188:340,1,132.00000402832,8|2,3:0|1:2,0:0:0:0:
172,306,107956,1,2,3:0:0:0:
172,306,108138,2,0,P|88:327|35:330,1,132.00000402832,8|2,3:0|1:2,0:0:0:0:
51,211,108870,5,4,1:0:0:0:
87,97,109236,2,0,L|172:116,1,66.0000020141602,2|2,1:2|3:0,0:0:0:0:
189,159,109602,2,0,P|256:135|336:131,1,132.00000402832,8|2,3:0|1:2,0:0:0:0:
420,72,110334,1,10,3:0:0:0:
502,156,110699,2,0,L|481:230,1,66.0000020141602,10|4,1:3|3:0,0:0:0:0:
482,279,111065,1,4,3:0:0:0:
385,347,111431,1,4,3:0:0:0:
289,295,111797,6,0,P|243:235|243:168,1,120,4|6,1:0|1:0,0:0:0:0:
267,146,112346,2,0,L|248:80,1,60,2|8,0:0|3:0,0:0:0:0:
168,20,112895,1,2,1:0:0:0:
70,65,113260,2,0,P|28:118|53:182,1,120,4|2,3:0|1:0,0:0:0:0:
30,218,113809,1,2,0:0:0:0:
30,218,113992,2,0,P|109:197|173:194,1,120,6|6,1:0|1:0,0:0:0:0:
223,116,114724,6,0,P|289:109|354:161,1,120,6|2,1:0|1:0,0:0:0:0:
387,122,115273,1,2,0:0:0:0:
387,122,115456,2,0,P|372:213|373:253,1,120,8|2,3:0|1:0,0:0:0:0:
363,348,116187,1,8,3:0:0:0:
258,372,116553,2,0,L|228:304,1,60,2|0,1:0|0:0,0:0:0:0:
180,308,116919,2,0,P|189:244|221:193,1,120,4|4,3:0|3:0,0:0:0:0:
271,180,117468,1,0,1:0:0:0:
271,180,117651,6,0,P|252:79|140:60,1,180,4|2,1:0|0:0,0:0:0:0:
135,43,118382,1,8,3:0:0:0:
44,101,118748,2,0,L|61:179,1,60,2|2,1:0|0:0,0:0:0:0:
28,205,119114,2,0,P|107:223|154:249,1,120,4|2,3:0|1:0,0:0:0:0:
174,290,119663,1,2,0:0:0:0:
174,290,119846,2,0,P|257:281|306:266,1,120,6|6,1:0|1:0,0:0:0:0:
385,324,120577,6,0,P|457:308|468:239,1,120,6|2,1:0|1:0,0:0:0:0:
506,228,121126,1,2,0:0:0:0:
506,228,121309,2,0,P|474:167|458:113,1,120,8|2,3:0|1:0,0:0:0:0:
374,50,122041,1,4,3:0:0:0:
282,98,122407,1,2,1:0:0:0:
195,33,122773,2,0,L|115:47,1,60,8|2,3:0|0:0,0:0:0:0:
107,89,123138,1,0,1:0:0:0:
159,183,123504,5,2,0:0:0:0:
