osu file format v14

[General]
AudioFilename: audio.mp3
AudioLeadIn: 0
PreviewTime: 45897
Countdown: 0
SampleSet: Soft
StackLeniency: 0.4
Mode: 0
LetterboxInBreaks: 0
WidescreenStoryboard: 1

[Editor]
Bookmarks: 12179,23473,46061,68649,79943,102532,105355,127943,139237
DistanceSpacing: 1
BeatDivisor: 4
GridSize: 32
TimelineZoom: 2.899999

[Metadata]
Title:QUEEN
TitleUnicode:QUEEN
Artist:Hanon
ArtistUnicode:Hanon
Creator:Mocaotic
Version:Insane
Source:
Tags:kanaria.code kanaria code vocaloid gumi cover hakolili hakoniwalily ハコニワリリィ ハコリリ japanese pop jpop j-pop
BeatmapID:3760520
BeatmapSetID:1832042

[Difficulty]
HPDrainRate:5
CircleSize:4
OverallDifficulty:8
ApproachRate:9
SliderMultiplier:1.54
SliderTickRate:1

[Events]
//Background and Video events
0,0,"hanonmyqueen.jpg",0,0
//Break Periods
//Storyboard Layer 0 (Background)
//Storyboard Layer 1 (Fail)
//Storyboard Layer 2 (Pass)
//Storyboard Layer 3 (Foreground)
//Storyboard Layer 4 (Overlay)
//Storyboard Sound Samples

[TimingPoints]
809,352.941176470588,4,2,2,50,1,0
809,-166.666666666667,4,2,2,50,0,0
6103,-250.000000000001,4,2,2,50,0,0
6456,-100,4,2,2,65,0,0
12103,-83.3333333333333,4,2,2,80,0,0
12191,-83.3333333333333,4,2,2,5,0,0
12279,-83.3333333333333,4,2,2,80,0,0
12897,-83.3333333333333,4,2,2,5,0,0
12985,-83.3333333333333,4,2,2,80,0,0
13603,-83.3333333333333,4,2,2,5,0,0
13690,-83.3333333333333,4,2,2,80,0,0
15014,-83.3333333333333,4,2,2,5,0,0
15102,-83.3333333333333,4,2,2,80,0,0
15720,-83.3333333333333,4,2,2,5,0,0
15808,-83.3333333333333,4,2,2,80,0,0
16426,-83.3333333333333,4,2,2,5,0,0
16514,-83.3333333333333,4,2,2,80,0,0
16603,-83.3333333333333,4,2,2,5,0,0
16691,-83.3333333333333,4,2,2,80,0,0
16779,-83.3333333333333,4,2,2,5,0,0
16867,-83.3333333333333,4,2,2,80,0,0
16956,-83.3333333333333,4,2,2,5,0,0
17044,-83.3333333333333,4,2,2,80,0,0
17220,-83.3333333333333,4,2,2,50,0,0
17397,-83.3333333333333,4,2,2,65,0,0
17750,-83.3333333333333,4,2,2,80,0,0
17838,-83.3333333333333,4,2,2,5,0,0
17926,-83.3333333333333,4,2,2,80,0,0
18544,-83.3333333333333,4,2,2,5,0,0
18632,-83.3333333333333,4,2,2,80,0,0
19250,-83.3333333333333,4,2,2,5,0,0
19338,-83.3333333333333,4,2,2,80,0,0
20661,-83.3333333333333,4,2,2,5,0,0
20750,-83.3333333333333,4,2,2,80,0,0
21367,-83.3333333333333,4,2,2,5,0,0
21456,-83.3333333333333,4,2,2,80,0,0
22073,-83.3333333333333,4,2,2,5,0,0
22161,-83.3333333333333,4,2,2,80,0,0
22250,-83.3333333333333,4,2,2,5,0,0
22338,-83.3333333333333,4,2,2,80,0,0
22426,-83.3333333333333,4,2,2,5,0,0
22514,-83.3333333333333,4,2,2,80,0,0
22603,-83.3333333333333,4,2,2,5,0,0
22691,-83.3333333333333,4,2,2,80,0,0
22867,-83.3333333333333,4,2,2,60,0,0
23044,-83.3333333333333,4,2,2,70,0,0
26220,-125,4,2,2,50,0,0
34691,-125,4,2,2,65,0,0
37867,-83.3333333333333,4,2,2,65,0,0
38220,-125,4,2,2,65,0,0
43691,-111.111111111111,4,2,2,65,0,0
44397,-100,4,2,2,65,0,0
45985,-71.4285714285714,4,2,2,88,0,0
46338,-83.3333333333333,4,2,2,88,0,0
51632,-71.4285714285714,4,2,2,88,0,0
51985,-83.3333333333333,4,2,2,88,0,0
57367,-83.3333333333333,4,2,2,5,0,0
57456,-83.3333333333333,4,2,2,88,0,0
60191,-83.3333333333333,4,2,2,5,0,0
60279,-83.3333333333333,4,2,2,88,0,0
63014,-83.3333333333333,4,2,2,5,0,0
63103,-83.3333333333333,4,2,2,88,0,0
68573,-83.3333333333333,4,2,2,80,0,0
68661,-83.3333333333333,4,2,2,5,0,0
68750,-83.3333333333333,4,2,2,80,0,0
69367,-83.3333333333333,4,2,2,5,0,0
69456,-83.3333333333333,4,2,2,80,0,0
70073,-83.3333333333333,4,2,2,5,0,0
70161,-83.3333333333333,4,2,2,80,0,0
71485,-83.3333333333333,4,2,2,5,0,0
71573,-83.3333333333333,4,2,2,80,0,0
72191,-83.3333333333333,4,2,2,5,0,0
72279,-83.3333333333333,4,2,2,80,0,0
72897,-83.3333333333333,4,2,2,5,0,0
72985,-83.3333333333333,4,2,2,80,0,0
73073,-83.3333333333333,4,2,2,5,0,0
73161,-83.3333333333333,4,2,2,80,0,0
73250,-83.3333333333333,4,2,2,5,0,0
73338,-83.3333333333333,4,2,2,80,0,0
73426,-83.3333333333333,4,2,2,5,0,0
73514,-83.3333333333333,4,2,2,80,0,0
73691,-83.3333333333333,4,2,2,50,0,0
73867,-83.3333333333333,4,2,2,65,0,0
74220,-83.3333333333333,4,2,2,80,0,0
74308,-83.3333333333333,4,2,2,5,0,0
74397,-83.3333333333333,4,2,2,80,0,0
75014,-83.3333333333333,4,2,2,5,0,0
75103,-83.3333333333333,4,2,2,80,0,0
75720,-83.3333333333333,4,2,2,5,0,0
75808,-83.3333333333333,4,2,2,80,0,0
77132,-83.3333333333333,4,2,2,5,0,0
77221,-83.3333333333333,4,2,2,80,0,0
77838,-83.3333333333333,4,2,2,5,0,0
77926,-83.3333333333333,4,2,2,80,0,0
78544,-83.3333333333333,4,2,2,5,0,0
78632,-83.3333333333333,4,2,2,80,0,0
78720,-83.3333333333333,4,2,2,5,0,0
78808,-83.3333333333333,4,2,2,80,0,0
78897,-83.3333333333333,4,2,2,5,0,0
78985,-83.3333333333333,4,2,2,80,0,0
79073,-83.3333333333333,4,2,2,5,0,0
79161,-83.3333333333333,4,2,2,80,0,0
79337,-83.3333333333333,4,2,2,60,0,0
79514,-83.3333333333333,4,2,2,70,0,0
79867,-166.666666666667,4,2,2,50,0,0
91161,-125,4,2,2,55,0,0
102456,-100,4,2,2,75,0,0
105279,-71.4285714285714,4,2,2,88,0,0
105632,-83.3333333333333,4,2,2,88,0,0
110926,-71.4285714285714,4,2,2,88,0,0
111279,-83.3333333333333,4,2,2,88,0,0
116661,-83.3333333333333,4,2,2,5,0,0
116750,-83.3333333333333,4,2,2,88,0,0
119485,-83.3333333333333,4,2,2,5,0,0
119573,-83.3333333333333,4,2,2,88,0,0
122308,-83.3333333333333,4,2,2,5,0,0
122397,-83.3333333333333,4,2,2,88,0,0
127867,-83.3333333333333,4,2,2,80,0,0
127956,-83.3333333333333,4,2,2,5,0,0
128044,-83.3333333333333,4,2,2,80,0,0
128661,-83.3333333333333,4,2,2,5,0,0
128750,-83.3333333333333,4,2,2,80,0,0
129367,-83.3333333333333,4,2,2,5,0,0
129456,-83.3333333333333,4,2,2,80,0,0
130779,-83.3333333333333,4,2,2,5,0,0
130867,-83.3333333333333,4,2,2,80,0,0
131485,-83.3333333333333,4,2,2,5,0,0
131573,-83.3333333333333,4,2,2,80,0,0
132191,-83.3333333333333,4,2,2,5,0,0
132279,-83.3333333333333,4,2,2,80,0,0
132367,-83.3333333333333,4,2,2,5,0,0
132456,-83.3333333333333,4,2,2,80,0,0
132544,-83.3333333333333,4,2,2,5,0,0
132632,-83.3333333333333,4,2,2,80,0,0
132720,-83.3333333333333,4,2,2,5,0,0
132808,-83.3333333333333,4,2,2,80,0,0
132985,-83.3333333333333,4,2,2,50,0,0
133161,-83.3333333333333,4,2,2,65,0,0
133514,-83.3333333333333,4,2,2,80,0,0
133603,-83.3333333333333,4,2,2,5,0,0
133691,-83.3333333333333,4,2,2,80,0,0
134308,-83.3333333333333,4,2,2,5,0,0
134397,-83.3333333333333,4,2,2,80,0,0
135014,-83.3333333333333,4,2,2,5,0,0
135103,-83.3333333333333,4,2,2,80,0,0
136426,-83.3333333333333,4,2,2,5,0,0
136515,-83.3333333333333,4,2,2,80,0,0
137132,-83.3333333333333,4,2,2,5,0,0
137220,-83.3333333333333,4,2,2,80,0,0
137838,-83.3333333333333,4,2,2,5,0,0
137926,-83.3333333333333,4,2,2,80,0,0
138014,-83.3333333333333,4,2,2,5,0,0
138103,-83.3333333333333,4,2,2,80,0,0
138191,-83.3333333333333,4,2,2,5,0,0
138279,-83.3333333333333,4,2,2,80,0,0
138367,-83.3333333333333,4,2,2,5,0,0
138456,-83.3333333333333,4,2,2,80,0,0
138631,-83.3333333333333,4,2,2,60,0,0
138808,-83.3333333333333,4,2,2,70,0,0

[Colours]
Combo1 : 180,240,245
Combo2 : 12,243,139
Combo3 : 0,208,238
Combo4 : 128,128,128
Combo5 : 213,213,213
Combo6 : 180,245,207

[HitObjects]
407,270,809,38,0,B|438:235|438:235|486:253,2,92.3999971801758,6|0|0,3:2|3:2|3:0,0:0:0:0:
473,367,1867,2,0,L|457:306,1,46.1999985900879,0|0,3:0|0:0,0:0:0:0:
331,244,2220,5,2,3:2:0:0:
329,255,2573,1,0,3:0:0:0:
327,266,2926,1,0,3:0:0:0:
325,277,3279,2,0,L|309:338,1,46.1999985900879,2|2,3:2|0:0,0:0:0:0:
171,384,3632,69,2,3:2:0:0:
171,384,3808,2,0,L|155:323,2,46.1999985900879,0|0|0,0:0|3:0|0:0,0:0:0:0:
234,322,4338,2,0,L|250:383,2,46.1999985900879,0|0|0,3:0|0:0|3:0,0:0:0:0:
179,265,4867,1,0,0:0:0:0:
179,265,5044,5,2,3:2:0:0:
229,204,5220,1,0,0:0:0:0:
187,137,5397,1,0,3:0:0:0:
110,156,5573,1,0,0:0:0:0:
105,235,5750,1,0,3:0:0:0:
0,95,6103,70,0,B|20:99|20:99|23:103|23:103|53:111,1,46.2,2|0,3:2|0:0,0:0:0:0:
54,103,6456,22,0,B|63:89|63:89|41:20,1,77,6|0,3:2|0:0,0:0:0:0:
152,72,6808,2,0,B|136:65|136:65|115:-3,1,77,2|0,1:2|0:0,0:0:0:0:
123,145,7161,1,0,3:0:0:0:
123,145,7514,1,2,1:2:0:0:
253,290,7867,6,0,B|244:276|244:276|266:207,1,77,2|0,3:2|0:0,0:0:0:0:
155,259,8219,2,0,B|170:252|170:252|191:183,1,77,2|0,1:2|0:0,0:0:0:0:
184,332,8572,1,2,3:2:0:0:
184,332,8925,1,2,1:2:0:0:
247,142,9103,1,0,0:0:0:0:
113,202,9279,70,0,L|162:217,1,38.5,2|0,3:2|0:0,0:0:0:0:
226,262,9456,1,0,3:0:0:0:
226,262,9544,1,0,3:0:0:0:
226,262,9632,2,0,L|275:247,1,38.5,0|0,1:0|1:0,0:0:0:0:
333,184,9808,5,0,1:0:0:0:
347,135,9897,1,0,1:0:0:0:
308,104,9985,1,2,1:2:0:0:
275,256,10161,1,2,1:2:0:0:
423,227,10338,2,0,P|430:202|420:225,1,77,2|2,1:2|0:0,0:0:0:0:
387,208,12103,6,0,L|446:224,1,46.1999985900879,6|0,3:2|0:0,0:0:0:0:
463,228,12279,1,0,0:0:0:0:
449,306,12456,2,0,L|354:280,1,92.3999971801759,0|0,1:0|0:0,0:0:0:0:
296,181,12808,6,0,L|280:240,1,46.1999985900879,2|0,3:2|0:0,0:0:0:0:
276,257,12984,1,0,0:0:0:0:
198,243,13161,2,0,L|224:148,1,92.3999971801759,0|0,1:0|0:0,0:0:0:0:
63,116,13514,70,0,L|122:132,1,46.1999985900879,2|0,3:2|0:0,0:0:0:0:
139,136,13690,1,0,0:0:0:0:
125,214,13867,2,0,L|30:188,1,92.3999971801759,0|0,1:0|0:0,0:0:0:0:
35,189,14220,5,2,3:2:0:0:
139,136,14397,1,0,0:0:0:0:
199,236,14573,1,0,1:0:0:0:
100,285,14750,1,2,0:0:0:0:
100,285,14838,1,2,0:0:0:0:
100,285,14926,70,0,L|41:301,1,46.1999985900879,2|0,3:2|0:0,0:0:0:0:
24,305,15102,1,0,0:0:0:0:
38,383,15279,2,0,L|133:357,1,92.3999971801759,0|0,1:0|0:0,0:0:0:0:
188,260,15631,6,0,L|204:319,1,46.1999985900879,2|0,3:2|0:0,0:0:0:0:
208,336,15807,1,0,0:0:0:0:
286,322,15984,2,0,L|260:227,1,92.3999971801759,0|0,1:0|0:0,0:0:0:0:
424,193,16338,70,0,L|365:209,1,46.1999985900879,2|0,3:2|0:0,0:0:0:0:
348,213,16514,2,0,L|364:272,1,46.1999985900879,2|0,0:0|0:0,0:0:0:0:
368,289,16691,2,0,L|427:273,1,46.1999985900879,2|0,1:2|0:0,0:0:0:0:
444,269,16867,2,0,L|428:210,1,46.1999985900879,2|0,0:0|0:0,0:0:0:0:
424,193,17044,1,2,3:2:0:0:
316,126,17220,5,0,1:0:0:0:
316,126,17309,1,0,1:0:0:0:
316,126,17397,2,0,L|257:143,1,46.1999985900879,0|0,1:0|1:0,0:0:0:0:
403,101,17573,1,0,1:0:0:0:
403,101,17661,1,0,1:0:0:0:
403,101,17750,70,0,L|462:84,1,46.1999985900879,6|0,3:2|0:0,0:0:0:0:
479,80,17926,1,0,0:0:0:0:
465,1,18103,2,0,L|368:27,1,92.3999971801759,0|0,1:0|0:0,0:0:0:0:
312,121,18456,6,0,L|295:62,1,46.1999985900879,2|0,3:2|0:0,0:0:0:0:
292,45,18632,1,0,0:0:0:0:
213,59,18809,2,0,L|239:156,1,92.3999971801759,0|0,1:0|0:0,0:0:0:0:
77,192,19161,70,0,L|136:175,1,46.1999985900879,2|0,3:2|0:0,0:0:0:0:
154,171,19337,1,0,0:0:0:0:
139,92,19514,2,0,L|42:118,1,92.3999971801759,0|0,1:0|0:0,0:0:0:0:
49,115,19867,5,2,3:2:0:0:
110,22,20044,1,0,0:0:0:0:
212,71,20220,1,0,1:0:0:0:
154,171,20397,1,2,0:0:0:0:
154,171,20485,1,2,0:0:0:0:
154,171,20573,70,0,L|94:154,1,46.1999985900879,2|0,3:2|0:0,0:0:0:0:
78,150,20749,1,0,0:0:0:0:
92,71,20926,2,0,L|188:97,1,92.3999971801759,0|0,1:0|0:0,0:0:0:0:
241,195,21279,6,0,L|258:135,1,46.1999985900879,2|0,3:2|0:0,0:0:0:0:
261,119,21455,1,0,0:0:0:0:
340,133,21632,2,0,L|314:229,1,92.3999971801759,0|0,1:0|0:0,0:0:0:0:
480,262,21984,70,0,L|420:245,1,46.1999985900879,2|0,3:2|0:0,0:0:0:0:
403,241,22161,2,0,L|419:181,1,46.1999985900879,2|0,0:0|0:0,0:0:0:0:
424,164,22338,2,0,L|483:180,1,46.1999985900879,2|0,1:2|0:0,0:0:0:0:
501,185,22514,2,0,L|484:244,1,46.1999985900879,2|0,0:0|0:0,0:0:0:0:
480,262,22691,1,2,3:2:0:0:
457,362,22867,5,0,1:0:0:0:
457,362,22955,1,0,1:0:0:0:
457,362,23044,2,0,L|397:345,1,46.1999985900879,0|0,1:0|1:0,0:0:0:0:
334,289,23220,1,0,1:0:0:0:
304,324,23308,1,0,1:0:0:0:
317,367,23396,1,0,3:0:0:0:
317,367,26220,6,0,P|281:321|211:313,1,123.2,2|0,3:2|3:0,0:0:0:0:
147,342,26750,2,0,P|173:378|196:387,2,61.6,2|0|0,0:0|3:0|0:0,0:0:0:0:
157,266,27279,1,2,3:2:0:0:
157,266,27456,1,0,0:0:0:0:
17,310,27632,6,0,P|50:299|76:292,1,61.6,2|0,3:2|0:0,0:0:0:0:
130,145,27985,1,0,3:0:0:0:
51,205,28161,2,0,P|80:213|178:250,1,123.2,2|0,0:0|0:0,0:0:0:0:
257,150,28691,2,0,P|246:178|238:208,1,61.6,0|0,3:0|0:0,0:0:0:0:
98,136,29044,69,2,3:2:0:0:
98,136,29220,2,0,P|140:94|209:111,1,123.2,0|2,0:0|0:0,0:0:0:0:
288,13,29750,2,0,P|277:41|269:71,1,61.6,2|0,3:2|0:0,0:0:0:0:
300,148,30103,1,2,3:2:0:0:
300,148,30279,1,0,0:0:0:0:
335,269,30456,6,0,P|346:241|354:211,1,61.6,2|0,3:2|0:0,0:0:0:0:
428,174,30808,1,0,3:0:0:0:
490,316,30985,2,0,P|453:345|381:336,1,123.2,2|0,0:0|0:0,0:0:0:0:
438,252,31514,2,0,P|467:242|497:235,1,61.6,2|0,3:2|0:0,0:0:0:0:
385,188,31867,69,2,3:2:0:0:
385,188,32044,1,0,0:0:0:0:
358,260,32220,1,0,3:0:0:0:
460,165,32397,2,0,P|450:135|443:105,1,61.6,2|0,0:0|3:0,0:0:0:0:
489,46,32750,1,0,0:0:0:0:
286,114,33103,5,0,0:0:0:0:
350,68,33279,2,0,P|359:97|366:127,1,61.6,2|0,3:2|0:0,0:0:0:0:
423,183,33632,1,0,3:0:0:0:
390,252,33808,1,2,0:0:0:0:
319,234,33985,69,2,3:2:0:0:
319,234,34073,1,0,3:0:0:0:
319,234,34161,2,0,P|298:226|268:219,1,30.8,2|0,3:0|3:0,0:0:0:0:
226,180,34338,1,0,1:0:0:0:
197,191,34426,1,0,1:0:0:0:
168,203,34514,1,0,1:0:0:0:
65,143,34691,22,0,P|88:211|106:270,1,123.2,6|0,3:2|3:0,0:0:0:0:
23,259,35220,1,2,0:0:0:0:
150,319,35397,2,0,P|178:277|176:242,1,61.6,2|0,3:2|0:0,0:0:0:0:
103,260,35750,1,0,3:0:0:0:
67,336,35926,6,0,P|140:357|183:389,1,123.2,2|0,0:0|0:0,0:0:0:0:
289,301,36456,2,0,P|255:322|239:353,1,61.6,2|0,3:2|0:0,0:0:0:0:
313,375,36808,1,2,3:2:0:0:
145,239,36985,70,0,P|196:258|216:266,1,61.6,0|2,0:0|3:2,0:0:0:0:
276,220,37338,1,2,0:0:0:0:
276,220,37426,1,2,0:0:0:0:
276,220,37514,1,2,3:2:0:0:
276,220,37867,6,0,L|417:263,1,138.599995770264,6|0,3:2|0:0,0:0:0:0:
471,328,38220,2,0,P|435:335|405:367,1,61.6,2|0,3:2|0:0,0:0:0:0:
490,249,38573,1,2,3:2:0:0:
490,249,38750,1,0,0:0:0:0:
392,201,38926,70,0,P|405:244|411:281,1,61.6,2|0,3:2|0:0,0:0:0:0:
509,152,39279,2,0,P|496:109|490:72,1,61.6,2|0,3:2|0:0,0:0:0:0:
351,65,39632,1,2,3:2:0:0:
415,120,39808,1,0,0:0:0:0:
431,38,39985,1,2,3:2:0:0:
431,38,40161,1,2,0:0:0:0:
340,144,40338,6,0,P|280:144|240:97,1,123.2,2|0,3:2|3:0,0:0:0:0:
284,32,40867,1,0,0:0:0:0:
150,13,41044,2,0,P|164:56|168:86,1,61.6,2|2,3:2|0:0,0:0:0:0:
240,99,41397,1,0,3:0:0:0:
107,170,41573,70,0,P|96:140|87:99,2,61.6,2|0|0,0:0|3:0|0:0,0:0:0:0:
91,283,42103,1,0,3:0:0:0:
207,213,42279,2,0,P|176:218|148:231,1,61.6,2|0,0:2|3:2,0:0:0:0:
6,344,42632,6,0,P|50:354|71:365,1,61.6,2|0,0:0|3:2,0:0:0:0:
214,384,42985,1,2,0:0:0:0:
220,381,43073,1,2,0:0:0:0:
227,378,43161,70,0,P|219:333|206:319,2,61.6,2|0|0,3:2|0:0|3:0,0:0:0:0:
347,334,43691,1,2,0:0:0:0:
349,327,43779,1,2,0:0:0:0:
351,320,43867,6,0,P|314:292|289:292,2,69.2999978851319,2|0|0,3:2|0:0|3:0,0:0:0:0:
414,200,44397,1,2,0:0:0:0:
410,193,44485,1,2,0:0:0:0:
406,187,44573,70,0,P|360:193|339:215,1,77,2|0,3:2|3:0,0:0:0:0:
249,200,44926,1,0,3:0:0:0:
253,210,45014,1,0,3:0:0:0:
257,220,45102,1,0,3:0:0:0:
260,232,45190,1,0,3:0:0:0:
263,243,45278,1,2,3:2:0:0:
298,138,45456,1,2,3:2:0:0:
298,138,45985,38,0,B|343:137|371:176|351:189|378:230|431:238,1,161.699995065308,6|0,3:2|0:0,0:0:0:0:
512,128,46338,2,0,P|456:131|438:162,1,92.3999971801759,2|0,1:2|0:0,0:0:0:0:
427,328,46691,2,0,P|468:307|512:293,1,92.3999971801759,2|0,3:2|0:0,0:0:0:0:
288,215,47044,1,2,1:2:0:0:
322,313,47220,69,2,0:0:0:0:
322,313,47308,1,2,0:0:0:0:
322,313,47397,1,2,3:2:0:0:
384,227,47573,1,0,0:0:0:0:
218,163,47750,6,0,P|274:199|306:236,1,92.3999971801759,2|0,1:2|0:0,0:0:0:0:
429,107,48103,2,0,P|369:137|320:146,1,92.3999971801759,2|0,3:2|0:0,0:0:0:0:
373,318,48456,2,0,P|376:251|392:204,1,92.3999971801759,2|2,1:2|0:0,0:0:0:0:
404,215,48720,1,2,0:0:0:0:
404,215,48808,1,0,3:0:0:0:
338,63,48985,69,2,0:0:0:0:
286,121,49161,1,2,1:2:0:0:
311,195,49338,1,2,0:0:0:0:
363,137,49514,5,2,3:2:0:0:
234,179,49691,1,2,0:0:0:0:
286,121,49867,1,2,1:2:0:0:
311,195,50044,1,2,0:0:0:0:
164,275,50220,69,2,3:2:0:0:
318,325,50397,1,2,0:0:0:0:
256,255,50573,1,2,1:2:0:0:
226,344,50750,1,2,0:0:0:0:
74,299,50926,6,0,P|124:286|185:268,1,92.3999971801759,2|0,3:2|0:0,0:0:0:0:
339,202,51279,1,2,1:2:0:0:
310,168,51367,1,0,1:0:0:0:
270,157,51455,1,0,1:0:0:0:
232,173,51543,1,0,1:0:0:0:
221,188,51632,70,0,P|242:257|265:352,1,161.699995065308,6|0,3:2|0:0,0:0:0:0:
333,384,51985,2,0,P|340:338|362:289,1,92.3999971801759,2|0,1:2|0:0,0:0:0:0:
409,190,52338,2,0,P|365:206|312:211,1,92.3999971801759,2|0,3:2|0:0,0:0:0:0:
204,221,52691,2,0,P|239:250|270:293,1,92.3999971801759,2|2,1:2|0:0,0:0:0:0:
262,307,52956,1,2,0:0:0:0:
262,307,53044,1,2,3:2:0:0:
320,211,53220,1,0,0:0:0:0:
266,287,53397,6,0,P|239:250|204:221,1,92.3999971801759,2|0,1:2|0:0,0:0:0:0:
357,295,53750,2,0,P|339:338|333:384,1,92.3999971801759,2|0,3:2|0:0,0:0:0:0:
319,211,54103,2,0,P|365:205|409:190,1,92.3999971801759,2|0,1:2|0:0,0:0:0:0:
438,200,54367,1,2,0:0:0:0:
438,200,54456,1,0,3:0:0:0:
390,96,54632,70,0,P|344:101|301:117,1,92.3999971801759,2|0,0:0|1:0,0:0:0:0:
237,159,54985,1,2,0:0:0:0:
358,181,55161,1,2,3:2:0:0:
321,21,55338,1,2,0:0:0:0:
321,21,55426,1,2,0:0:0:0:
321,21,55514,1,2,1:2:0:0:
109,87,55691,6,0,B|161:75|161:75|191:89|191:89|260:75,1,138.599995770264,6|0,3:2|0:0,0:0:0:0:
269,91,56044,1,2,3:2:0:0:
97,0,56220,69,2,3:2:0:0:
145,160,56397,1,0,3:0:0:0:
216,5,56573,1,2,1:2:0:0:
0,120,56926,5,2,1:2:0:0:
1,120,57279,2,0,P|37:130|74:145,1,46.1999985900879,4|0,3:2|0:0,0:0:0:0:
96,198,57456,37,2,0:0:0:0:
96,198,57632,1,0,1:0:0:0:
175,170,57808,5,2,0:0:0:0:
175,170,57985,1,0,3:0:0:0:
171,91,58162,69,2,0:0:0:0:
171,91,58338,1,0,1:0:0:0:
92,67,58514,5,2,0:0:0:0:
92,67,58691,1,0,3:0:0:0:
16,200,58867,6,0,P|31:256|42:308,1,92.3999971801759,2|0,0:0|1:0,0:0:0:0:
191,340,59220,1,2,0:0:0:0:
123,300,59397,1,2,3:2:0:0:
78,368,59573,1,2,0:0:0:0:
78,368,59662,1,2,0:0:0:0:
78,368,59750,5,2,1:2:0:0:
191,340,59926,1,0,0:0:0:0:
304,312,60103,2,0,L|375:293,1,46.1999985900879,0|0,3:0|0:0,0:0:0:0:
411,249,60279,37,2,0:0:0:0:
411,249,60456,1,0,1:0:0:0:
484,287,60632,5,2,0:0:0:0:
484,287,60808,1,0,3:0:0:0:
470,368,60985,69,2,0:0:0:0:
470,368,61161,1,0,1:0:0:0:
389,379,61338,5,2,0:0:0:0:
389,379,61514,1,0,3:0:0:0:
477,205,61691,6,0,P|460:150|446:99,1,92.3999971801759,2|0,0:0|1:0,0:0:0:0:
405,245,62044,1,2,0:0:0:0:
512,64,62220,5,2,3:2:0:0:
385,167,62397,1,2,0:0:0:0:
395,56,62574,1,2,1:2:0:0:
470,146,62750,1,0,3:0:0:0:
382,46,62926,2,0,P|355:55|327:63,1,46.1999985900879,4|0,3:2|0:0,0:0:0:0:
257,32,63103,37,2,0:0:0:0:
257,32,63279,1,0,1:0:0:0:
199,93,63456,5,2,0:0:0:0:
199,93,63632,1,0,3:0:0:0:
242,167,63808,69,2,0:0:0:0:
242,167,63984,1,0,1:0:0:0:
325,148,64162,5,2,0:0:0:0:
325,148,64338,1,0,3:0:0:0:
176,10,64514,6,0,P|125:24|53:40,1,92.3999971801759,2|0,0:0|1:0,0:0:0:0:
9,176,64867,1,2,0:0:0:0:
0,94,65044,2,0,P|46:102|81:133,1,92.3999971801759,2|0,3:2|0:0,0:0:0:0:
95,153,65308,1,0,0:0:0:0:
95,153,65397,1,2,1:2:0:0:
175,111,65573,1,0,0:0:0:0:
208,265,65750,6,0,P|229:194|250:148,2,92.3999971801759,0|2|0,3:2|0:0|1:0,0:0:0:0:
85,364,66279,1,2,0:0:0:0:
116,282,66456,1,2,3:2:0:0:
180,353,66632,1,2,0:0:0:0:
180,353,66720,1,2,0:0:0:0:
180,353,66808,1,2,1:2:0:0:
32,297,66985,69,6,3:2:0:0:
236,204,67338,1,2,1:2:0:0:
88,148,67514,1,2,1:2:0:0:
179,363,67867,1,2,1:2:0:0:
0,294,68573,6,0,L|12:237,1,46.1999985900879,6|0,3:2|0:0,0:0:0:0:
73,331,68750,1,0,0:0:0:0:
94,241,68926,2,0,L|73:334,1,92.3999971801759,0|0,1:0|0:0,0:0:0:0:
220,351,69279,70,0,L|163:339,1,46.1999985900879,2|0,3:2|0:0,0:0:0:0:
258,277,69456,1,0,0:0:0:0:
167,257,69632,2,0,L|260:278,1,92.3999971801759,0|0,1:0|0:0,0:0:0:0:
319,347,69985,6,0,L|331:290,1,46.1999985900879,2|0,3:2|0:0,0:0:0:0:
392,384,70162,1,0,0:0:0:0:
413,294,70338,2,0,L|392:387,1,92.3999971801759,0|0,1:0|0:0,0:0:0:0:
393,384,70691,69,2,3:2:0:0:
328,301,70867,1,0,0:0:0:0:
487,338,71044,1,0,1:0:0:0:
502,227,71220,1,2,0:0:0:0:
502,227,71308,1,2,0:0:0:0:
502,227,71396,6,0,L|489:170,1,46.1999985900879,2|0,3:2|0:0,0:0:0:0:
427,264,71574,1,0,0:0:0:0:
408,174,71750,2,0,L|428:267,1,92.3999971801759,0|0,1:0|0:0,0:0:0:0:
283,288,72103,70,0,L|340:275,1,46.1999985900879,2|0,3:2|0:0,0:0:0:0:
246,213,72280,1,0,0:0:0:0:
336,194,72456,2,0,L|243:214,1,92.3999971801759,0|0,1:0|0:0,0:0:0:0:
189,282,72809,6,0,L|176:225,1,46.1999985900879,2|0,3:2|0:0,0:0:0:0:
103,254,72985,2,0,L|115:310,1,46.1999985900879,2|0,0:0|0:0,0:0:0:0:
160,225,73161,2,0,L|103:237,1,46.1999985900879,2|0,1:2|0:0,0:0:0:0:
132,311,73337,2,0,L|188:298,1,46.1999985900879,2|0,0:0|0:0,0:0:0:0:
145,268,73514,1,2,3:2:0:0:
18,272,73691,69,0,1:0:0:0:
18,272,73779,1,0,1:0:0:0:
18,272,73867,2,0,L|5:215,1,46.1999985900879,0|0,1:0|1:0,0:0:0:0:
21,90,74044,1,0,1:0:0:0:
21,90,74132,1,0,1:0:0:0:
21,90,74220,6,0,L|33:147,1,46.1999985900879,6|0,3:2|0:0,0:0:0:0:
94,52,74397,1,0,0:0:0:0:
115,143,74573,2,0,L|94:50,1,92.3999971801759,0|0,1:0|0:0,0:0:0:0:
237,26,74926,70,0,L|180:38,1,46.1999985900879,2|0,3:2|0:0,0:0:0:0:
275,99,75103,1,0,0:0:0:0:
184,120,75279,2,0,L|277:99,1,92.3999971801759,0|0,1:0|0:0,0:0:0:0:
336,38,75632,6,0,L|348:95,1,46.1999985900879,2|0,3:2|0:0,0:0:0:0:
409,0,75809,1,0,0:0:0:0:
430,91,75985,2,0,L|409:-2,1,92.3999971801759,0|0,1:0|0:0,0:0:0:0:
409,0,76338,69,2,3:2:0:0:
345,84,76514,1,0,0:0:0:0:
504,47,76691,1,0,1:0:0:0:
447,174,76867,1,2,0:0:0:0:
447,174,76956,1,2,0:0:0:0:
447,174,77044,6,0,L|434:231,1,46.1999985900879,2|0,3:2|0:0,0:0:0:0:
372,136,77221,1,0,0:0:0:0:
353,227,77397,2,0,L|373:134,1,92.3999971801759,0|0,1:0|0:0,0:0:0:0:
230,112,77750,70,0,L|287:125,1,46.1999985900879,2|0,3:2|0:0,0:0:0:0:
192,187,77927,1,0,0:0:0:0:
283,206,78103,2,0,L|190:186,1,92.3999971801759,0|0,1:0|0:0,0:0:0:0:
132,117,78456,6,0,L|119:174,1,46.1999985900879,2|0,3:2|0:0,0:0:0:0:
46,145,78632,2,0,L|58:89,1,46.1999985900879,2|0,0:0|0:0,0:0:0:0:
103,174,78808,2,0,L|46:162,1,46.1999985900879,2|0,1:2|0:0,0:0:0:0:
75,88,78984,2,0,L|131:101,1,46.1999985900879,2|0,0:0|0:0,0:0:0:0:
88,131,79161,1,2,3:2:0:0:
5,219,79338,69,0,1:0:0:0:
5,219,79426,1,0,1:0:0:0:
5,219,79514,2,0,P|16:257|24:282,1,46.1999985900879,0|0,1:0|1:0,0:0:0:0:
0,352,79691,1,0,1:0:0:0:
45,362,79779,1,0,1:0:0:0:
79,331,79867,21,6,3:2:0:0:
148,361,80220,1,0,3:2:0:0:
200,309,80573,1,2,3:2:0:0:
270,346,80926,1,2,3:2:0:0:
270,346,81103,6,0,P|303:356|330:372,1,46.1999985900879,2|2,0:0|3:2,0:0:0:0:
382,325,81456,2,0,P|392:292|408:265,1,46.1999985900879,0|0,0:0|3:0,0:0:0:0:
463,245,81808,2,0,P|496:255|523:271,2,46.1999985900879,2|0|0,0:0|3:2|0:0,0:0:0:0:
408,193,82338,1,2,3:2:0:0:
408,193,82514,1,2,0:0:0:0:
334,220,82691,70,0,P|301:144|290:127,1,92.3999971801759,2|0,3:2|3:2,0:0:0:0:
244,81,83220,1,0,0:0:0:0:
281,12,83397,2,0,P|311:4|341:8,1,46.1999985900879,2|0,3:2|0:0,0:0:0:0:
391,48,83750,2,0,P|380:81|375:103,1,46.1999985900879,2|2,3:2|0:0,0:0:0:0:
417,160,84103,5,2,3:2:0:0:
493,143,84279,1,0,0:0:0:0:
485,65,84456,1,0,3:2:0:0:
342,159,84808,2,0,P|296:174|247:195,1,92.3999971801759,2|2,3:2|3:2,0:0:0:0:
188,226,85338,1,2,0:0:0:0:
103,113,85514,70,0,P|149:128|198:149,1,92.3999971801759,2|0,3:2|3:2,0:0:0:0:
259,110,86044,1,0,0:0:0:0:
223,38,86220,2,0,P|199:44|165:68,1,46.1999985900879,2|0,3:2|0:0,0:0:0:0:
110,22,86573,1,2,3:2:0:0:
64,83,86750,1,2,0:0:0:0:
0,218,87103,6,0,P|24:224|58:248,1,46.1999985900879,2|0,0:0|3:0,0:0:0:0:
107,276,87456,1,0,0:0:0:0:
171,228,87632,2,0,P|174:201|186:166,1,46.1999985900879,2|0,3:2|0:0,0:0:0:0:
124,133,87985,1,2,3:2:0:0:
124,133,88161,1,2,0:0:0:0:
49,159,88338,70,0,P|47:200|35:251,1,92.3999971801759,2|0,3:2|3:2,0:0:0:0:
0,317,88867,1,0,0:0:0:0:
69,354,89044,2,0,P|101:343|131:336,1,46.1999985900879,2|0,3:2|0:0,0:0:0:0:
184,364,89397,1,2,3:2:0:0:
229,304,89573,6,0,P|217:269|212:242,2,46.1999985900879,2|2|0,0:0|3:2|0:0,0:0:0:0:
299,336,90103,1,2,3:2:0:0:
367,302,90279,1,0,0:0:0:0:
415,361,90456,1,2,3:2:0:0:
468,228,90808,1,2,3:2:0:0:
468,228,91161,6,0,P|450:265|438:302,1,61.6,2|0,3:2|0:0,0:0:0:0:
389,186,91514,2,0,P|407:149|419:112,1,61.6,2|0,3:2|0:0,0:0:0:0:
265,228,91867,2,0,P|324:246|365:306,1,123.2,2|2,3:2|3:2,0:0:0:0:
218,337,92397,6,0,P|257:317|292:307,1,61.6,2|0,0:0|3:0,0:0:0:0:
190,259,92750,2,0,P|151:279|116:289,1,61.6,2|0,0:0|3:0,0:0:0:0:
221,113,93103,2,0,P|237:165|267:232,1,123.2,2|2,0:0|0:0,0:0:0:0:
105,214,93632,69,2,3:2:0:0:
146,151,93808,1,2,0:0:0:0:
4,186,93985,6,0,P|20:212|30:240,1,61.6,0|0,3:0|0:0,0:0:0:0:
32,322,94338,1,2,3:2:0:0:
32,322,94514,1,2,0:0:0:0:
104,286,94691,1,0,3:2:0:0:
104,286,94867,1,2,0:0:0:0:
141,384,95044,2,0,P|151:355|167:329,1,61.6,2|2,3:2|0:0,0:0:0:0:
292,228,95397,69,0,3:2:0:0:
238,283,95573,1,2,0:0:0:0:
171,252,95750,1,2,3:2:0:0:
194,69,96103,2,0,P|212:129|227:207,1,123.2,2|2,3:2|3:2,0:0:0:0:
288,111,96632,1,2,0:0:0:0:
135,143,96808,6,0,P|93:153|65:164,1,61.6,2|2,3:2|0:0,0:0:0:0:
10,118,97161,1,2,3:2:0:0:
7,108,97338,1,0,0:0:0:0:
24,70,97514,1,2,3:2:0:0:
68,35,97691,1,2,0:0:0:0:
144,46,97867,1,2,3:2:0:0:
227,112,98044,2,0,P|215:157|215:190,1,61.6,2|0,0:0|3:0,0:0:0:0:
280,290,98397,70,0,P|289:261|293:231,1,61.6,2|0,0:0|3:0,0:0:0:0:
363,356,98750,1,0,0:0:0:0:
439,367,98926,1,2,3:2:0:0:
483,332,99103,1,2,0:0:0:0:
500,294,99279,1,2,3:2:0:0:
495,282,99456,1,2,0:0:0:0:
433,240,99632,6,0,P|403:249|373:256,2,61.6,0|2|2,3:0|0:0|3:2,0:0:0:0:
473,173,100161,1,2,0:0:0:0:
346,101,100338,69,2,3:2:0:0:
396,164,100514,1,0,0:0:0:0:
422,91,100691,1,2,3:2:0:0:
318,174,100867,1,2,0:0:0:0:
208,99,101044,6,0,L|293:118,1,61.6,2|2,3:2|0:0,0:0:0:0:
161,226,101397,1,2,3:2:0:0:
142,152,101573,1,2,0:0:0:0:
296,190,101750,2,0,L|237:254,1,61.6,2|0,3:2|0:0,0:0:0:0:
196,299,102103,1,2,3:2:0:0:
0,384,102456,70,0,P|37:360|82:366,1,77,6|0,3:2|0:0,0:0:0:0:
93,379,102720,1,0,3:0:0:0:
93,379,102808,1,0,1:0:0:0:
154,321,102985,2,0,P|146:293|136:262,1,38.5,0|0,3:0|0:0,0:0:0:0:
289,212,103161,6,0,P|252:236|207:230,1,77,2|0,3:2|0:0,0:0:0:0:
200,223,103425,1,0,3:0:0:0:
200,223,103513,1,0,1:0:0:0:
136,150,103691,2,0,P|144:122|154:91,1,38.5,0|0,3:0|0:0,0:0:0:0:
18,0,103867,69,2,3:2:0:0:
75,71,104044,1,0,3:0:0:0:
75,71,104132,1,0,3:0:0:0:
75,71,104220,1,0,1:0:0:0:
149,27,104397,1,0,3:0:0:0:
149,27,104485,1,0,3:0:0:0:
149,27,104573,1,2,1:2:0:0:
214,189,104750,5,2,1:2:0:0:
214,189,105279,6,0,P|132:206|88:296,1,161.699995065308,6|0,3:2|0:0,0:0:0:0:
5,297,105632,2,0,P|67:312|87:345,1,92.3999971801759,2|0,1:2|0:0,0:0:0:0:
209,368,105985,2,0,P|194:312|178:257,1,92.3999971801759,2|0,3:2|0:0,0:0:0:0:
139,128,106338,1,2,1:2:0:0:
110,222,106514,1,2,0:0:0:0:
110,222,106603,1,2,0:0:0:0:
110,222,106691,5,2,3:2:0:0:
216,184,106867,1,0,0:0:0:0:
90,50,107044,70,0,P|121:88|140:136,1,92.3999971801759,2|0,1:2|0:0,0:0:0:0:
310,98,107397,2,0,P|261:106|209:98,1,92.3999971801759,2|0,3:2|0:0,0:0:0:0:
159,266,107750,2,0,P|175:219|209:179,1,92.3999971801759,2|2,1:2|0:0,0:0:0:0:
224,188,108014,1,2,0:0:0:0:
224,188,108103,1,0,3:0:0:0:
291,293,108279,5,2,0:0:0:0:
220,319,108456,1,2,1:2:0:0:
149,345,108632,1,2,0:0:0:0:
291,293,108808,69,2,3:2:0:0:
416,238,108985,1,2,0:0:0:0:
370,303,109161,1,2,1:2:0:0:
337,227,109338,1,2,0:0:0:0:
480,149,109514,5,2,3:2:0:0:
330,82,109691,1,2,0:0:0:0:
385,161,109867,1,2,1:2:0:0:
424,69,110044,1,2,0:0:0:0:
225,15,110220,70,0,P|240:58|253:103,1,92.3999971801759,2|0,3:2|0:0,0:0:0:0:
346,277,110573,1,2,1:2:0:0:
384,250,110661,1,0,1:0:0:0:
401,206,110749,1,0,1:0:0:0:
386,161,110837,1,0,1:0:0:0:
370,153,110926,6,0,P|300:171|204:207,1,161.699995065308,6|0,3:2|0:0,0:0:0:0:
185,273,111279,2,0,P|233:283|282:303,1,92.3999971801759,2|0,1:2|0:0,0:0:0:0:
375,355,111632,2,0,P|359:306|352:254,1,92.3999971801759,2|0,3:2|0:0,0:0:0:0:
352,149,111985,2,0,P|317:186|275:217,1,92.3999971801759,2|2,1:2|0:0,0:0:0:0:
272,215,112250,1,2,0:0:0:0:
272,215,112338,1,2,3:2:0:0:
353,265,112514,1,0,0:0:0:0:
285,212,112691,70,0,P|320:183|351:149,1,92.3999971801759,2|0,1:2|0:0,0:0:0:0:
272,298,113044,2,0,P|229:281|184:272,1,92.3999971801759,2|0,3:2|0:0,0:0:0:0:
353,265,113397,2,0,P|359:310|374:354,1,92.3999971801759,2|0,1:2|0:0,0:0:0:0:
393,376,113661,1,2,0:0:0:0:
393,376,113750,1,0,3:0:0:0:
491,334,113926,6,0,P|484:288|469:244,1,92.3999971801759,2|0,0:0|1:0,0:0:0:0:
512,163,114279,1,2,0:0:0:0:
355,107,114456,69,2,3:2:0:0:
393,194,114632,1,2,0:0:0:0:
393,194,114720,1,2,0:0:0:0:
393,194,114808,1,2,1:2:0:0:
139,173,114985,6,0,B|192:164|192:164|220:178|220:178|284:166,1,138.599995770264,6|0,3:2|0:0,0:0:0:0:
296,178,115338,1,2,3:2:0:0:
143,251,115514,69,2,3:2:0:0:
242,91,115691,1,0,3:0:0:0:
283,273,115867,1,2,1:2:0:0:
73,104,116220,5,2,1:2:0:0:
73,104,116573,2,0,L|-5:124,1,46.1999985900879,4|0,3:2|0:0,0:0:0:0:
10,193,116750,37,2,0:0:0:0:
10,193,116926,1,0,1:0:0:0:
82,237,117103,5,2,0:0:0:0:
82,237,117279,1,0,3:0:0:0:
142,184,117456,69,2,0:0:0:0:
142,184,117632,1,0,1:0:0:0:
111,109,117809,5,2,0:0:0:0:
111,109,117985,1,0,3:0:0:0:
13,273,118161,6,0,P|33:330|38:370,1,92.3999971801759,2|0,0:0|1:0,0:0:0:0:
171,283,118514,1,2,0:0:0:0:
98,239,118691,1,2,3:2:0:0:
199,108,118867,1,2,0:0:0:0:
199,108,118956,1,2,0:0:0:0:
199,108,119044,2,0,P|179:165|174:205,1,92.3999971801759,2|0,1:2|0:0,0:0:0:0:
334,315,119397,6,0,L|314:237,1,46.1999985900879,0|0,3:0|0:0,0:0:0:0:
245,252,119574,37,2,0:0:0:0:
245,252,119750,1,0,1:0:0:0:
201,324,119927,5,2,0:0:0:0:
201,324,120103,1,0,3:0:0:0:
254,384,120280,69,2,0:0:0:0:
254,384,120456,1,0,1:0:0:0:
329,353,120633,5,2,0:0:0:0:
329,353,120809,1,0,3:0:0:0:
430,209,120985,6,0,P|407:286|403:316,1,92.3999971801759,2|0,0:0|1:0,0:0:0:0:
358,164,121338,1,2,0:0:0:0:
512,227,121514,1,2,3:2:0:0:
425,111,121691,1,2,0:0:0:0:
499,144,121867,1,2,1:2:0:0:
509,16,122044,5,0,3:0:0:0:
509,16,122132,1,0,3:0:0:0:
509,16,122220,2,0,L|480:83,1,46.1999985900879,4|0,3:2|0:0,0:0:0:0:
425,111,122397,37,2,0:0:0:0:
425,111,122573,1,0,1:0:0:0:
372,40,122750,5,2,0:0:0:0:
372,40,122926,1,0,3:0:0:0:
292,77,123103,69,2,0:0:0:0:
292,77,123279,1,0,1:0:0:0:
239,6,123456,5,2,0:0:0:0:
239,6,123632,1,0,3:0:0:0:
340,147,123808,6,0,P|282:165|225:192,1,92.3999971801759,2|0,0:0|1:0,0:0:0:0:
95,123,124161,1,2,0:0:0:0:
148,54,124338,2,0,P|181:112|177:144,1,92.3999971801759,2|0,3:2|0:0,0:0:0:0:
170,165,124603,1,0,0:0:0:0:
170,165,124691,1,2,1:2:0:0:
21,87,124867,1,0,0:0:0:0:
0,247,125044,6,0,P|46:225|90:210,2,92.3999971801759,0|2|0,3:2|0:0|1:0,0:0:0:0:
95,123,125573,1,2,0:0:0:0:
66,310,125750,1,2,3:2:0:0:
227,241,125926,1,2,0:0:0:0:
227,241,126014,1,2,0:0:0:0:
227,241,126103,1,2,1:2:0:0:
133,233,126279,69,6,3:2:0:0:
366,182,126632,1,2,1:2:0:0:
279,316,126808,1,2,1:2:0:0:
233,95,127161,1,2,1:2:0:0:
80,175,127867,6,0,L|21:159,1,46.1999985900879,6|0,3:2|0:0,0:0:0:0:
4,155,128044,1,0,0:0:0:0:
18,77,128220,2,0,L|113:103,1,92.3999971801759,0|0,1:0|0:0,0:0:0:0:
169,203,128573,70,0,L|185:144,1,46.1999985900879,2|0,3:2|0:0,0:0:0:0:
189,127,128750,1,0,0:0:0:0:
267,141,128926,2,0,L|241:236,1,92.3999971801759,0|0,1:0|0:0,0:0:0:0:
404,267,129279,6,0,L|345:251,1,46.1999985900879,2|0,3:2|0:0,0:0:0:0:
328,247,129456,1,0,0:0:0:0:
342,169,129632,2,0,L|437:195,1,92.3999971801759,0|0,1:0|0:0,0:0:0:0:
431,193,129985,69,2,3:2:0:0:
328,247,130161,1,0,0:0:0:0:
268,147,130338,1,0,1:0:0:0:
378,98,130514,1,2,0:0:0:0:
378,98,130603,1,2,0:0:0:0:
378,98,130691,6,0,L|437:82,1,46.1999985900879,2|0,3:2|0:0,0:0:0:0:
454,78,130867,1,0,0:0:0:0:
440,0,131044,2,0,L|345:26,1,92.3999971801759,0|0,1:0|0:0,0:0:0:0:
290,122,131397,70,0,L|274:63,1,46.1999985900879,2|0,3:2|0:0,0:0:0:0:
270,46,131573,1,0,0:0:0:0:
192,60,131750,2,0,L|218:155,1,92.3999971801759,0|0,1:0|0:0,0:0:0:0:
54,190,132103,6,0,L|113:174,1,46.1999985900879,2|0,3:2|0:0,0:0:0:0:
130,170,132279,2,0,L|114:111,1,46.1999985900879,2|0,0:0|0:0,0:0:0:0:
110,94,132456,2,0,L|51:110,1,46.1999985900879,2|0,1:2|0:0,0:0:0:0:
34,114,132632,2,0,L|50:173,1,46.1999985900879,2|0,0:0|0:0,0:0:0:0:
54,190,132808,1,2,3:2:0:0:
12,305,132985,69,0,1:0:0:0:
12,305,133073,1,0,1:0:0:0:
12,305,133161,2,0,L|-4:246,1,46.1999985900879,0|0,1:0|1:0,0:0:0:0:
88,336,133338,1,0,1:0:0:0:
88,336,133426,1,0,1:0:0:0:
88,336,133514,6,0,L|102:392,1,46.1999985900879,6|0,3:2|0:0,0:0:0:0:
158,295,133691,1,0,0:0:0:0:
184,384,133867,2,0,L|158:292,1,92.3999971801759,0|0,1:0|0:0,0:0:0:0:
305,261,134220,70,0,L|249:275,1,46.1999985900879,2|0,3:2|0:0,0:0:0:0:
346,332,134397,1,0,0:0:0:0:
257,358,134573,2,0,L|349:332,1,92.3999971801759,0|0,1:0|0:0,0:0:0:0:
407,266,134926,6,0,L|421:322,1,46.1999985900879,2|0,3:2|0:0,0:0:0:0:
478,225,135103,1,0,0:0:0:0:
504,314,135279,2,0,L|478:222,1,92.3999971801759,0|0,1:0|0:0,0:0:0:0:
478,225,135632,69,2,3:2:0:0:
418,310,135808,1,0,0:0:0:0:
334,250,135985,1,0,1:0:0:0:
408,124,136161,1,2,0:0:0:0:
408,124,136250,1,2,0:0:0:0:
408,124,136338,6,0,L|393:180,1,46.1999985900879,2|0,3:2|0:0,0:0:0:0:
336,82,136515,1,0,0:0:0:0:
312,172,136691,2,0,L|337:80,1,92.3999971801759,0|0,1:0|0:0,0:0:0:0:
193,52,137044,70,0,L|249:67,1,46.1999985900879,2|0,3:2|0:0,0:0:0:0:
151,125,137221,1,0,0:0:0:0:
241,149,137397,2,0,L|149:124,1,92.3999971801759,0|0,1:0|0:0,0:0:0:0:
94,53,137750,6,0,L|79:109,1,46.1999985900879,2|0,3:2|0:0,0:0:0:0:
6,79,137926,2,0,L|20:22,1,46.1999985900879,2|0,0:0|0:0,0:0:0:0:
62,112,138103,2,0,L|17:100,1,46.1999985900879,2|0,1:2|0:0,0:0:0:0:
36,24,138279,2,0,L|80:35,1,46.1999985900879,2|0,0:0|0:0,0:0:0:0:
49,67,138456,1,2,3:2:0:0:
134,197,138632,69,0,1:0:0:0:
134,197,138720,1,0,1:0:0:0:
134,197,138808,2,0,L|178:185,1,46.1999985900879,0|0,1:0|1:0,0:0:0:0:
262,122,138985,1,0,1:0:0:0:
299,160,139073,1,0,1:0:0:0:
280,211,139161,1,0,3:0:0:0:
