osu file format v14

[General]
AudioFilename: audio.mp3
AudioLeadIn: 0
PreviewTime: 45897
Countdown: 0
SampleSet: Soft
StackLeniency: 0.4
Mode: 0
LetterboxInBreaks: 0
WidescreenStoryboard: 1

[Editor]
Bookmarks: 12179,23473,46061,68649,79943,102532,105355,127943,139237
DistanceSpacing: 1.3
BeatDivisor: 4
GridSize: 32
TimelineZoom: 2.7

[Metadata]
Title:QUEEN
TitleUnicode:QUEEN
Artist:Hanon
ArtistUnicode:Hanon
Creator:Mocaotic
Version:Hard
Source:
Tags:kanaria.code kanaria code vocaloid gumi cover hakolili hakoniwalily ハコニワリリィ ハコリリ japanese pop jpop j-pop
BeatmapID:3760519
BeatmapSetID:1832042

[Difficulty]
HPDrainRate:4
CircleSize:3.7
OverallDifficulty:6
ApproachRate:8
SliderMultiplier:1.42
SliderTickRate:1

[Events]
//Background and Video events
0,0,"hanonmyqueen.jpg",0,0
//Break Periods
2,23597,25470
//Storyboard Layer 0 (Background)
//Storyboard Layer 1 (Fail)
//Storyboard Layer 2 (Pass)
//Storyboard Layer 3 (Foreground)
//Storyboard Layer 4 (Overlay)
//Storyboard Sound Samples

[TimingPoints]
809,352.941176470588,4,2,2,50,1,0
809,-125,4,2,2,50,0,0
6456,-111.111111111111,4,2,2,65,0,0
12103,-100,4,2,2,80,0,0
17220,-100,4,2,2,50,0,0
17397,-100,4,2,2,65,0,0
17750,-100,4,2,2,80,0,0
22867,-100,4,2,2,60,0,0
23044,-100,4,2,2,70,0,0
26220,-111.111111111111,4,2,2,50,0,0
34691,-100,4,2,2,65,0,0
45985,-83.3333333333333,4,2,2,88,0,0
51985,-90.9090909090909,4,2,2,88,0,0
52338,-100,4,2,2,88,0,0
53397,-90.9090909090909,4,2,2,88,0,0
53750,-83.3333333333333,4,2,2,88,0,0
56926,-100,4,2,2,88,0,0
57279,-83.3333333333333,4,2,2,88,0,0
68397,-100,4,2,2,88,0,0
68573,-100,4,2,2,80,0,0
73691,-100,4,2,2,50,0,0
73867,-100,4,2,2,65,0,0
74220,-100,4,2,2,80,0,0
79337,-100,4,2,2,60,0,0
79514,-100,4,2,2,70,0,0
79867,-125,4,2,2,50,0,0
91161,-111.111111111111,4,2,2,55,0,0
102456,-100,4,2,2,75,0,0
105279,-83.3333333333333,4,2,2,88,0,0
111279,-90.9090909090909,4,2,2,88,0,0
111632,-100,4,2,2,88,0,0
112691,-90.9090909090909,4,2,2,88,0,0
113044,-83.3333333333333,4,2,2,88,0,0
116220,-100,4,2,2,88,0,0
116573,-83.3333333333333,4,2,2,88,0,0
127867,-100,4,2,2,80,0,0
132985,-100,4,2,2,50,0,0
133161,-100,4,2,2,65,0,0
133514,-100,4,2,2,80,0,0
138631,-100,4,2,2,60,0,0
138808,-100,4,2,2,70,0,0

[Colours]
Combo1 : 180,240,245
Combo2 : 12,243,139
Combo3 : 0,208,238
Combo4 : 128,128,128
Combo5 : 213,213,213
Combo6 : 180,245,207

[HitObjects]
46,176,810,38,0,P|4:235|2:295,2,113.6,6|0|0,3:2|3:2|3:0,0:0:0:0:
164,229,1867,1,0,3:0:0:0:
164,229,2220,2,0,P|152:284|117:327,2,113.6,2|0|0,3:2|3:0|3:0,0:0:0:0:
105,102,3279,6,0,P|120:144|123:162,1,56.8,2|2,3:2|0:0,0:0:0:0:
216,160,3632,2,0,P|192:96|184:50,2,113.6,2|0|0,3:2|3:0|3:0,0:0:0:0:
344,126,4691,1,0,3:0:0:0:
344,126,5044,2,0,P|333:70|312:17,2,113.6,2|0|0,3:2|3:0|3:0,0:0:0:0:
478,151,6103,1,2,3:2:0:0:
478,151,6456,6,0,P|435:168|423:181,1,63.8999980499268,6|0,3:2|0:0,0:0:0:0:
396,259,6808,2,0,P|439:276|451:289,1,63.8999980499268,2|0,1:2|0:0,0:0:0:0:
512,359,7161,2,0,P|499:284|485:228,1,127.799996099854,0|2,3:0|1:2,0:0:0:0:
336,197,7867,6,0,P|322:239|316:268,1,63.8999980499268,2|0,3:2|0:0,0:0:0:0:
422,315,8220,2,0,P|414:283|403:253,1,63.8999980499268,2|0,1:2|0:0,0:0:0:0:
344,339,8573,2,0,P|291:351|203:381,1,127.799996099854,2|2,3:2|1:2,0:0:0:0:
73,313,9279,70,0,P|30:291|3:298,2,63.8999980499268,2|0|0,3:2|3:0|1:0,0:0:0:0:
134,384,9808,1,0,1:0:0:0:
134,384,9897,1,0,1:0:0:0:
134,384,9985,1,2,1:2:0:0:
206,343,10161,1,2,1:2:0:0:
178,261,10338,2,0,P|185:205|193:182,1,63.8999980499268,2|2,1:2|0:0,0:0:0:0:
187,198,12103,37,6,3:2:0:0:
113,170,12280,1,0,0:0:0:0:
65,232,12456,1,0,1:0:0:0:
59,227,12808,69,2,3:2:0:0:
107,165,12984,1,0,0:0:0:0:
181,193,13161,1,0,1:0:0:0:
175,188,13514,5,2,3:2:0:0:
101,160,13691,1,0,0:0:0:0:
53,222,13867,1,0,1:0:0:0:
135,46,14220,70,0,P|156:88|169:122,1,71,2|0,3:2|0:0,0:0:0:0:
249,141,14573,2,0,P|260:78|282:18,1,106.5,0|0,1:0|0:0,0:0:0:0:
296,23,14926,5,2,3:2:0:0:
366,55,15103,1,0,0:0:0:0:
431,10,15279,1,0,1:0:0:0:
436,16,15632,69,2,3:2:0:0:
371,61,15808,1,0,0:0:0:0:
300,28,15985,1,0,1:0:0:0:
305,34,16338,5,2,3:2:0:0:
376,67,16515,1,0,0:0:0:0:
440,22,16691,1,2,1:2:0:0:
489,118,16867,70,0,P|425:130|392:148,1,71,2|0,0:0|3:2,0:0:0:0:
313,123,17220,1,0,1:0:0:0:
313,123,17308,1,0,1:0:0:0:
313,123,17397,2,0,P|327:151|331:173,3,35.5,0|0|0|0,1:0|1:0|1:0|1:0,0:0:0:0:
327,188,17750,5,6,3:2:0:0:
403,205,17926,1,0,0:0:0:0:
479,222,18103,1,0,1:0:0:0:
485,229,18456,69,2,3:2:0:0:
432,286,18632,1,0,0:0:0:0:
379,343,18809,1,0,1:0:0:0:
370,344,19161,5,2,3:2:0:0:
348,270,19337,1,0,0:0:0:0:
325,195,19514,1,0,1:0:0:0:
216,310,19867,70,0,P|265:322|303:337,1,71,2|0,3:2|0:0,0:0:0:0:
234,226,20220,2,0,P|199:216|104:197,1,106.5,0|0,1:0|0:0,0:0:0:0:
108,209,20573,5,2,3:2:0:0:
124,285,20749,1,0,0:0:0:0:
142,360,20926,1,0,1:0:0:0:
148,366,21279,69,2,3:2:0:0:
206,313,21455,1,0,0:0:0:0:
263,260,21632,1,0,1:0:0:0:
264,250,21984,5,2,3:2:0:0:
190,229,22160,1,0,0:0:0:0:
114,206,22337,1,2,1:2:0:0:
178,146,22514,70,0,P|228:157|262:173,1,71,2|2,0:0|3:2,0:0:0:0:
256,77,22867,1,0,1:0:0:0:
256,77,22956,1,0,1:0:0:0:
256,77,23044,2,0,P|219:65|195:50,3,35.5,0|0|0|0,1:0|1:0|1:0|1:0,0:0:0:0:
203,38,23397,1,0,3:0:0:0:
203,38,26220,22,0,P|135:39|100:91,1,127.799996099854,2|0,3:2|3:0,0:0:0:0:
38,131,26750,2,0,P|59:189|61:218,1,63.8999980499268,2|0,0:0|3:0,0:0:0:0:
126,232,27103,1,0,0:0:0:0:
87,302,27279,2,0,P|56:309|27:323,1,63.8999980499268,2|0,3:2|0:0,0:0:0:0:
134,227,27632,6,0,P|197:254|280:272,1,127.799996099854,2|0,3:2|3:0,0:0:0:0:
324,307,28161,2,0,P|322:340|293:373,2,63.8999980499268,2|0|0,0:0|3:0|0:0,0:0:0:0:
375,247,28691,1,0,3:0:0:0:
494,122,29044,70,0,P|467:188|455:251,1,127.799996099854,2|0,3:2|3:0,0:0:0:0:
512,308,29573,1,2,0:0:0:0:
512,308,29750,2,0,P|471:327|449:347,1,63.8999980499268,2|0,3:2|0:0,0:0:0:0:
393,384,30103,2,0,P|356:357|327:348,1,63.8999980499268,2|0,3:2|0:0,0:0:0:0:
255,301,30456,6,0,P|296:282|318:262,2,63.8999980499268,2|0|0,3:2|0:0|3:0,0:0:0:0:
164,344,30985,2,0,P|176:272|196:198,1,127.799996099854,2|0,0:0|0:0,0:0:0:0:
266,195,31514,1,2,3:2:0:0:
117,125,31867,70,0,P|110:167|130:202,2,63.8999980499268,2|0|0,3:2|0:0|3:0,0:0:0:0:
192,95,32397,2,0,P|253:110|317:120,1,127.799996099854,2|0,0:0|0:0,0:0:0:0:
384,77,32926,2,0,P|391:35|371:0,1,63.8999980499268,2|0,3:2|0:0,0:0:0:0:
322,128,33279,6,0,P|306:189|296:253,1,127.799996099854,2|0,3:2|3:0,0:0:0:0:
336,322,33808,1,2,0:0:0:0:
266,357,33985,2,0,P|230:371|194:364,1,63.8999980499268,2|0,3:2|3:0,0:0:0:0:
180,345,34250,1,0,3:0:0:0:
180,345,34338,2,0,P|153:353|139:362,2,31.9499990249634,0|0|0,1:0|1:0|1:0,0:0:0:0:
227,256,34691,6,0,P|285:279|374:300,1,142,6|0,3:2|3:0,0:0:0:0:
428,351,35220,1,2,0:0:0:0:
428,351,35397,2,0,P|447:292|438:264,1,71,2|0,3:2|0:0,0:0:0:0:
394,226,35750,1,0,3:0:0:0:
462,152,35926,6,0,P|405:179|316:200,1,142,2|0,0:0|0:0,0:0:0:0:
265,246,36455,1,0,3:0:0:0:
265,246,36632,2,0,P|246:187|255:159,1,71,2|0,0:0|3:2,0:0:0:0:
302,121,36985,1,2,0:0:0:0:
377,150,37161,2,0,P|396:209|387:237,1,71,2|2,3:2|0:0,0:0:0:0:
339,269,37514,69,2,3:2:0:0:
355,73,37867,2,0,B|318:82|303:120|303:120|273:95|207:108,1,142,6|2,3:2|3:2,0:0:0:0:
170,145,38397,1,2,0:0:0:0:
170,145,38573,2,0,P|187:186|196:227,1,71,2|0,3:2|0:0,0:0:0:0:
173,305,38926,6,0,P|214:288|255:279,2,71,2|0|2,3:2|0:0|3:2,0:0:0:0:
106,362,39456,1,0,0:0:0:0:
106,362,39632,2,0,P|83:292|55:220,1,142,2|2,3:2|3:2,0:0:0:0:
0,62,40338,70,0,P|21:109|130:140,1,142,2|0,3:2|3:0,0:0:0:0:
175,176,40867,1,0,0:0:0:0:
175,176,41044,2,0,P|226:153|264:151,1,71,2|2,3:2|0:0,0:0:0:0:
275,81,41397,1,0,3:0:0:0:
210,35,41573,6,0,P|159:58|121:60,2,71,2|2|0,0:0|3:2|0:0,0:0:0:0:
275,81,42103,1,0,3:0:0:0:
329,6,42279,2,0,P|356:77|375:150,1,142,2|0,0:0|0:0,0:0:0:0:
446,112,42808,1,2,3:2:0:0:
509,175,42985,1,2,0:0:0:0:
509,175,43073,1,2,0:0:0:0:
509,175,43161,70,0,P|436:206|376:266,1,142,2|0,3:2|3:0,0:0:0:0:
318,312,43691,1,2,0:0:0:0:
318,312,43779,1,2,0:0:0:0:
318,312,43867,2,0,P|391:343|451:403,1,142,2|0,3:2|3:0,0:0:0:0:
511,329,44397,1,2,0:0:0:0:
511,329,44485,1,2,0:0:0:0:
511,329,44573,6,0,P|500:270|488:253,1,71,2|0,3:2|3:0,0:0:0:0:
476,180,44926,1,0,3:0:0:0:
476,180,45014,1,0,3:0:0:0:
476,180,45103,2,0,P|503:167|523:160,2,35.5,0|0|2,3:0|3:0|3:2,0:0:0:0:
386,176,45456,1,2,3:2:0:0:
386,176,45985,6,0,P|339:178|257:218,1,127.799996099854,6|0,3:2|0:0,0:0:0:0:
251,229,46338,2,0,P|272:271|288:325,1,85.1999973999024,2|0,1:2|0:0,0:0:0:0:
182,182,46691,2,0,P|135:179|80:166,1,85.1999973999024,2|0,3:2|0:0,0:0:0:0:
257,145,47044,2,0,P|282:105|321:64,1,85.1999973999024,2|2,1:2|0:0,0:0:0:0:
316,78,47308,1,2,0:0:0:0:
320,86,47397,6,0,P|294:125|255:166,1,85.1999973999024,2|0,3:2|0:0,0:0:0:0:
99,156,47750,2,0,P|145:159|200:172,1,85.1999973999024,2|0,1:2|0:0,0:0:0:0:
270,313,48103,2,0,P|249:270|233:216,1,85.1999973999024,2|0,3:2|0:0,0:0:0:0:
173,308,48456,2,0,P|250:271|331:247,1,170.399994799805,2|0,1:2|3:0,0:0:0:0:
417,288,48985,70,0,P|443:244|436:210,2,85.1999973999024,2|2|2,0:0|1:2|0:0,0:0:0:0:
311,343,49514,2,0,P|363:360|409:384,1,85.1999973999024,2|2,3:2|0:0,0:0:0:0:
337,254,49867,2,0,P|284:236|238:212,1,85.1999973999024,2|2,1:2|0:0,0:0:0:0:
185,173,50220,5,2,3:2:0:0:
182,253,50397,1,2,0:0:0:0:
255,216,50573,1,2,1:2:0:0:
255,216,50750,1,2,0:0:0:0:
113,211,50926,70,0,P|61:224|22:241,1,85.1999973999024,2|0,3:2|0:0,0:0:0:0:
0,322,51279,2,0,P|38:332|67:349,3,42.5999986999512,2|0|0|0,1:2|1:0|1:0|1:0,0:0:0:0:
63,355,51632,6,0,P|115:342|154:325,1,85.1999973999024,6|0,3:2|0:0,0:0:0:0:
235,335,51985,2,0,P|251:285|254:241,1,78.1000023834229,2|0,1:2|0:0,0:0:0:0:
309,196,52338,2,0,P|273:157|237:132,1,71,2|0,3:2|0:0,0:0:0:0:
184,141,52691,1,2,1:2:0:0:
184,141,52867,1,2,0:0:0:0:
268,145,53044,70,0,P|294:167|317:195,1,71,2|0,3:2|0:0,0:0:0:0:
262,259,53397,2,0,P|255:297|242:334,1,78.1000023834229,2|0,1:2|0:0,0:0:0:0:
152,329,53750,2,0,P|112:344|70:354,1,85.1999973999024,2|0,3:2|0:0,0:0:0:0:
238,342,54103,2,0,P|277:326|409:307,1,170.399994799805,2|0,1:2|3:0,0:0:0:0:
512,249,54632,6,0,P|466:221|417:242,1,85.1999973999024,2|0,0:0|1:0,0:0:0:0:
360,277,54985,1,2,0:0:0:0:
284,224,55161,1,2,3:2:0:0:
330,148,55338,1,2,0:0:0:0:
330,148,55426,1,2,0:0:0:0:
330,148,55514,1,2,1:2:0:0:
428,228,55691,70,0,P|414:158|406:98,1,127.799996099854,6|0,3:2|0:0,0:0:0:0:
423,83,56044,1,2,3:2:0:0:
337,48,56220,1,2,3:2:0:0:
276,118,56397,1,0,3:0:0:0:
364,149,56573,5,2,1:2:0:0:
255,35,56926,2,0,P|192:58|122:82,1,142,2|4,1:2|3:2,0:0:0:0:
35,124,57456,38,0,P|14:67|-6:24,1,85.1999973999024,2|0,0:0|1:0,0:0:0:0:
88,8,57808,2,0,P|108:64|129:107,1,85.1999973999024,2|0,0:0|3:0,0:0:0:0:
30,129,58161,6,0,P|9:72|-11:29,1,85.1999973999024,2|0,0:0|1:0,0:0:0:0:
83,14,58513,2,0,P|103:70|124:113,1,85.1999973999024,2|0,0:0|3:0,0:0:0:0:
214,157,58867,6,0,P|146:171|85:224,1,127.799996099854,2|0,0:0|0:0,0:0:0:0:
85,226,59220,1,2,0:0:0:0:
150,332,59397,2,0,P|166:287|160:237,1,85.1999973999024,2|0,3:2|0:0,0:0:0:0:
80,235,59750,2,0,P|63:279|69:329,1,85.1999973999024,2|0,1:2|0:0,0:0:0:0:
226,378,60103,1,0,3:0:0:0:
226,378,60279,70,0,P|277:362|323:352,1,85.1999973999024,2|0,0:0|1:0,0:0:0:0:
282,261,60632,2,0,P|231:277|185:287,1,85.1999973999024,2|0,0:0|3:0,0:0:0:0:
231,384,60985,70,0,P|282:368|328:358,1,85.1999973999024,2|0,0:0|1:0,0:0:0:0:
287,267,61338,2,0,P|236:283|190:293,1,85.1999973999024,2|0,0:0|3:0,0:0:0:0:
295,179,61691,38,0,P|346:201|376:276,1,127.799996099854,2|0,0:0|0:0,0:0:0:0:
369,290,62044,1,2,0:0:0:0:
449,365,62220,2,0,P|469:300|485:263,1,85.1999973999024,2|2,3:2|0:0,0:0:0:0:
510,201,62573,1,2,1:2:0:0:
438,147,62750,1,0,3:0:0:0:
438,147,62838,1,0,3:0:0:0:
438,147,62926,1,4,3:2:0:0:
322,212,63103,38,0,P|387:232|424:248,1,85.1999973999024,2|0,0:0|1:0,0:0:0:0:
434,154,63456,2,0,P|369:134|332:118,1,85.1999973999024,2|0,0:0|3:0,0:0:0:0:
316,216,63808,6,0,P|381:236|418:252,1,85.1999973999024,2|0,0:0|1:0,0:0:0:0:
428,158,64161,2,0,P|363:138|326:122,1,85.1999973999024,2|0,0:0|3:0,0:0:0:0:
267,59,64514,6,0,P|350:39|405:13,1,127.799996099854,2|0,0:0|0:0,0:0:0:0:
409,0,64867,1,2,0:0:0:0:
503,21,65044,2,0,P|511:64|493:101,1,85.1999973999024,2|0,3:2|0:0,0:0:0:0:
428,158,65397,2,0,P|388:143|347:131,1,85.1999973999024,2|0,1:2|0:0,0:0:0:0:
326,143,65661,1,0,0:0:0:0:
326,143,65750,1,0,3:2:0:0:
310,234,65926,6,0,P|350:249|391:261,2,85.1999973999024,2|0|2,0:0|1:0|0:0,0:0:0:0:
225,268,66456,1,2,3:2:0:0:
164,200,66632,1,2,0:0:0:0:
209,121,66808,1,2,1:2:0:0:
298,139,66985,1,6,3:2:0:0:
302,148,67338,69,2,1:2:0:0:
213,130,67515,1,2,1:2:0:0:
391,169,67867,5,2,1:2:0:0:
391,169,68573,69,6,3:2:0:0:
439,109,68750,1,0,0:0:0:0:
512,132,68926,1,0,1:0:0:0:
507,138,69279,5,2,3:2:0:0:
434,115,69455,1,0,0:0:0:0:
386,175,69632,1,0,1:0:0:0:
381,181,69985,69,2,3:2:0:0:
429,121,70162,1,0,0:0:0:0:
502,144,70338,1,0,1:0:0:0:
350,103,70691,6,0,P|341:68|328:36,1,71,2|0,3:2|0:0,0:0:0:0:
233,47,71044,2,0,P|244:98|269:146,1,106.5,0|0,1:0|0:0,0:0:0:0:
256,172,71397,69,2,3:2:0:0:
185,203,71573,1,0,0:0:0:0:
131,146,71750,1,0,1:0:0:0:
126,152,72103,5,2,3:2:0:0:
180,209,72280,1,0,0:0:0:0:
252,178,72456,1,0,1:0:0:0:
247,184,72808,69,2,3:2:0:0:
175,215,72984,1,0,0:0:0:0:
121,158,73161,1,2,1:2:0:0:
72,267,73338,6,0,P|121:277|155:293,1,71,2|0,0:0|3:0,0:0:0:0:
242,278,73691,1,0,1:0:0:0:
242,278,73779,1,0,1:0:0:0:
242,278,73867,2,0,P|231:310|227:340,3,35.5,0|0|0|0,1:0|1:0|1:0|1:0,0:0:0:0:
240,340,74220,69,6,3:2:0:0:
316,358,74397,1,0,0:0:0:0:
392,376,74573,1,0,1:0:0:0:
400,372,74926,5,2,3:2:0:0:
377,297,75103,1,0,0:0:0:0:
355,222,75279,1,0,1:0:0:0:
347,217,75632,69,2,3:2:0:0:
294,274,75809,1,0,0:0:0:0:
240,331,75985,1,0,1:0:0:0:
199,174,76338,6,0,P|232:185|267:192,1,71,2|0,3:2|0:0,0:0:0:0:
192,262,76691,2,0,P|140:244|74:234,1,106.5,0|0,1:0|0:0,0:0:0:0:
59,240,77044,69,2,3:2:0:0:
41,164,77221,1,0,0:0:0:0:
23,88,77397,1,0,1:0:0:0:
27,80,77750,5,2,3:2:0:0:
102,103,77927,1,0,0:0:0:0:
177,125,78103,1,0,1:0:0:0:
182,133,78456,69,2,3:2:0:0:
125,186,78633,1,0,0:0:0:0:
68,240,78809,1,2,1:2:0:0:
153,270,78985,6,0,P|193:234|214:210,1,71,2|2,0:0|3:2,0:0:0:0:
263,302,79338,1,0,1:0:0:0:
263,302,79426,1,0,1:0:0:0:
263,302,79514,2,0,P|241:319|228:334,3,35.5,0|0|0|0,1:0|1:0|1:0|1:0,0:0:0:0:
236,361,79867,6,0,P|296:378|341:345,2,113.6,6|0|2,3:2|3:2|3:2,0:0:0:0:
115,298,80926,1,2,3:2:0:0:
115,298,81103,2,0,P|142:303|170:311,1,56.8,2|2,0:0|3:2,0:0:0:0:
236,265,81456,2,0,P|241:238|249:210,1,56.8,0|0,0:0|3:0,0:0:0:0:
319,174,81808,2,0,P|353:187|433:206,1,113.6,2|0,0:0|0:0,0:0:0:0:
495,163,82338,2,0,P|489:135|481:107,1,56.8,2|2,3:2|0:0,0:0:0:0:
504,18,82691,6,0,P|470:31|390:50,1,113.6,2|0,3:2|3:2,0:0:0:0:
327,89,83220,1,0,0:0:0:0:
327,89,83397,2,0,P|294:77|260:70,2,56.8,2|0|2,3:2|0:0|3:2,0:0:0:0:
387,143,83926,1,2,0:0:0:0:
387,143,84103,70,0,P|371:176|360:216,1,56.8,2|0,3:2|0:0,0:0:0:0:
415,263,84456,1,0,3:2:0:0:
415,263,84808,2,0,P|373:271|303:335,1,113.6,2|2,3:2|3:2,0:0:0:0:
157,306,85514,6,0,P|199:298|269:234,1,113.6,2|0,3:2|3:2,0:0:0:0:
289,186,86044,1,0,0:0:0:0:
289,186,86220,2,0,P|270:135|268:116,1,56.8,2|0,3:2|0:0,0:0:0:0:
206,93,86573,1,2,3:2:0:0:
206,93,86750,70,0,P|169:110|79:131,1,113.6,2|2,0:0|0:0,0:0:0:0:
11,227,87456,1,2,0:0:0:0:
11,227,87632,2,0,P|-5:266|6:298,2,56.8,2|0|2,3:2|0:0|3:2,0:0:0:0:
89,213,88161,1,2,0:0:0:0:
89,213,88338,6,0,P|126:230|216:251,1,113.6,2|0,3:2|3:2,0:0:0:0:
263,302,88867,1,0,0:0:0:0:
263,302,89044,2,0,P|306:289|337:289,1,56.8,2|0,3:2|0:0,0:0:0:0:
390,332,89397,1,2,3:2:0:0:
390,332,89573,70,0,P|400:274|359:211,1,113.6,2|0,0:0|0:0,0:0:0:0:
308,189,90103,1,2,3:2:0:0:
371,141,90279,1,0,0:0:0:0:
440,180,90456,1,2,3:2:0:0:
299,104,90808,1,2,3:2:0:0:
299,104,91161,22,0,P|273:44|258:24,1,63.8999980499268,2|0,3:2|0:0,0:0:0:0:
340,0,91514,2,0,P|375:10|409:14,1,63.8999980499268,2|0,3:2|0:0,0:0:0:0:
466,50,91867,2,0,P|474:112|427:169,1,127.799996099854,2|2,3:2|3:2,0:0:0:0:
366,187,92397,2,0,P|331:177|297:173,1,63.8999980499268,2|0,0:0|3:0,0:0:0:0:
249,116,92750,2,0,P|214:126|180:130,1,63.8999980499268,2|0,0:0|3:0,0:0:0:0:
118,165,93103,2,0,P|110:227|157:284,1,127.799996099854,2|2,0:0|0:0,0:0:0:0:
218,315,93632,1,2,3:2:0:0:
218,315,93808,1,2,0:0:0:0:
285,374,93985,6,0,P|310:309|356:239,1,127.799996099854,0|2,3:0|3:2,0:0:0:0:
405,215,94514,1,2,0:0:0:0:
405,215,94691,2,0,P|437:233|452:262,2,63.8999980499268,0|2|2,3:2|0:0|3:2,0:0:0:0:
354,154,95220,1,2,0:0:0:0:
284,190,95397,70,0,P|242:202|207:210,1,63.8999980499268,0|2,3:2|0:0,0:0:0:0:
168,265,95750,1,2,3:2:0:0:
168,265,96103,2,0,P|104:221|51:238,1,127.799996099854,2|2,3:2|3:2,0:0:0:0:
10,292,96632,1,2,0:0:0:0:
80,332,96808,6,0,P|134:342|220:371,1,127.799996099854,2|2,3:2|3:2,0:0:0:0:
270,324,97338,1,2,0:0:0:0:
270,324,97514,2,0,P|292:367|285:401,2,63.8999980499268,0|0|2,3:2|0:0|3:2,0:0:0:0:
203,280,98044,1,2,0:0:0:0:
71,190,98397,70,0,P|42:128|63:70,1,127.799996099854,2|2,0:0|0:0,0:0:0:0:
113,19,98926,2,0,P|160:30|194:36,1,63.8999980499268,2|0,3:2|0:0,0:0:0:0:
244,76,99279,1,2,3:2:0:0:
244,76,99456,1,2,0:0:0:0:
338,37,99632,6,0,P|316:125|315:178,1,127.799996099854,0|2,3:0|3:2,0:0:0:0:
374,220,100161,1,2,0:0:0:0:
374,220,100338,2,0,P|429:231|453:238,1,63.8999980499268,2|0,3:2|0:0,0:0:0:0:
504,275,100691,2,0,P|493:330|486:354,1,63.8999980499268,2|2,3:2|0:0,0:0:0:0:
423,380,101044,70,0,P|354:361|285:354,1,127.799996099854,2|2,3:2|3:2,0:0:0:0:
224,383,101573,1,2,0:0:0:0:
165,330,101750,2,0,P|170:289|185:257,1,63.8999980499268,2|0,3:2|0:0,0:0:0:0:
239,222,102103,1,2,3:2:0:0:
62,334,102456,6,0,P|79:285|81:219,1,106.5,6|0,3:2|3:0,0:0:0:0:
69,205,102808,1,0,1:0:0:0:
133,158,102985,1,0,3:0:0:0:
0,165,103161,70,0,P|3:111|20:61,1,106.5,2|0,3:2|3:0,0:0:0:0:
45,44,103514,2,0,P|90:59|140:68,1,71,0|0,1:0|3:0,0:0:0:0:
207,20,103867,6,0,P|203:73|186:123,1,106.5,2|0,3:2|3:0,0:0:0:0:
175,151,104220,1,0,1:0:0:0:
257,188,104397,1,0,3:0:0:0:
257,188,104485,1,0,3:0:0:0:
257,188,104573,1,2,1:2:0:0:
316,129,104750,1,2,1:2:0:0:
316,129,105279,6,0,P|335:204|345:283,1,127.799996099854,6|0,3:2|0:0,0:0:0:0:
331,276,105632,2,0,P|282:289|241:312,1,85.1999973999024,2|0,1:2|0:0,0:0:0:0:
411,291,105985,2,0,P|446:326|487:350,1,85.1999973999024,2|0,3:2|0:0,0:0:0:0:
387,214,106338,2,0,P|399:165|399:118,1,85.1999973999024,2|2,1:2|0:0,0:0:0:0:
395,125,106603,1,2,0:0:0:0:
387,127,106691,6,0,P|374:175|374:222,1,85.1999973999024,2|0,3:2|0:0,0:0:0:0:
486,334,107044,2,0,P|450:298|410:275,1,85.1999973999024,2|0,1:2|0:0,0:0:0:0:
256,319,107397,2,0,P|304:306|344:282,1,85.1999973999024,2|0,3:2|0:0,0:0:0:0:
330,384,107750,2,0,P|306:320|253:215,1,170.399994799805,2|0,1:2|3:0,0:0:0:0:
229,152,108279,70,0,P|181:181|175:209,2,85.1999973999024,2|2|2,0:0|1:2|0:0,0:0:0:0:
352,98,108808,2,0,P|331:145|321:187,1,85.1999973999024,2|2,3:2|0:0,0:0:0:0:
263,79,109161,2,0,P|284:32|294:-10,1,85.1999973999024,2|2,1:2|0:0,0:0:0:0:
381,16,109514,5,2,3:2:0:0:
381,16,109691,1,2,0:0:0:0:
352,98,109867,1,2,1:2:0:0:
294,36,110044,1,2,0:0:0:0:
431,80,110220,70,0,P|470:95|512:105,1,85.1999973999024,2|0,3:2|0:0,0:0:0:0:
415,167,110573,2,0,P|379:178|351:197,3,42.5999986999512,2|0|0|0,1:2|1:0|1:0|1:0,0:0:0:0:
355,200,110926,6,0,P|315:184|273:174,1,85.1999973999024,6|0,3:2|0:0,0:0:0:0:
194,121,111279,2,0,P|163:145|137:173,1,78.1000023834229,2|0,1:2|0:0,0:0:0:0:
57,209,111632,2,0,P|63:250|75:290,1,71,2|0,3:2|0:0,0:0:0:0:
141,327,111985,1,2,1:2:0:0:
141,327,112161,1,2,0:0:0:0:
65,284,112338,70,0,P|55:249|50:214,1,71,2|0,3:2|0:0,0:0:0:0:
130,179,112691,2,0,P|157:150|187:126,1,78.1000023834229,2|0,1:2|0:0,0:0:0:0:
267,180,113044,2,0,P|309:190|349:206,1,85.1999973999024,2|0,3:2|0:0,0:0:0:0:
196,123,113397,2,0,P|121:109|15:73,1,170.399994799805,2|0,1:2|3:0,0:0:0:0:
0,173,113926,6,0,P|42:150|91:138,1,85.1999973999024,2|0,0:0|1:0,0:0:0:0:
150,198,114279,1,2,0:0:0:0:
116,283,114456,1,2,3:2:0:0:
197,344,114632,1,2,0:0:0:0:
197,344,114720,1,2,0:0:0:0:
197,344,114808,1,2,1:2:0:0:
290,260,114985,70,0,P|216:238|143:207,1,127.799996099854,6|0,3:2|0:0,0:0:0:0:
149,195,115338,1,2,3:2:0:0:
115,281,115514,1,2,3:2:0:0:
185,342,115691,1,0,3:0:0:0:
217,258,115867,5,2,1:2:0:0:
217,258,116220,2,0,P|293:277|378:311,1,142,2|4,1:2|3:2,0:0:0:0:
474,355,116750,38,0,P|451:278|447:245,1,85.1999973999024,2|0,0:0|1:0,0:0:0:0:
361,298,117103,2,0,P|384:375|388:408,1,85.1999973999024,2|0,0:0|3:0,0:0:0:0:
478,349,117456,6,0,P|455:272|451:239,1,85.1999973999024,2|0,0:0|1:0,0:0:0:0:
365,292,117809,2,0,P|388:369|392:402,1,85.1999973999024,2|0,0:0|3:0,0:0:0:0:
279,280,118161,6,0,P|324:214|397:214,1,127.799996099854,2|0,0:0|0:0,0:0:0:0:
391,213,118514,1,2,0:0:0:0:
473,144,118691,2,0,P|422:127|385:86,1,85.1999973999024,2|0,3:2|0:0,0:0:0:0:
438,25,119044,2,0,P|489:42|526:83,1,85.1999973999024,2|0,1:2|0:0,0:0:0:0:
348,31,119397,1,0,3:0:0:0:
348,31,119573,70,0,P|298:48|254:56,1,85.1999973999024,2|0,0:0|1:0,0:0:0:0:
288,139,119926,2,0,P|338:122|382:114,1,85.1999973999024,2|0,0:0|3:0,0:0:0:0:
343,27,120279,70,0,P|293:44|249:52,1,85.1999973999024,2|0,0:0|1:0,0:0:0:0:
283,135,120632,2,0,P|333:118|377:110,1,85.1999973999024,2|0,0:0|3:0,0:0:0:0:
319,242,120985,38,0,P|225:210|168:201,1,127.799996099854,2|0,0:0|0:0,0:0:0:0:
174,218,121338,1,2,0:0:0:0:
96,295,121514,2,0,P|86:253|72:213,1,85.1999973999024,2|2,3:2|0:0,0:0:0:0:
12,131,121867,1,2,1:2:0:0:
83,51,122044,1,0,3:0:0:0:
83,51,122132,1,0,3:0:0:0:
83,51,122220,1,4,3:2:0:0:
199,115,122397,38,0,P|157:124|117:138,1,85.1999973999024,2|0,0:0|1:0,0:0:0:0:
90,57,122750,2,0,P|131:47|171:33,1,85.1999973999024,2|0,0:0|3:0,0:0:0:0:
204,120,123103,6,0,P|162:129|122:143,1,85.1999973999024,2|0,0:0|1:0,0:0:0:0:
95,62,123456,2,0,P|136:52|176:38,1,85.1999973999024,2|0,0:0|3:0,0:0:0:0:
263,0,123808,6,0,P|283:83|313:136,1,127.799996099854,2|0,0:0|0:0,0:0:0:0:
318,140,124161,1,2,0:0:0:0:
253,205,124338,2,0,P|201:218|167:233,1,85.1999973999024,2|0,3:2|0:0,0:0:0:0:
78,235,124691,2,0,P|97:272|111:313,1,85.1999973999024,2|0,1:2|0:0,0:0:0:0:
104,340,124956,1,0,0:0:0:0:
104,340,125044,1,0,3:2:0:0:
218,306,125220,6,0,P|199:343|185:384,2,85.1999973999024,2|0|2,0:0|1:0|0:0,0:0:0:0:
294,254,125750,1,2,3:2:0:0:
269,166,125926,1,2,0:0:0:0:
177,162,126103,1,2,1:2:0:0:
145,247,126279,1,6,3:2:0:0:
153,253,126632,69,2,1:2:0:0:
185,168,126808,1,2,1:2:0:0:
121,338,127161,5,2,1:2:0:0:
122,338,127867,69,6,3:2:0:0:
74,276,128043,1,0,0:0:0:0:
0,304,128220,1,0,1:0:0:0:
6,299,128572,5,2,3:2:0:0:
80,271,128749,1,0,0:0:0:0:
128,333,128925,1,0,1:0:0:0:
134,328,129278,69,2,3:2:0:0:
86,266,129456,1,0,0:0:0:0:
12,294,129631,1,0,1:0:0:0:
187,186,129985,6,0,P|169:232|162:267,1,71,2|0,3:2|0:0,0:0:0:0:
211,319,130338,2,0,P|258:304|318:294,1,106.5,0|0,1:0|0:0,0:0:0:0:
334,302,130691,69,2,3:2:0:0:
368,230,130868,1,0,0:0:0:0:
310,177,131044,1,0,1:0:0:0:
316,171,131396,5,2,3:2:0:0:
373,225,131572,1,0,0:0:0:0:
339,296,131749,1,0,1:0:0:0:
345,290,132102,69,2,3:2:0:0:
379,219,132279,1,0,0:0:0:0:
321,166,132455,1,2,1:2:0:0:
474,164,132632,6,0,P|458:219|454:243,1,71,2|0,0:0|3:2,0:0:0:0:
414,318,132985,1,0,1:0:0:0:
414,318,133073,1,0,1:0:0:0:
414,318,133161,2,0,P|422:345|424:374,3,35.5,0|0|0|0,1:0|1:0|1:0|1:0,0:0:0:0:
407,384,133514,69,6,3:2:0:0:
330,366,133691,1,0,0:0:0:0:
253,348,133867,1,0,1:0:0:0:
248,340,134220,5,2,3:2:0:0:
302,282,134397,1,0,0:0:0:0:
356,224,134573,1,0,1:0:0:0:
365,223,134926,69,2,3:2:0:0:
388,299,135103,1,0,0:0:0:0:
411,375,135279,1,0,1:0:0:0:
512,218,135632,6,0,P|467:229|440:240,1,71,2|0,3:2|0:0,0:0:0:0:
369,209,135985,2,0,P|349:148|321:87,1,106.5,0|0,1:0|0:0,0:0:0:0:
315,94,136338,69,2,3:2:0:0:
238,112,136515,1,0,0:0:0:0:
161,130,136691,1,0,1:0:0:0:
156,138,137044,5,2,3:2:0:0:
210,196,137221,1,0,0:0:0:0:
264,254,137397,1,0,1:0:0:0:
273,255,137750,69,2,3:2:0:0:
296,179,137927,1,0,0:0:0:0:
319,103,138103,1,2,1:2:0:0:
210,50,138279,6,0,P|233:97|243:132,1,71,2|2,0:0|3:2,0:0:0:0:
185,175,138632,1,0,1:0:0:0:
185,175,138720,1,0,1:0:0:0:
185,175,138808,2,0,P|159:185|136:201,3,35.5,0|0|0|0,1:0|1:0|1:0|1:0,0:0:0:0:
135,211,139161,1,0,3:0:0:0:
