osu file format v14

[General]
AudioFilename: audio.mp3
AudioLeadIn: 0
PreviewTime: 45897
Countdown: 0
SampleSet: Soft
StackLeniency: 0.4
Mode: 0
LetterboxInBreaks: 0
WidescreenStoryboard: 1

[Editor]
Bookmarks: 12179,12288,23473,46061,68649,79943,102532,105355,127943,139237
DistanceSpacing: 1.4
BeatDivisor: 4
GridSize: 16
TimelineZoom: 3.099999

[Metadata]
Title:QUEEN
TitleUnicode:QUEEN
Artist:Hanon
ArtistUnicode:Hanon
Creator:Mocaotic
Version:Expert
Source:
Tags:kanaria.code kanaria code vocaloid gumi cover hakolili hakoniwalily ハコニワリリィ ハコリリ japanese pop jpop j-pop
BeatmapID:3763493
BeatmapSetID:1832042

[Difficulty]
HPDrainRate:6
CircleSize:4.2
OverallDifficulty:8.6
ApproachRate:9.3
SliderMultiplier:1.68
SliderTickRate:1

[Events]
//Background and Video events
0,0,"hanonmyqueen.jpg",0,0
//Break Periods
2,10714,11549
2,23597,25659
//Storyboard Layer 0 (Background)
//Storyboard Layer 1 (Fail)
//Storyboard Layer 2 (Pass)
//Storyboard Layer 3 (Foreground)
//Storyboard Layer 4 (Overlay)
//Storyboard Sound Samples

[TimingPoints]
809,352.941176470588,4,2,2,50,1,0
809,-166.666666666667,4,2,2,50,0,0
6103,-500.000000000003,4,2,2,50,0,0
6456,-83.3333333333334,4,2,2,65,0,0
7161,-125,4,2,2,65,0,0
7867,-83.3333333333334,4,2,2,65,0,0
9367,-83.3333333333334,4,2,2,5,0,0
9456,-83.3333333333334,4,2,2,65,0,0
9985,-62.5,4,2,2,65,0,0
10073,-62.5,4,2,2,5,0,0
10161,-62.5,4,2,2,65,0,0
10250,-62.5,4,2,2,5,0,0
10338,-62.5,4,2,2,65,0,0
10426,-62.5,4,2,2,5,0,0
10514,-62.5,4,2,2,65,0,0
12103,-166.666666666667,4,2,2,80,0,0
17220,-166.666666666667,4,2,2,50,0,0
17397,-166.666666666667,4,2,2,65,0,0
17750,-166.666666666667,4,2,2,80,0,0
22867,-166.666666666667,4,2,2,60,0,0
23044,-166.666666666667,4,2,2,70,0,0
26220,-125,4,2,2,50,0,0
34691,-111.111111111111,4,2,2,65,0,0
37867,-71.4285714285714,4,2,2,65,0,0
38220,-111.111111111111,4,2,2,65,0,0
43691,-99.9999999999999,4,2,2,65,0,0
45985,-71.4285714285714,4,2,2,88,0,0
46338,-90.9090909090909,4,2,2,88,0,0
51103,-76.9230769230769,4,2,2,88,0,0
51985,-90.9090909090909,4,2,2,88,0,0
54632,-111.111111111111,4,2,2,88,0,0
55161,-90.9090909090909,4,2,2,88,0,0
56044,-71.4285714285714,4,2,2,88,0,0
56132,-71.4285714285714,4,2,2,5,0,0
56220,-71.4285714285714,4,2,2,88,0,0
56308,-71.4285714285714,4,2,2,5,0,0
56397,-71.4285714285714,4,2,2,88,0,0
56485,-71.4285714285714,4,2,2,5,0,0
56573,-71.4285714285714,4,2,2,88,0,0
57279,-62.5,4,2,2,88,0,0
57367,-62.5,4,2,2,5,0,0
57456,-62.5,4,2,2,88,0,0
58867,-55.5555555555556,4,2,2,88,0,0
60103,-62.5,4,2,2,88,0,0
60191,-62.5,4,2,2,5,0,0
60279,-55.5555555555556,4,2,2,88,0,0
62926,-62.5,4,2,2,88,0,0
63014,-62.5,4,2,2,5,0,0
63103,-55.5555555555556,4,2,2,88,0,0
65926,-100,4,2,2,88,0,0
66456,-83.3333333333333,4,2,2,88,0,0
68573,-166.666666666667,4,2,2,80,0,0
73691,-166.666666666667,4,2,2,50,0,0
73867,-166.666666666667,4,2,2,65,0,0
74220,-166.666666666667,4,2,2,80,0,0
79337,-166.666666666667,4,2,2,60,0,0
79514,-166.666666666667,4,2,2,70,0,0
79867,-166.666666666667,4,2,2,50,0,0
91161,-125,4,2,2,55,0,0
102456,-100,4,2,2,75,0,0
105279,-71.4285714285714,4,2,2,88,0,0
105632,-90.9090909090909,4,2,2,88,0,0
110397,-76.9230769230769,4,2,2,88,0,0
111279,-90.9090909090909,4,2,2,88,0,0
113926,-111.111111111111,4,2,2,88,0,0
114456,-90.9090909090909,4,2,2,88,0,0
114985,-76.9230769230769,4,2,2,88,0,0
115338,-66.6666666666667,4,2,2,88,0,0
115426,-66.6666666666667,4,2,2,5,0,0
115514,-66.6666666666667,4,2,2,88,0,0
115603,-66.6666666666667,4,2,2,5,0,0
115691,-66.6666666666667,4,2,2,88,0,0
115779,-66.6666666666667,4,2,2,5,0,0
115867,-66.6666666666667,4,2,2,88,0,0
116573,-62.5,4,2,2,88,0,0
116661,-62.5,4,2,2,5,0,0
116750,-62.5,4,2,2,88,0,0
118161,-55.5555555555556,4,2,2,88,0,0
119397,-62.5,4,2,2,88,0,0
119485,-62.5,4,2,2,5,0,0
119573,-62.5,4,2,2,88,0,0
120985,-55.5555555555556,4,2,2,88,0,0
122308,-55.5555555555556,4,2,2,5,0,0
122397,-55.5555555555556,4,2,2,88,0,0
125044,-100,4,2,2,88,0,0
127867,-166.666666666667,4,2,2,80,0,0
132985,-166.666666666667,4,2,2,50,0,0
133161,-166.666666666667,4,2,2,65,0,0
133514,-166.666666666667,4,2,2,80,0,0
138631,-166.666666666667,4,2,2,60,0,0
138808,-166.666666666667,4,2,2,70,0,0

[Colours]
Combo1 : 180,240,245
Combo2 : 12,243,139
Combo3 : 0,208,238
Combo4 : 128,128,128
Combo5 : 213,213,213
Combo6 : 180,245,207

[HitObjects]
50,100,809,38,0,P|81:117|106:136,1,50.3999984619141,6|0,3:2|0:0,0:0:0:0:
211,62,1161,2,0,P|189:91|175:119,1,50.3999984619141,0|0,3:2|0:0,0:0:0:0:
122,46,1514,1,0,3:0:0:0:
122,46,1867,1,0,3:0:0:0:
421,167,2220,6,0,P|389:184|364:203,1,50.3999984619141,2|0,3:2|0:0,0:0:0:0:
349,113,2573,1,0,3:0:0:0:
349,113,2926,1,0,3:0:0:0:
260,129,3279,2,0,P|281:158|295:186,1,50.3999984619141,2|2,3:2|0:0,0:0:0:0:
311,260,3632,69,2,3:2:0:0:
317,242,3808,5,0,0:0:0:0:
288,268,3985,1,0,3:0:0:0:
326,280,4161,1,0,0:0:0:0:
288,240,4338,69,0,3:0:0:0:
302,296,4514,1,0,0:0:0:0:
344,255,4691,1,0,3:0:0:0:
311,260,4867,5,0,0:0:0:0:
334,332,5044,69,2,3:2:0:0:
251,304,5220,1,0,0:0:0:0:
251,218,5397,1,0,3:0:0:0:
334,192,5573,1,0,0:0:0:0:
383,261,5750,1,0,3:0:0:0:
186,332,6103,6,0,L|155:341,1,25.2,2|0,3:2|0:0,0:0:0:0:
54,312,6456,6,0,B|103:295|103:295|170:343,1,100.799996923828,6|0,3:2|0:0,0:0:0:0:
140,334,6808,2,0,B|100:305|100:305|51:322,1,100.799996923828,2|0,1:2|0:0,0:0:0:0:
226,170,7161,6,0,L|242:236,1,67.2,0|0,3:0|0:0,0:0:0:0:
153,190,7514,2,0,L|169:256,1,67.2,2|0,1:2|0:0,0:0:0:0:
390,126,7867,70,0,B|341:109|341:109|274:157,1,100.799996923828,2|0,3:2|0:0,0:0:0:0:
304,148,8220,2,0,B|343:119|343:119|392:136,1,100.799996923828,2|0,1:2|0:0,0:0:0:0:
394,146,8573,2,0,B|345:129|345:129|306:158,1,100.799996923828,2|0,3:2|0:0,0:0:0:0:
359,215,8926,5,2,1:2:0:0:
330,53,9103,1,0,0:0:0:0:
489,201,9279,70,0,P|458:208|432:219,1,50.3999984619141,2|0,3:2|0:0,0:0:0:0:
377,305,9456,1,0,3:0:0:0:
326,325,9544,1,0,3:0:0:0:
276,304,9632,1,0,1:0:0:0:
252,256,9720,1,0,1:0:0:0:
255,248,9808,1,0,1:0:0:0:
259,240,9896,1,0,1:0:0:0:
263,232,9985,6,0,P|307:239|343:250,1,67.2,2|0,1:2|0:0,0:0:0:0:
426,358,10161,2,0,P|410:315|401:278,1,67.2,2|0,1:2|0:0,0:0:0:0:
454,154,10338,2,0,P|425:188|397:214,1,67.2,2|0,1:2|0:0,0:0:0:0:
380,248,10514,1,2,0:0:0:0:
319,218,12103,5,6,3:2:0:0:
256,192,12279,1,0,0:0:0:0:
192,164,12456,1,0,1:0:0:0:
383,245,12808,5,2,3:2:0:0:
256,192,12984,1,0,0:0:0:0:
128,136,13161,1,0,1:0:0:0:
511,298,13514,69,2,3:2:0:0:
256,192,13690,1,0,0:0:0:0:
0,81,13867,1,0,1:0:0:0:
66,37,14220,6,0,P|75:68|80:89,1,50.3999984619141,2|0,3:2|0:0,0:0:0:0:
153,69,14573,2,0,P|144:38|139:17,1,50.3999984619141,2|0,1:2|0:0,0:0:0:0:
228,256,14926,69,2,3:2:0:0:
256,192,15103,1,0,0:0:0:0:
278,127,15279,1,0,1:0:0:0:
200,319,15632,5,2,3:2:0:0:
256,192,15809,1,0,0:0:0:0:
300,61,15985,1,0,1:0:0:0:
200,319,16338,69,2,3:2:0:0:
107,348,16514,1,0,0:0:0:0:
46,273,16691,1,2,1:2:0:0:
100,193,16867,1,2,0:0:0:0:
193,218,17044,1,2,3:2:0:0:
250,276,17220,5,0,1:0:0:0:
252,267,17308,1,0,1:0:0:0:
254,260,17397,1,0,1:0:0:0:
312,214,17485,1,0,1:0:0:0:
286,144,17573,1,0,1:0:0:0:
211,147,17661,1,0,1:0:0:0:
193,218,17750,69,6,3:2:0:0:
256,192,17926,1,0,0:0:0:0:
320,164,18103,1,0,1:0:0:0:
129,245,18455,5,2,3:2:0:0:
256,192,18631,1,0,0:0:0:0:
384,136,18808,1,0,1:0:0:0:
1,298,19161,69,2,3:2:0:0:
256,192,19337,1,0,0:0:0:0:
512,81,19514,1,0,1:0:0:0:
446,37,19867,6,0,P|437:68|432:89,1,50.3999984619141,2|0,3:2|0:0,0:0:0:0:
359,69,20220,2,0,P|368:38|373:17,1,50.3999984619141,2|0,1:2|0:0,0:0:0:0:
284,256,20573,69,2,3:2:0:0:
256,192,20750,1,0,0:0:0:0:
234,127,20926,1,0,1:0:0:0:
312,319,21279,5,2,3:2:0:0:
256,192,21456,1,0,0:0:0:0:
212,61,21632,1,0,1:0:0:0:
312,319,21985,69,2,3:2:0:0:
405,348,22161,1,0,0:0:0:0:
466,273,22338,1,2,1:2:0:0:
412,193,22514,1,2,0:0:0:0:
319,218,22691,1,2,3:2:0:0:
258,270,22867,5,0,1:0:0:0:
251,267,22956,1,0,1:0:0:0:
245,265,23044,1,0,1:0:0:0:
177,238,23132,1,0,1:0:0:0:
181,164,23220,1,0,1:0:0:0:
251,145,23309,1,0,1:0:0:0:
291,207,23397,1,0,3:0:0:0:
449,336,26220,6,0,P|415:342|381:352,1,67.2,2|0,3:2|0:0,0:0:0:0:
383,351,26573,1,0,3:0:0:0:
427,176,26750,2,0,P|393:170|359:160,1,67.2,2|0,0:0|3:0,0:0:0:0:
490,250,27103,1,0,0:0:0:0:
412,262,27279,1,2,3:2:0:0:
335,275,27456,1,0,0:0:0:0:
145,301,27632,6,0,B|228:288|204:337|291:327,1,134.4,2|0,3:2|3:0,0:0:0:0:
236,179,28161,2,0,P|255:222|261:251,2,67.2,2|0|0,0:0|3:0|0:0,0:0:0:0:
124,64,28691,2,0,P|132:96|147:126,1,67.2,0|0,3:0|0:0,0:0:0:0:
265,93,29044,1,2,3:2:0:0:
175,230,29220,70,0,P|120:206|40:204,1,134.4,2|2,0:0|0:0,0:0:0:0:
165,129,29750,1,2,3:2:0:0:
165,129,29926,1,0,0:0:0:0:
9,94,30103,1,2,3:2:0:0:
9,94,30279,1,0,0:0:0:0:
108,25,30456,6,0,P|93:81|87:117,1,67.2,2|0,3:2|0:0,0:0:0:0:
91,90,30808,1,0,3:0:0:0:
250,124,30985,2,0,P|265:68|271:32,1,67.2,2|0,0:0|3:0,0:0:0:0:
161,150,31338,1,0,0:0:0:0:
180,77,31514,1,2,3:2:0:0:
201,2,31691,1,0,0:0:0:0:
161,150,31867,70,0,P|146:206|140:242,1,67.2,2|0,3:2|0:0,0:0:0:0:
144,215,32220,1,0,3:0:0:0:
305,254,32397,2,0,P|320:198|326:162,1,67.2,2|0,0:0|3:0,0:0:0:0:
252,127,32750,2,0,P|230:208|215:284,1,134.4
88,320,33279,6,0,P|56:309|23:302,1,67.2,2|0,3:2|0:0,0:0:0:0:
126,244,33632,1,0,3:0:0:0:
181,325,33808,1,2,0:0:0:0:
181,325,33985,2,0,P|173:354|169:371,1,33.6,2|0,3:2|0:0,0:0:0:0:
255,384,34161,69,2,0:0:0:0:
287,376,34249,1,2,0:0:0:0:
313,356,34337,1,0,1:0:0:0:
329,326,34425,1,0,1:0:0:0:
331,293,34514,2,0,P|323:264|319:247,1,33.6,0|0,1:0|1:0,0:0:0:0:
440,107,34691,22,0,B|392:177|452:191|398:254,1,151.199995385742,6|0,3:2|3:0,0:0:0:0:
502,167,35220,1,2,0:0:0:0:
331,198,35397,1,2,3:2:0:0:
458,306,35573,2,0,P|495:255|496:236,1,75.5999976928712,0|0,0:0|3:0,0:0:0:0:
433,101,35926,6,0,B|385:171|445:185|391:248,1,151.199995385742,2|0,0:0|0:0,0:0:0:0:
324,192,36456,1,0,3:0:0:0:
451,300,36632,2,0,P|488:249|489:230,1,75.5999976928712,2|2,0:0|3:2,0:0:0:0:
328,193,36985,1,0,0:0:0:0:
493,161,37161,1,2,3:2:0:0:
367,39,37338,1,2,0:0:0:0:
381,73,37426,1,2,0:0:0:0:
391,110,37514,1,2,3:2:0:0:
391,110,37867,70,0,B|309:60|290:141|202:71,1,176.399994616699,6|0,3:2|0:0,0:0:0:0:
142,102,38220,1,2,3:2:0:0:
273,17,38397,1,0,0:0:0:0:
302,116,38573,1,2,3:2:0:0:
302,116,38750,1,0,0:0:0:0:
161,23,38926,5,2,3:2:0:0:
213,176,39103,1,0,0:0:0:0:
65,146,39279,1,2,3:2:0:0:
150,103,39456,1,0,0:0:0:0:
115,255,39632,70,0,P|102:295|91:342,1,75.5999976928712,2|0,3:2|0:0,0:0:0:0:
41,222,39985,1,2,3:2:0:0:
41,222,40161,1,2,0:0:0:0:
156,384,40338,6,0,P|211:369|248:274,1,151.199995385742,2|0,3:2|3:0,0:0:0:0:
321,360,40867,1,0,0:0:0:0:
172,252,41044,1,2,3:2:0:0:
349,212,41220,2,0,P|337:258|332:291,1,75.5999976928712,2|0,0:0|3:0,0:0:0:0:
233,362,41573,70,0,P|245:316|250:283,2,75.5999976928712,2|0|2,0:0|3:0|0:0,0:0:0:0:
167,249,42103,1,0,3:0:0:0:
344,209,42279,2,0,P|332:255|327:288,1,75.5999976928712,2|0,0:0|3:0,0:0:0:0:
424,206,42632,1,0,0:0:0:0:
286,147,42808,1,2,3:2:0:0:
387,329,42985,5,2,0:0:0:0:
391,337,43073,1,2,0:0:0:0:
395,343,43161,2,0,P|449:320|464:287,2,75.5999976928712,2|0|0,3:2|0:0|3:0,0:0:0:0:
302,273,43691,69,2,0:0:0:0:
309,277,43779,1,2,0:0:0:0:
316,281,43867,2,0,P|323:222|296:187,2,84,2|0|0,3:2|0:0|3:0,0:0:0:0:
225,365,44397,5,2,0:0:0:0:
230,360,44485,1,2,0:0:0:0:
234,354,44573,2,0,P|199:336|166:336,1,42,2|0,3:2|0:0,0:0:0:0:
132,289,44750,2,0,P|113:298|92:301,1,42,0|0,3:0|0:0,0:0:0:0:
0,267,44926,1,0,3:0:0:0:
5,287,45014,1,0,3:0:0:0:
10,307,45102,1,0,3:0:0:0:
14,328,45190,1,0,3:0:0:0:
18,348,45278,69,2,3:2:0:0:
256,193,45456,1,2,3:2:0:0:
256,193,45985,22,0,B|188:210|188:210|166:242|166:242|83:270,1,176.399994616699,6|0,3:2|0:0,0:0:0:0:
69,332,46338,2,0,P|121:346|172:367,1,92.4000028198243,2|0,1:2|0:0,0:0:0:0:
113,174,46691,6,0,P|60:176|24:234,1,92.4000028198243,2|0,3:2|0:0,0:0:0:0:
239,280,47044,2,0,P|292:278|328:220,1,92.4000028198243,2|2,1:2|0:0,0:0:0:0:
276,192,47308,1,2,0:0:0:0:
276,192,47397,1,2,3:2:0:0:
327,250,47573,1,0,0:0:0:0:
209,67,47750,69,2,1:2:0:0:
164,269,47926,1,0,0:0:0:0:
286,135,48103,5,2,3:2:0:0:
87,200,48279,1,0,0:0:0:0:
266,239,48456,69,2,1:2:0:0:
108,98,48632,1,2,0:0:0:0:
187,167,48808,5,0,3:0:0:0:
131,13,48985,69,2,0:0:0:0:
57,3,49161,1,2,1:2:0:0:
19,68,49338,1,2,0:0:0:0:
201,88,49514,5,2,3:2:0:0:
214,39,49691,1,2,0:0:0:0:
231,70,49867,1,2,1:2:0:0:
184,56,50044,1,2,0:0:0:0:
288,261,50220,69,2,3:2:0:0:
176,61,50397,1,2,0:0:0:0:
148,277,50573,1,2,1:2:0:0:
302,118,50750,1,2,0:0:0:0:
84,156,50926,1,2,3:2:0:0:
288,261,51103,6,0,P|326:269|360:284,1,54.5999975006105,2|0,0:0|0:0,0:0:0:0:
494,180,51279,1,2,1:2:0:0:
481,131,51367,1,0,1:0:0:0:
441,99,51455,1,0,1:0:0:0:
390,98,51543,1,0,1:0:0:0:
373,110,51632,70,0,P|400:186|423:274,1,163.799992501831,6|0,3:2|0:0,0:0:0:0:
458,333,51985,2,0,P|496:291|493:246,1,92.4000028198243,2|0,1:2|0:0,0:0:0:0:
292,366,52338,6,0,P|236:375|193:387,1,92.4000028198243,2|0,3:2|0:0,0:0:0:0:
331,288,52691,1,2,1:2:0:0:
385,369,52867,1,2,0:0:0:0:
385,369,52956,1,2,0:0:0:0:
385,369,53044,1,2,3:2:0:0:
419,287,53220,1,0,0:0:0:0:
183,227,53397,69,2,1:2:0:0:
331,288,53573,1,0,0:0:0:0:
193,307,53750,5,2,3:2:0:0:
322,208,53926,1,0,0:0:0:0:
268,338,54103,69,2,1:2:0:0:
247,177,54279,1,0,0:0:0:0:
257,255,54456,5,0,3:0:0:0:
218,99,54632,2,0,P|244:173|248:188,1,75.5999976928712,2|0,0:0|1:0,0:0:0:0:
280,44,54985,1,2,0:0:0:0:
147,163,55161,2,0,P|102:175|59:192,1,92.4000028198243,2|2,3:2|0:0,0:0:0:0:
0,148,55426,1,2,0:0:0:0:
0,148,55514,1,2,1:2:0:0:
221,210,55691,70,0,B|277:227|277:227|295:247|295:247|374:272,1,138.600004229736,6|0,3:2|0:0,0:0:0:0:
416,233,56044,6,0,B|430:223|422:206|422:206|406:215|419:240,1,58.7999982055665,2|0,3:2|0:0,0:0:0:0:
334,340,56220,2,0,B|317:331|307:345|307:345|322:356|338:331,1,58.7999982055665,2|0,3:2|0:0,0:0:0:0:
467,365,56397,2,0,B|470:381|488:379|488:379|486:361|457:365,1,58.7999982055665,0|0,3:0|0:0,0:0:0:0:
408,312,56573,69,2,1:2:0:0:
408,312,56926,5,2,1:2:0:0:
408,312,57279,70,0,P|419:264|450:215,1,67.2,4|0,3:2|0:0,0:0:0:0:
501,107,57456,69,2,0:0:0:0:
506,127,57632,1,0,1:0:0:0:
344,182,57808,69,2,0:0:0:0:
349,202,57984,1,0,3:0:0:0:
413,115,58161,5,2,0:0:0:0:
418,135,58337,1,0,1:0:0:0:
223,44,58513,69,2,0:0:0:0:
228,64,58691,1,0,3:0:0:0:
351,0,58867,38,0,P|310:125|289:260,1,226.799993078614,2|0,0:0|0:0,0:0:0:0:
342,276,59220,1,2,0:0:0:0:
142,355,59397,1,2,3:2:0:0:
195,217,59573,1,2,0:0:0:0:
195,217,59661,1,2,0:0:0:0:
195,217,59750,1,2,1:2:0:0:
268,368,59926,1,0,0:0:0:0:
102,265,60103,70,0,P|68:255|31:250,1,67.2,0|0,3:0|0:0,0:0:0:0:
5,99,60279,69,2,0:0:0:0:
0,119,60455,1,0,1:0:0:0:
162,175,60631,69,2,0:0:0:0:
157,195,60807,1,0,3:0:0:0:
107,69,60984,5,2,0:0:0:0:
102,89,61160,1,0,1:0:0:0:
225,267,61338,69,2,0:0:0:0:
220,287,61514,1,0,3:0:0:0:
152,384,61691,38,0,P|124:284|78:161,1,226.799993078614,2|0,0:0|0:0,0:0:0:0:
10,138,62044,1,2,0:0:0:0:
191,198,62220,1,2,3:2:0:0:
47,289,62397,1,2,0:0:0:0:
155,90,62573,1,2,1:2:0:0:
152,99,62661,1,0,1:0:0:0:
149,108,62749,1,0,3:0:0:0:
148,117,62837,1,0,3:0:0:0:
146,126,62926,70,0,P|119:175|97:231,1,67.2,4|0,3:2|0:0,0:0:0:0:
10,29,63103,69,2,0:0:0:0:
15,49,63279,1,0,1:0:0:0:
249,84,63455,69,2,0:0:0:0:
254,104,63631,1,0,3:0:0:0:
141,106,63808,5,2,0:0:0:0:
146,126,63984,1,0,1:0:0:0:
374,39,64160,69,2,0:0:0:0:
379,59,64338,1,0,3:0:0:0:
430,258,64514,38,0,P|459:164|514:40,1,226.799993078614,2|0,0:0|0:0,0:0:0:0:
450,0,64867,1,2,0:0:0:0:
303,114,65044,1,2,3:2:0:0:
421,190,65220,1,2,0:0:0:0:
421,190,65308,1,2,0:0:0:0:
421,190,65397,1,2,1:2:0:0:
356,30,65573,1,0,0:0:0:0:
319,220,65750,69,0,3:2:0:0:
409,270,65926,2,0,P|465:265|495:220,2,84,2|0|2,0:0|1:0|0:0,0:0:0:0:
260,376,66456,1,2,3:2:0:0:
324,303,66632,1,2,0:0:0:0:
328,312,66720,1,2,0:0:0:0:
333,321,66808,1,2,1:2:0:0:
442,371,66985,5,6,3:2:0:0:
284,73,67338,69,2,1:2:0:0:
214,301,67514,1,2,1:2:0:0:
512,143,67867,5,2,1:2:0:0:
320,170,68573,69,6,3:2:0:0:
256,192,68749,1,0,0:0:0:0:
191,215,68926,1,0,1:0:0:0:
384,147,69279,5,2,3:2:0:0:
256,192,69455,1,0,0:0:0:0:
127,237,69632,1,0,1:0:0:0:
512,102,69985,69,2,3:2:0:0:
256,192,70161,1,0,0:0:0:0:
0,282,70338,1,0,1:0:0:0:
68,321,70691,6,0,P|78:279|80:255,1,50.3999984619141,2|0,3:2|0:0,0:0:0:0:
154,287,71044,2,0,P|148:312|144:337,1,50.3999984619141,2|0,1:2|0:0,0:0:0:0:
234,128,71397,69,2,3:2:0:0:
256,192,71573,1,0,0:0:0:0:
279,257,71750,1,0,1:0:0:0:
211,64,72103,5,2,3:2:0:0:
256,192,72279,1,0,0:0:0:0:
301,321,72456,1,0,1:0:0:0:
211,64,72808,69,2,3:2:0:0:
114,22,72984,1,0,0:0:0:0:
42,94,73161,1,2,1:2:0:0:
90,183,73337,1,2,0:0:0:0:
192,170,73514,1,2,3:2:0:0:
256,118,73690,5,0,1:0:0:0:
261,125,73778,1,0,1:0:0:0:
265,132,73867,1,0,1:0:0:0:
320,185,73956,1,0,1:0:0:0:
286,253,74044,1,0,1:0:0:0:
210,242,74132,1,0,1:0:0:0:
191,170,74220,69,6,3:2:0:0:
256,192,74396,1,0,0:0:0:0:
321,215,74573,1,0,1:0:0:0:
128,147,74926,5,2,3:2:0:0:
256,192,75102,1,0,0:0:0:0:
385,237,75279,1,0,1:0:0:0:
0,102,75632,69,2,3:2:0:0:
256,192,75808,1,0,0:0:0:0:
512,282,75985,1,0,1:0:0:0:
443,322,76338,6,0,P|433:280|431:256,1,50.3999984619141,2|0,3:2|0:0,0:0:0:0:
356,288,76691,2,0,P|362:313|366:338,1,50.3999984619141,2|0,1:2|0:0,0:0:0:0:
278,128,77044,69,2,3:2:0:0:
256,192,77220,1,0,0:0:0:0:
233,257,77397,1,0,1:0:0:0:
301,64,77750,5,2,3:2:0:0:
256,192,77926,1,0,0:0:0:0:
211,321,78103,1,0,1:0:0:0:
301,64,78456,69,2,3:2:0:0:
398,22,78632,1,0,0:0:0:0:
470,94,78809,1,2,1:2:0:0:
422,183,78985,1,2,0:0:0:0:
320,170,79162,1,2,3:2:0:0:
261,128,79338,5,0,1:0:0:0:
255,125,79426,1,0,1:0:0:0:
249,122,79515,1,0,1:0:0:0:
181,149,79602,1,0,1:0:0:0:
185,223,79690,1,0,1:0:0:0:
255,242,79779,1,0,1:0:0:0:
295,179,79867,6,0,P|329:169|365:168,1,50.3999984619141,6|0,3:2|0:0,0:0:0:0:
216,85,80220,2,0,P|223:108|227:133,1,50.3999984619141,0|0,3:2|0:0,0:0:0:0:
310,6,80573,2,0,P|285:13|260:17,1,50.3999984619141,2|0,3:2|0:0,0:0:0:0:
183,15,80926,1,2,3:2:0:0:
277,102,81103,6,0,P|301:94|326:91,1,50.3999984619141,2|2,0:0|3:2,0:0:0:0:
239,210,81456,2,0,P|231:185|227:160,1,50.3999984619141,0|0,0:0|3:0,0:0:0:0:
346,248,81808,2,0,P|321:255|296:259,2,50.3999984619141,2|0|0,0:0|3:2|0:0,0:0:0:0:
444,330,82338,1,2,3:2:0:0:
424,260,82514,1,2,0:0:0:0:
387,384,82691,70,0,P|333:368|269:365,1,100.799996923828,2|0,3:2|3:2,0:0:0:0:
211,384,83220,1,0,0:0:0:0:
160,328,83397,1,2,3:2:0:0:
160,328,83574,1,0,0:0:0:0:
209,266,83750,1,2,3:2:0:0:
209,266,83927,1,2,0:0:0:0:
288,283,84103,5,2,3:2:0:0:
160,328,84279,1,0,0:0:0:0:
32,373,84456,1,2,3:2:0:0:
28,168,84808,70,0,P|68:174|125:199,1,100.799996923828,2|2,3:2|3:2,0:0:0:0:
183,149,85338,1,2,0:0:0:0:
0,268,85514,6,0,P|28:255|50:251,1,50.3999984619141,2|0,3:2|0:0,0:0:0:0:
112,281,85867,1,0,3:2:0:0:
137,297,86044,1,0,0:0:0:0:
176,298,86220,1,2,3:2:0:0:
235,264,86397,1,0,0:0:0:0:
256,192,86573,1,2,3:2:0:0:
203,126,86750,2,0,P|192:76|193:56,1,50.3999984619141,2|0,0:0|3:2,0:0:0:0:
309,258,87103,70,0,P|316:281|319:306,1,50.3999984619141,2|0,0:0|3:0,0:0:0:0:
256,192,87456,1,0,0:0:0:0:
277,120,87632,1,2,3:2:0:0:
336,86,87809,1,0,0:0:0:0:
375,87,87985,1,2,3:2:0:0:
400,103,88162,1,2,0:0:0:0:
464,132,88338,6,0,P|489:127|512:116,2,50.3999984619141,2|0|0,3:2|0:0|3:2,0:0:0:0:
417,195,88867,1,0,0:0:0:0:
485,245,89044,1,2,3:2:0:0:
485,245,89220,1,0,0:0:0:0:
416,204,89397,1,2,3:2:0:0:
436,308,89573,70,0,P|411:313|388:324,2,50.3999984619141,2|2|0,0:0|3:2|0:0,0:0:0:0:
292,232,90103,1,2,3:2:0:0:
318,301,90279,1,0,0:0:0:0:
397,156,90456,2,0,P|374:166|349:171,1,50.3999984619141,2|0,3:2|0:0,0:0:0:0:
240,290,90808,1,2,3:2:0:0:
240,290,91161,22,0,P|286:300|327:318,1,67.2,2|0,3:2|0:0,0:0:0:0:
211,160,91514,2,0,P|201:206|183:247,1,67.2,2|0,3:2|0:0,0:0:0:0:
147,361,91867,2,0,P|157:315|175:274,1,67.2,2|0,3:2|0:0,0:0:0:0:
54,215,92220,1,2,3:2:0:0:
119,233,92397,6,0,P|88:222|55:216,1,67.2,2|0,0:0|3:0,0:0:0:0:
87,50,92750,2,0,P|118:61|151:67,1,67.2,2|0,0:0|3:0,0:0:0:0:
35,124,93103,2,0,B|112:120|91:167|183:160,1,134.4,2|2,0:0|0:0,0:0:0:0:
235,29,93632,1,2,3:2:0:0:
221,106,93808,1,2,0:0:0:0:
355,126,93985,70,0,P|315:132|278:148,1,67.2,0|0,3:0|0:0,0:0:0:0:
241,238,94338,1,2,3:2:0:0:
313,218,94514,1,2,0:0:0:0:
222,168,94691,1,2,3:2:0:0:
222,168,94867,1,0,0:0:0:0:
172,258,95044,1,2,3:2:0:0:
172,258,95220,1,2,0:0:0:0:
263,308,95397,5,2,3:2:0:0:
222,168,95573,1,2,0:0:0:0:
181,27,95750,1,2,3:2:0:0:
402,159,96103,70,0,P|352:176|271:247,1,134.4,2|2,3:2|3:2,0:0:0:0:
222,168,96632,1,2,0:0:0:0:
363,264,96808,6,0,P|404:273|452:296,1,67.2,2|2,3:2|0:0,0:0:0:0:
495,239,97161,1,2,3:2:0:0:
512,208,97338,1,0,0:0:0:0:
502,156,97514,1,2,3:2:0:0:
450,103,97691,1,2,0:0:0:0:
361,99,97867,1,2,3:2:0:0:
309,205,98044,2,0,P|318:244|324:289,1,67.2,2|0,0:0|3:0,0:0:0:0:
203,178,98397,70,0,P|195:146|189:113,1,67.2,2|0,0:0|3:0,0:0:0:0:
151,285,98750,1,0,0:0:0:0:
62,281,98926,1,2,3:2:0:0:
10,228,99103,1,2,0:0:0:0:
0,176,99279,1,2,3:2:0:0:
17,145,99456,1,2,0:0:0:0:
84,101,99632,6,0,P|116:113|149:120,1,67.2,0|2,3:0|0:0,0:0:0:0:
282,137,99985,1,2,3:2:0:0:
220,91,100161,1,2,0:0:0:0:
211,171,100338,1,2,3:2:0:0:
211,171,100514,1,0,0:0:0:0:
288,59,100691,1,2,3:2:0:0:
338,200,100867,70,0,P|305:207|273:218,2,67.2,2|2|2,0:0|3:2|0:0,0:0:0:0:
368,55,101397,1,2,3:2:0:0:
390,137,101573,1,2,0:0:0:0:
231,27,101750,2,0,P|263:19|295:8,1,67.2,2|0,3:2|0:0,0:0:0:0:
444,77,102103,1,2,3:2:0:0:
444,77,102456,6,0,P|399:85|348:113,1,84,6|0,3:2|0:0,0:0:0:0:
344,117,102720,1,0,3:0:0:0:
344,117,102808,1,0,1:0:0:0:
419,175,102985,1,0,3:0:0:0:
292,221,103161,70,0,P|337:229|388:257,1,84,2|0,3:2|0:0,0:0:0:0:
395,267,103425,1,0,3:0:0:0:
395,267,103513,1,0,1:0:0:0:
317,319,103690,1,0,3:0:0:0:
419,175,103867,5,2,3:2:0:0:
325,118,104044,1,0,3:0:0:0:
329,133,104132,1,0,3:0:0:0:
333,148,104220,1,0,1:0:0:0:
222,258,104397,1,0,3:0:0:0:
218,243,104485,1,0,3:0:0:0:
214,228,104573,1,2,1:2:0:0:
174,21,104750,1,2,1:2:0:0:
174,21,105279,6,0,B|195:50|195:50|172:159|172:159|199:200,1,176.399994616699,6|0,3:2|0:0,0:0:0:0:
256,220,105632,2,0,P|273:168|250:138,1,92.4000028198243,2|0,1:2|0:0,0:0:0:0:
110,72,105985,6,0,P|55:88|14:95,1,92.4000028198243,2|0,3:2|0:0,0:0:0:0:
252,132,106338,2,0,P|307:116|348:109,1,92.4000028198243,2|2,1:2|0:0,0:0:0:0:
404,157,106603,1,2,0:0:0:0:
404,157,106691,1,2,3:2:0:0:
346,104,106867,1,0,0:0:0:0:
195,226,107044,69,2,1:2:0:0:
239,26,107220,1,0,0:0:0:0:
294,195,107397,5,2,3:2:0:0:
138,56,107573,1,0,0:0:0:0:
315,94,107750,69,2,1:2:0:0:
119,158,107926,1,2,0:0:0:0:
217,126,108102,5,0,3:0:0:0:
60,235,108279,69,2,0:0:0:0:
0,188,108456,1,2,1:2:0:0:
29,120,108632,1,2,0:0:0:0:
174,253,108808,5,2,3:2:0:0:
151,297,108985,1,2,0:0:0:0:
139,264,109161,1,2,1:2:0:0:
183,285,109338,1,2,0:0:0:0:
307,95,109514,69,2,3:2:0:0:
193,280,109691,1,2,0:0:0:0:
394,196,109867,1,2,1:2:0:0:
181,146,110044,1,2,0:0:0:0:
325,312,110220,1,2,3:2:0:0:
307,95,110397,6,0,P|290:132|275:177,1,54.5999975006105,2|0,0:0|0:0,0:0:0:0:
212,308,110573,1,2,1:2:0:0:
167,290,110661,1,0,1:0:0:0:
148,247,110749,1,0,1:0:0:0:
164,205,110837,1,0,1:0:0:0:
177,198,110926,70,0,P|307:246|353:271,1,163.799992501831,6|0,3:2|0:0,0:0:0:0:
374,322,111279,2,0,P|312:348|273:370,1,92.4000028198243,2|0,1:2|0:0,0:0:0:0:
391,162,111632,6,0,P|413:211|395:267,1,92.4000028198243,2|0,3:2|0:0,0:0:0:0:
239,135,111985,2,0,P|217:86|235:30,1,92.4000028198243,2|2,1:2|0:0,0:0:0:0:
286,1,112250,1,2,0:0:0:0:
286,1,112338,1,2,3:2:0:0:
342,52,112514,1,0,0:0:0:0:
289,211,112691,69,2,1:2:0:0:
351,60,112867,1,0,0:0:0:0:
240,146,113044,5,2,3:2:0:0:
399,125,113220,1,0,0:0:0:0:
270,71,113397,69,2,1:2:0:0:
369,200,113573,1,0,0:0:0:0:
318,133,113750,5,0,3:0:0:0:
454,236,113926,2,0,P|472:174|484:147,1,75.5999976928712,2|0,0:0|1:0,0:0:0:0:
405,102,114279,1,2,0:0:0:0:
306,243,114456,2,0,P|335:276|388:275,1,92.4000028198243,2|2,3:2|0:0,0:0:0:0:
450,246,114720,1,2,0:0:0:0:
450,246,114808,1,2,1:2:0:0:
242,189,114985,70,0,B|274:160|272:116|272:116|291:156|333:167,1,163.799992501831,6|0,3:2|0:0,0:0:0:0:
347,83,115338,6,0,B|371:62|371:62|338:115,1,63.0000024032594,2|0,3:2|0:0,0:0:0:0:
310,243,115514,2,0,B|316:274|316:274|286:219,1,63.0000024032594,2|0,3:2|0:0,0:0:0:0:
193,127,115691,2,0,B|162:116|162:116|225:118,1,63.0000024032594,0|0,3:0|0:0,0:0:0:0:
283,156,115867,69,2,1:2:0:0:
283,156,116220,5,2,1:2:0:0:
283,156,116573,70,0,P|234:184|208:211,1,67.2,4|0,3:2|0:0,0:0:0:0:
76,300,116750,69,2,0:0:0:0:
82,281,116926,1,0,1:0:0:0:
140,230,117103,69,2,0:0:0:0:
146,211,117279,1,0,3:0:0:0:
12,370,117456,5,2,0:0:0:0:
18,351,117632,1,0,1:0:0:0:
204,160,117808,69,2,0:0:0:0:
210,141,117984,1,0,3:0:0:0:
0,226,118161,38,0,P|156:257|247:288,1,226.799993078614,2|0,0:0|0:0,0:0:0:0:
284,317,118514,1,2,0:0:0:0:
124,167,118691,1,2,3:2:0:0:
164,341,118867,1,2,0:0:0:0:
164,341,118956,1,2,0:0:0:0:
164,341,119044,1,2,1:2:0:0:
257,195,119220,1,0,0:0:0:0:
67,240,119397,70,0,P|104:246|154:266,1,67.2,0|0,3:0|0:0,0:0:0:0:
215,312,119574,69,2,0:0:0:0:
209,293,119750,1,0,1:0:0:0:
375,230,119927,69,2,0:0:0:0:
369,211,120103,1,0,3:0:0:0:
257,195,120280,5,2,0:0:0:0:
251,176,120456,1,0,1:0:0:0:
444,327,120632,69,2,0:0:0:0:
438,308,120808,1,0,3:0:0:0:
512,214,120985,38,0,P|366:245|267:278,1,226.799993078614,2|0,0:0|0:0,0:0:0:0:
219,243,121338,1,2,0:0:0:0:
387,152,121514,1,2,3:2:0:0:
364,326,121691,1,2,0:0:0:0:
287,168,121867,1,2,1:2:0:0:
284,160,121955,1,0,1:0:0:0:
280,154,122043,1,0,3:0:0:0:
277,147,122131,1,0,3:0:0:0:
273,141,122220,70,0,P|285:101|295:49,1,75.5999976928712,4|0,3:2|0:0,0:0:0:0:
342,203,122397,69,2,0:0:0:0:
348,184,122573,1,0,1:0:0:0:
174,160,122750,69,2,0:0:0:0:
180,141,122926,1,0,3:0:0:0:
425,228,123103,5,2,0:0:0:0:
431,209,123279,1,0,1:0:0:0:
91,135,123455,69,2,0:0:0:0:
97,116,123631,1,0,3:0:0:0:
0,207,123808,38,0,P|108:174|220:155,1,226.799993078614,2|0,0:0|0:0,0:0:0:0:
283,113,124161,1,2,0:0:0:0:
115,251,124338,1,2,3:2:0:0:
149,86,124514,1,2,0:0:0:0:
149,86,124603,1,2,0:0:0:0:
149,86,124691,1,2,1:2:0:0:
293,189,124867,1,0,0:0:0:0:
33,147,125044,69,0,3:2:0:0:
71,215,125220,2,0,P|127:191|139:154,2,84,2|0|2,0:0|1:0|0:0,0:0:0:0:
143,64,125750,1,2,3:2:0:0:
29,103,125926,1,2,0:0:0:0:
41,104,126014,1,2,0:0:0:0:
53,106,126102,1,2,1:2:0:0:
292,164,126279,5,6,3:2:0:0:
17,227,126632,69,2,1:2:0:0:
123,58,126808,1,2,1:2:0:0:
186,333,127161,5,2,1:2:0:0:
0,318,127867,69,6,3:2:0:0:
64,287,128044,1,0,0:0:0:0:
127,255,128220,1,0,1:0:0:0:
0,318,128573,5,2,3:2:0:0:
127,255,128750,1,0,0:0:0:0:
256,192,128926,1,0,1:0:0:0:
0,318,129279,69,2,3:2:0:0:
256,192,129456,1,0,0:0:0:0:
512,66,129632,1,0,1:0:0:0:
447,23,129985,6,0,P|436:61|434:89,1,50.3999984619141,2|0,3:2|0:0,0:0:0:0:
356,53,130338,2,0,P|367:15|369:-13,1,50.3999984619141,2|0,1:2|0:0,0:0:0:0:
225,128,130690,69,2,3:2:0:0:
256,192,130867,1,0,0:0:0:0:
288,255,131043,1,0,1:0:0:0:
194,64,131397,5,2,3:2:0:0:
256,192,131574,1,0,0:0:0:0:
320,317,131750,1,0,1:0:0:0:
194,65,132103,69,2,3:2:0:0:
273,77,132279,1,0,0:0:0:0:
285,155,132456,1,2,1:2:0:0:
214,191,132632,1,2,0:0:0:0:
158,135,132808,1,2,3:2:0:0:
48,38,132985,5,0,1:0:0:0:
56,34,133073,1,0,1:0:0:0:
64,30,133161,1,0,1:0:0:0:
115,76,133250,1,0,1:0:0:0:
87,140,133338,1,0,1:0:0:0:
17,135,133426,1,0,1:0:0:0:
0,66,133514,69,6,3:2:0:0:
64,97,133691,1,0,0:0:0:0:
127,129,133867,1,0,1:0:0:0:
0,66,134220,5,2,3:2:0:0:
127,129,134397,1,0,0:0:0:0:
256,192,134573,1,0,1:0:0:0:
0,66,134926,69,2,3:2:0:0:
256,192,135103,1,0,0:0:0:0:
512,318,135279,1,0,1:0:0:0:
447,361,135632,6,0,P|436:323|434:295,1,50.3999984619141,2|0,3:2|0:0,0:0:0:0:
356,331,135985,2,0,P|367:369|369:397,1,50.3999984619141,2|0,1:2|0:2,0:0:0:0:
225,256,136337,69,2,3:2:0:0:
256,192,136514,1,0,0:0:0:0:
288,129,136690,1,0,1:0:0:0:
194,320,137044,5,2,3:2:0:0:
256,192,137221,1,0,0:0:0:0:
320,66,137397,1,0,1:0:0:0:
194,319,137750,69,2,3:2:0:0:
273,307,137926,1,0,0:0:0:0:
285,229,138103,1,2,1:2:0:0:
214,193,138279,1,2,0:0:0:0:
158,249,138455,1,2,3:2:0:0:
128,327,138632,5,0,1:0:0:0:
121,320,138720,1,0,1:0:0:0:
113,315,138808,1,0,1:0:0:0:
43,292,138897,1,0,1:0:0:0:
40,218,138985,1,0,1:0:0:0:
112,190,139073,1,0,1:0:0:0:
158,249,139161,1,0,3:0:0:0:
