osu file format v14

[General]
AudioFilename: audio.mp3
AudioLeadIn: 0
PreviewTime: 71728
Countdown: 1
SampleSet: None
StackLeniency: 0.7
Mode: 0
LetterboxInBreaks: 0
WidescreenStoryboard: 0

[Editor]
Bookmarks: 17965,42102
DistanceSpacing: 1.3
BeatDivisor: 4
GridSize: 4
TimelineZoom: 1

[Metadata]
Title:The Death of a Ghost Pupper
TitleUnicode:The Death of a Ghost Pupper
Artist:Hanky
ArtistUnicode:Hanky
Creator:-Kyu
Version:spoopy
Source:
Tags:
BeatmapID:2015855
BeatmapSetID:962756

[Difficulty]
HPDrainRate:5
CircleSize:4
OverallDifficulty:5
ApproachRate:7
SliderMultiplier:1.5
SliderTickRate:1

[Events]
//Background and Video events
0,0,"jthqv0C.jpg",0,0
//Break Periods
//Storyboard Layer 0 (Background)
//Storyboard Layer 1 (Fail)
//Storyboard Layer 2 (Pass)
//Storyboard Layer 3 (Foreground)
//Storyboard Sound Samples

[TimingPoints]
34,344.827586206897,4,1,1,50,1,0
27620,-76.9230769230769,4,1,1,50,0,1
49689,-100,4,1,1,50,0,0
71758,-83.3333333333333,4,1,1,50,0,1
88309,-100,4,1,1,50,0,0

[HitObjects]
76,66,34,6,0,P|89:120|85:158,1,75
54,219,378,1,0,0:0:0:0:
54,219,551,1,0,0:0:0:0:
143,344,723,2,0,L|237:344,1,75
331,303,1068,1,0,0:0:0:0:
331,303,1240,1,0,0:0:0:0:
426,330,1413,6,0,P|480:317|518:321,2,75
304,208,1930,1,0,0:0:0:0:
430,184,2102,2,0,L|497:118,1,75
420,29,2447,2,0,L|366:81,1,75
208,84,2792,5,0,0:0:0:0:
86,54,2965,1,0,0:0:0:0:
208,176,3137,2,0,L|208:251,1,75
304,300,3482,1,0,0:0:0:0:
426,330,3655,1,0,0:0:0:0:
304,208,3827,2,0,L|304:133,1,75
161,19,4171,5,0,0:0:0:0:
161,19,4344,1,0,0:0:0:0:
109,118,4516,2,0,P|98:158|115:210,1,75
145,321,4861,1,0,0:0:0:0:
145,321,5034,1,0,0:0:0:0:
197,222,5206,2,0,P|208:182|191:130,1,75
304,300,5551,5,0,0:0:0:0:
393,245,5723,2,0,B|430:221|430:221|464:221,2,75
367,141,6240,2,0,B|343:104|343:104|343:73,1,75
264,9,6585,1,0,0:0:0:0:
264,9,6758,1,0,0:0:0:0:
181,85,6930,6,0,L|148:250,1,150
70,311,7447,1,0,0:0:0:0:
171,359,7620,2,0,L|336:326,1,150
318,329,8137,1,0,0:0:0:0:
318,329,8309,1,0,0:0:0:0:
425,291,8482,6,0,P|435:326|430:363,2,75
264,128,8999,1,0,0:0:0:0:
421,189,9171,1,0,0:0:0:0:
193,216,9344,1,0,0:0:0:0:
425,291,9516,1,0,0:0:0:0:
260,321,9689,6,0,P|189:342|119:319,1,150
63,221,10206,1,0,0:0:0:0:
124,127,10378,2,0,P|194:105|264:128,1,150
330,221,10896,1,0,0:0:0:0:
330,221,11068,1,0,0:0:0:0:
426,292,11240,6,0,L|426:367,2,75
398,130,11758,2,0,L|398:55,1,75
330,221,12102,2,0,P|293:215|257:225,1,75
182,262,12447,2,0,B|140:245|101:263|101:263|81:232|93:180,1,150
192,134,12965,1,0,0:0:0:0:
210,15,13137,2,0,B|252:32|291:14|291:14|311:45|299:97,1,150
330,221,13654,1,0,0:0:0:0:
330,221,13827,1,0,0:0:0:0:
372,325,13999,6,0,P|336:334|299:328,1,75
223,246,14343,1,0,0:0:0:0:
119,199,14516,2,0,P|82:193|46:203,1,75
294,128,14861,2,0,P|329:118|366:124,1,75
157,44,15206,5,0,0:0:0:0:
46,202,15378,1,0,0:0:0:0:
195,158,15551,1,0,0:0:0:0:
84,316,15723,1,0,0:0:0:0:
264,259,15896,1,0,0:0:0:0:
334,283,16068,1,0,0:0:0:0:
406,266,16240,1,0,0:0:0:0:
466,221,16413,1,0,0:0:0:0:
336,40,16585,6,0,L|256:40,1,75
196,79,16930,2,0,L|121:79,1,75
152,205,17275,2,0,L|227:205,1,75
292,166,17620,2,0,L|367:166,1,75
336,368,17965,2,0,L|261:368,1,75
196,329,18310,2,0,L|121:329,1,75
26,175,18654,5,0,0:0:0:0:
196,79,18827,1,0,0:0:0:0:
46,44,18999,1,0,2:0:0:0:
152,205,19172,1,0,2:0:0:0:
296,286,19344,6,0,P|332:292|368:282,1,75
501,164,19689,2,0,P|464:157|428:167,1,75
152,205,20034,2,0,P|187:194|224:201,1,75
325,145,20378,2,0,L|325:70,1,75
231,28,20723,6,0,B|194:11|194:11|148:32,1,75
73,94,21068,2,0,B|41:108|41:108|4:91,1,75
166,125,21413,1,0,0:0:0:0:
224,204,21585,1,0,0:0:0:0:
284,284,21758,1,0,0:0:0:0:
344,360,21930,1,0,0:0:0:0:
440,354,22102,6,0,L|500:309,1,75
191,307,22447,2,0,L|130:351,1,75
324,190,22792,2,0,L|384:145,1,75
75,143,23137,2,0,L|14:187,1,75
224,204,23482,5,0,0:0:0:0:
224,204,23654,1,0,0:0:0:0:
275,25,23827,2,0,P|286:60|279:97,1,75
224,204,24171,1,0,0:0:0:0:
224,204,24344,1,0,0:0:0:0:
180,370,24516,2,0,P|169:335|176:298,1,75
329,233,24861,6,0,P|365:240|400:228,2,75
329,233,25378,1,0,0:0:0:0:
461,305,25551,2,0,L|461:380,1,75
351,122,25896,2,0,L|351:47,1,75
129,43,26240,5,0,0:0:0:0:
83,348,26585,1,0,0:0:0:0:
135,205,26930,1,0,0:0:0:0:
187,216,27016,1,0,0:0:0:0:
230,204,27102,2,0,P|272:214|322:190,1,75
445,103,27447,1,0,0:0:0:0:
344,43,27620,6,0,P|296:33|250:48,1,97.4999955368044
177,108,27965,1,0,0:0:0:0:
36,40,28137,1,0,0:0:0:0:
56,187,28309,2,0,L|58:285,1,97.4999955368044
163,355,28654,1,0,0:0:0:0:
163,355,28827,1,0,0:0:0:0:
285,322,28999,6,0,P|332:312|380:320,1,97.4999955368044
380,320,29258,1,0,0:0:0:0:
380,320,29344,1,0,0:0:0:0:
471,233,29516,1,0,0:0:0:0:
354,163,29689,2,0,L|352:65,1,97.4999955368044
352,65,29947,1,0,0:0:0:0:
352,65,30034,1,0,0:0:0:0:
215,36,30206,1,0,0:0:0:0:
116,115,30378,6,0,P|101:164|135:239,1,97.4999955368044
233,254,30723,2,0,P|242:206|227:160,1,97.4999955368044
69,312,31068,2,0,P|116:321|162:306,1,97.4999955368044
275,72,31413,2,0,P|227:62|181:77,1,97.4999955368044
110,208,31758,5,0,0:0:0:0:
250,360,31930,1,0,0:0:0:0:
275,72,32102,1,0,0:0:0:0:
69,312,32275,1,0,0:0:0:0:
314,246,32447,1,0,0:0:0:0:
20,145,32620,1,0,0:0:0:0:
166,375,32792,1,0,0:0:0:0:
152,141,32965,1,0,0:0:0:0:
271,317,33137,6,0,P|319:327|365:312,1,97.4999955368044
357,174,33482,2,0,P|309:163|263:178,1,97.4999955368044
152,141,33827,2,0,L|54:143,1,97.4999955368044
104,369,34171,2,0,L|202:371,1,97.4999955368044
314,246,34516,6,0,P|324:198|309:152,1,97.4999955368044
309,152,34775,1,0,0:0:0:0:
309,152,34861,1,0,0:0:0:0:
240,56,35034,1,0,0:0:0:0:
390,94,35206,2,0,L|488:96,1,97.4999955368044
487,95,35465,1,0,0:0:0:0:
487,95,35551,1,0,0:0:0:0:
419,202,35723,1,0,0:0:0:0:
225,201,35896,6,0,L|127:203,1,97.4999955368044
8,246,36240,2,0,P|-2:198|13:152,1,97.4999955368044
181,0,36585,2,0,P|195:45|185:93,1,97.4999955368044
127,202,36930,1,0,0:0:0:0:
206,337,37102,1,0,0:0:0:0:
316,224,37275,5,0,0:0:0:0:
487,318,37447,1,0,0:0:0:0:
314,339,37620,1,0,0:0:0:0:
408,168,37792,1,0,0:0:0:0:
419,372,37965,1,0,0:0:0:0:
248,278,38137,1,0,0:0:0:0:
473,111,38309,1,0,0:0:0:0:
379,282,38481,1,0,0:0:0:0:
318,110,38654,6,0,L|220:112,1,97.4999955368044
22,41,38999,2,0,L|120:43,1,97.4999955368044
122,156,39344,2,0,L|120:254,1,97.4999955368044
83,360,39689,2,0,P|130:370|176:356,1,97.4999955368044
272,300,40034,5,0,0:0:0:0:
272,176,40206,1,0,0:0:0:0:
272,128,40292,1,0,0:0:0:0:
272,80,40378,1,0,0:0:0:0:
369,15,40551,1,0,0:0:0:0:
464,98,40723,5,0,0:0:0:0:
464,222,40895,1,0,0:0:0:0:
464,270,40981,1,0,0:0:0:0:
464,318,41067,1,0,0:0:0:0:
360,379,41240,1,0,0:0:0:0:
363,291,41413,6,0,L|365:193,1,97.4999955368044
367,112,41758,2,0,L|369:14,1,97.4999955368044
180,40,42102,2,0,L|178:138,1,97.4999955368044
176,219,42447,2,0,L|174:317,1,97.4999955368044
12,173,42792,6,0,P|58:158|105:168,1,97.4999955368044
105,168,43051,1,0,0:0:0:0:
105,168,43137,1,0,0:0:0:0:
174,316,43309,1,0,0:0:0:0:
339,179,43482,2,0,P|292:164|245:174,1,97.4999955368044
245,174,43741,1,0,0:0:0:0:
245,174,43827,1,0,0:0:0:0:
174,316,43999,1,0,0:0:0:0:
276,384,44171,6,0,B|291:336|291:336|291:245,1,97.4999955368044
56,270,44516,2,0,B|41:318|41:318|41:409,1,97.4999955368044
176,219,44861,2,0,P|185:171|170:126,1,97.4999955368044
129,21,45206,2,0,P|176:11|221:26,1,97.4999955368044
55,73,45551,5,0,0:0:0:0:
256,185,45723,1,0,0:0:0:0:
91,231,45896,1,0,0:0:0:0:
275,94,46068,1,0,0:0:0:0:
156,296,46240,1,0,0:0:0:0:
175,88,46413,1,0,0:0:0:0:
246,317,46585,1,0,0:0:0:0:
28,162,46758,1,0,0:0:0:0:
60,281,46930,6,0,B|108:296|108:296|155:296,1,97.4999955368044
246,317,47275,2,0,B|293:317|293:317|341:332,1,97.4999955368044
183,379,47620,1,0,0:0:0:0:
183,379,47792,1,0,0:0:0:0:
227,234,47965,2,0,B|242:186|242:186|242:138,1,97.4999955368044
22,33,48309,6,0,L|192:33,1,146.249993305207
168,33,48654,2,0,B|153:81|153:81|153:176,1,146.249993305207
104,208,48999,2,0,L|32:208,2,64.9999970245363
158,307,49344,1,0,0:0:0:0:
256,279,49516,1,0,0:0:0:0:
256,24,49689,6,0,L|256:107,1,75
256,191,50034,1,0,0:0:0:0:
256,279,50206,2,0,L|256:354,1,75
163,225,50551,1,0,0:0:0:0:
344,228,50723,2,0,L|427:228,1,75
373,141,51068,6,0,L|373:66,1,75
256,24,51413,1,0,0:0:0:0:
139,66,51585,2,0,L|139:141,1,75
163,225,51930,1,0,0:0:0:0:
134,338,52102,2,0,P|170:345|205:333,1,75
283,278,52447,5,0,0:0:0:0:
283,278,52620,1,0,0:0:0:0:
380,222,52792,2,0,P|415:210|451:217,2,75
288,151,53309,1,0,0:0:0:0:
210,79,53482,2,0,P|198:43|205:7,1,75
99,63,53827,5,0,0:0:0:0:
127,265,53999,1,0,0:0:0:0:
288,151,54344,1,0,0:0:0:0:
316,353,54516,1,0,0:0:0:0:
208,208,54689,1,0,0:0:0:0:
152,136,54861,1,0,0:0:0:0:
99,63,55034,1,0,0:0:0:0:
99,63,55120,1,0,0:0:0:0:
128,28,55206,6,0,L|212:28,1,75
292,28,55551,1,0,0:0:0:0:
380,28,55723,2,0,L|464:28,1,75
432,112,56068,1,0,0:0:0:0:
432,200,56240,1,0,0:0:0:0:
432,288,56413,1,0,0:0:0:0:
348,319,56585,6,0,P|311:326|276:314,1,75
204,260,56930,1,0,0:0:0:0:
126,213,57102,2,0,P|89:205|54:217,2,75
97,302,57620,1,0,0:0:0:0:
179,350,57792,1,0,0:0:0:0:
273,318,57965,6,0,L|356:319,1,75
311,236,58309,1,0,0:0:0:0:
326,147,58482,2,0,L|243:148,1,75
177,96,58827,2,0,P|165:60|172:24,2,75
163,193,59344,5,0,0:0:0:0:
17,324,59516,1,0,0:0:0:0:
56,27,59861,1,0,0:0:0:0:
103,105,60034,1,0,0:0:0:0:
163,193,60206,1,0,0:0:0:0:
224,288,60378,2,0,L|272:360,1,75
359,357,60723,6,0,P|401:347|451:371,1,75
489,277,61068,2,0,P|480:240|490:205,1,75
422,135,61413,2,0,P|385:143|350:133,1,75
283,204,61758,2,0,P|291:240|281:275,1,75
265,122,62102,5,0,0:0:0:0:
265,122,62275,1,0,0:0:0:0:
265,122,62447,2,0,L|199:73,1,75
103,149,62792,1,0,0:0:0:0:
103,149,62965,1,0,0:0:0:0:
103,149,63137,2,0,L|58:209,1,75
88,320,63482,6,0,B|116:348|116:348|169:348,1,75
249,348,63827,2,0,B|284:348|284:348|312:320,1,75
321,223,64171,2,0,B|293:195|293:195|257:195,1,75
160,192,64516,2,0,B|124:192|124:192|96:220,1,75
6,257,64861,5,0,0:0:0:0:
6,257,65034,1,0,0:0:0:0:
6,257,65206,2,0,P|-2:220|7:185,1,75
66,107,65551,1,0,0:0:0:0:
66,107,65724,1,0,0:0:0:0:
66,107,65896,2,0,P|74:70|64:35,1,75
174,82,66240,6,0,L|254:82,1,75
328,39,66585,2,0,L|408:39,1,75
426,155,66930,2,0,L|346:155,1,75
272,198,67275,2,0,L|192:198,1,75
102,221,67620,5,0,0:0:0:0:
102,221,67792,1,0,0:0:0:0:
102,221,67965,2,0,B|102:256|102:256|130:284,1,75
289,351,68309,1,0,0:0:0:0:
289,351,68481,1,0,0:0:0:0:
289,351,68654,2,0,B|289:315|289:315|261:287,1,75
335,239,68999,6,0,L|410:239,1,75
499,279,69344,2,0,P|507:242|497:207,1,75
438,128,69689,2,0,B|410:100|410:100|410:64,1,75
325,15,70034,2,0,L|250:15,1,75
306,94,70378,5,0,0:0:0:0:
306,216,70637,2,0,L|306:264,1,37.5
306,336,70896,1,0,0:0:0:0:
210,284,71068,2,0,L|210:132,1,150
94,103,71758,6,0,L|93:199,1,89.9999972534181
92,247,72016,1,0,0:0:0:0:
92,299,72102,1,0,0:0:0:0:
208,355,72275,1,0,0:0:0:0:
295,292,72447,1,0,0:0:0:0:
400,317,72620,1,0,0:0:0:0:
474,239,72792,1,0,0:0:0:0:
440,135,72965,1,0,0:0:0:0:
377,47,73137,6,0,P|330:59|281:48,1,89.9999972534181
238,34,73395,1,0,0:0:0:0:
187,53,73481,1,0,0:0:0:0:
52,23,73654,1,0,0:0:0:0:
60,129,73827,1,0,0:0:0:0:
35,234,74000,1,0,0:0:0:0:
105,315,74172,1,0,0:0:0:0:
217,274,74345,1,0,0:0:0:0:
259,87,74516,6,0,P|271:134|260:183,1,89.9999972534181
379,329,74861,2,0,P|334:335|291:324,1,89.9999972534181
35,234,75206,2,0,P|79:227|122:238,1,89.9999972534181
217,274,75551,1,0,0:0:0:0:
217,274,75723,1,0,0:0:0:0:
320,240,75896,6,0,P|363:228|407:235,1,89.9999972534181
453,263,76154,1,0,0:0:0:0:
504,245,76240,1,0,0:0:0:0:
449,151,76413,1,0,0:0:0:0:
345,120,76585,2,0,L|345:30,1,89.9999972534181
220,77,76930,2,0,L|219:166,1,89.9999972534181
73,106,77275,5,0,0:0:0:0:
23,201,77447,1,0,0:0:0:0:
7,253,77534,1,0,0:0:0:0:
28,302,77620,1,0,0:0:0:0:
164,242,77792,1,0,0:0:0:0:
252,333,77965,2,0,L|341:333,2,89.9999972534181
164,242,78482,1,0,0:0:0:0:
300,195,78654,5,0,0:0:0:0:
391,253,78827,1,0,0:0:0:0:
444,254,78913,1,0,0:0:0:0:
497,254,78999,1,0,0:0:0:0:
252,333,79171,1,0,0:0:0:0:
163,242,79344,2,0,P|120:252|76:246,1,89.9999972534181
195,132,79689,2,0,P|184:89|190:45,1,89.9999972534181
300,195,80034,5,0,0:0:0:0:
382,125,80206,2,0,B|420:95|420:95|473:93,2,89.9999972534181
279,83,80723,1,0,0:0:0:0:
124,175,80896,1,0,0:0:0:0:
191,45,81068,1,0,0:0:0:0:
36,136,81241,1,0,0:0:0:0:
200,263,81413,6,0,L|199:352,1,89.9999972534181
300,195,81758,2,0,L|299:284,1,89.9999972534181
400,266,82102,2,0,L|401:177,1,89.9999972534181
498,198,82447,2,0,L|499:109,1,89.9999972534181
374,41,82792,6,0,P|329:34|286:45,1,89.9999972534181
246,82,83051,1,0,0:0:0:0:
246,82,83137,1,0,0:0:0:0:
147,38,83309,1,0,0:0:0:0:
88,129,83482,2,0,L|87:218,1,89.9999972534181
51,321,83827,2,0,P|95:327|138:316,1,89.9999972534181
241,283,84171,6,0,P|285:276|328:287,1,89.9999972534181
369,324,84430,1,0,0:0:0:0:
369,324,84516,1,0,0:0:0:0:
370,193,84689,1,0,0:0:0:0:
238,153,84861,2,0,B|190:176|190:176|125:178,1,89.9999972534181
373,60,85206,2,0,B|421:37|421:37|486:35,1,89.9999972534181
244,37,85551,5,0,0:0:0:0:
241,283,85723,1,0,0:0:0:0:
83,125,85896,1,0,0:0:0:0:
370,193,86068,1,0,0:0:0:0:
144,258,86240,2,0,P|100:246|56:253,1,89.9999972534181
334,342,86585,2,0,P|377:353|421:346,1,89.9999972534181
187,384,86930,5,0,0:0:0:0:
241,283,87102,1,0,0:0:0:0:
266,234,87189,1,0,0:0:0:0:
290,185,87275,1,0,0:0:0:0:
344,92,87447,1,0,0:0:0:0:
255,44,87620,2,0,B|207:21|207:21|142:19,1,89.9999972534181
11,120,87965,2,0,B|59:97|59:97|95:95,1,89.9999972534181
184,156,88309,5,0,0:0:0:0:
241,283,88482,1,0,0:0:0:0:
367,328,88654,1,0,0:0:0:0:
367,328,88827,1,0,0:0:0:0:
453,255,88999,2,0,P|459:218|447:183,1,75
406,78,89344,2,0,P|399:41|411:6,1,75
334,159,89689,5,0,0:0:0:0:
238,63,89862,1,0,0:0:0:0:
103,67,90034,1,0,0:0:0:0:
103,67,90207,1,0,0:0:0:0:
140,200,90378,2,0,L|140:275,1,75
256,344,90723,2,0,L|256:269,1,75
216,147,91068,5,0,0:0:0:0:
172,25,91240,1,0,0:0:0:0:
79,136,91413,1,0,0:0:0:0:
295,108,91585,1,0,0:0:0:0:
401,146,91758,2,0,L|476:146,1,75
345,215,92102,2,0,P|338:251|350:286,1,75
386,330,92361,1,0,0:0:0:0:
386,330,92447,5,0,0:0:0:0:
231,271,92620,1,0,0:0:0:0:
459,353,92792,1,0,0:0:0:0:
160,246,92965,1,0,0:0:0:0:
103,149,93137,2,0,L|103:74,1,75
60,287,93482,2,0,L|60:362,1,75
