osu file format v14

[General]
AudioFilename: audio.mp3
AudioLeadIn: 0
PreviewTime: 7578
Countdown: 0
SampleSet: Normal
StackLeniency: 0.7
Mode: 1
LetterboxInBreaks: 0
WidescreenStoryboard: 0

[Editor]
DistanceSpacing: 1.2
BeatDivisor: 4
GridSize: 32
TimelineZoom: 2.799999

[Metadata]
Title:Paella
TitleUnicode:Paella
Artist:Hanjamon
ArtistUnicode:Hanjamon
Creator:Hanjamon
Version:Inner Oni
Source:
Tags:Unmei Muma _Gezo_ arroz rice catalancore
BeatmapID:1382443
BeatmapSetID:651947

[Difficulty]
HPDrainRate:5
CircleSize:5
OverallDifficulty:6
ApproachRate:5
SliderMultiplier:1.4
SliderTickRate:1

[Events]
//Background and Video events
0,0,"paella.jpg",0,0
//Break Periods
//Storyboard Layer 0 (Background)
//Storyboard Layer 1 (Fail)
//Storyboard Layer 2 (Pass)
//Storyboard Layer 3 (Foreground)
//Storyboard Sound Samples

[TimingPoints]
0,315.789473684211,4,1,0,80,1,0
7578,-100,4,1,0,80,0,1
27789,-100,4,1,0,80,0,0
37894,-100,4,1,0,80,0,1
48000,-100,4,1,0,80,0,0

[HitObjects]
352,160,0,5,0,0:0:0:0:
352,192,157,1,0,0:0:0:0:
352,192,236,1,0,0:0:0:0:
352,192,315,1,8,0:0:0:0:
352,192,394,1,8,0:0:0:0:
352,192,473,1,0,0:0:0:0:
288,192,631,1,0,0:0:0:0:
288,160,789,1,0,0:0:0:0:
288,160,947,1,8,0:0:0:0:
288,160,1026,1,8,0:0:0:0:
288,160,1105,1,8,0:0:0:0:
288,160,1263,1,0,0:0:0:0:
288,160,1421,1,0,0:0:0:0:
288,160,1500,1,0,0:0:0:0:
288,160,1578,1,8,0:0:0:0:
288,160,1657,1,8,0:0:0:0:
288,160,1736,1,0,0:0:0:0:
288,128,1894,5,0,0:0:0:0:
288,128,2052,1,0,0:0:0:0:
288,128,2210,1,8,0:0:0:0:
288,128,2289,1,8,0:0:0:0:
288,128,2368,1,0,0:0:0:0:
288,128,2526,1,12,0:0:0:0:
288,128,2684,1,0,0:0:0:0:
288,160,2763,1,0,0:0:0:0:
288,160,2842,1,8,0:0:0:0:
288,160,2921,1,8,0:0:0:0:
288,160,3000,1,0,0:0:0:0:
288,160,3157,1,0,0:0:0:0:
288,160,3315,1,0,0:0:0:0:
192,160,3473,1,8,0:0:0:0:
192,160,3552,1,8,0:0:0:0:
192,160,3631,1,8,0:0:0:0:
224,160,3789,1,12,0:0:0:0:
288,192,3947,1,0,0:0:0:0:
288,192,4026,1,0,0:0:0:0:
288,192,4105,1,8,0:0:0:0:
288,192,4184,1,8,0:0:0:0:
288,192,4263,1,0,0:0:0:0:
256,160,4421,1,0,0:0:0:0:
256,160,4578,1,0,0:0:0:0:
256,160,4736,1,8,0:0:0:0:
256,160,4815,1,8,0:0:0:0:
256,160,4894,1,0,0:0:0:0:
256,160,5052,1,12,0:0:0:0:
384,256,5210,1,0,0:0:0:0:
320,160,5289,1,0,0:0:0:0:
320,160,5368,1,8,0:0:0:0:
320,160,5447,1,8,0:0:0:0:
320,160,5526,1,0,0:0:0:0:
384,192,5684,1,12,0:0:0:0:
384,192,5842,1,0,0:0:0:0:
384,192,6000,1,8,0:0:0:0:
384,192,6078,1,8,0:0:0:0:
384,192,6157,1,8,0:0:0:0:
384,192,6315,1,12,0:0:0:0:
320,160,6631,1,12,0:0:0:0:
416,288,6947,1,12,0:0:0:0:
416,288,7105,1,12,0:0:0:0:
192,192,7263,1,8,0:0:0:0:
192,192,7342,1,8,0:0:0:0:
192,192,7421,1,8,0:0:0:0:
192,192,7500,1,8,0:0:0:0:
192,192,7578,1,0,0:0:0:0:
288,128,7657,1,0,0:0:0:0:
288,128,7736,1,8,0:0:0:0:
288,128,7815,1,0,0:0:0:0:
288,160,7894,1,8,0:0:0:0:
288,160,7973,1,8,0:0:0:0:
288,160,8052,1,0,0:0:0:0:
288,160,8131,1,8,0:0:0:0:
288,160,8210,1,0,0:0:0:0:
288,160,8289,1,8,0:0:0:0:
288,160,8368,1,0,0:0:0:0:
288,160,8447,1,0,0:0:0:0:
288,160,8526,1,8,0:0:0:0:
288,160,8605,1,8,0:0:0:0:
288,160,8684,1,0,0:0:0:0:
288,160,8763,1,0,0:0:0:0:
448,192,8842,1,0,0:0:0:0:
288,160,8921,1,0,0:0:0:0:
288,160,9000,1,8,0:0:0:0:
288,160,9078,1,0,0:0:0:0:
288,160,9157,1,8,0:0:0:0:
288,160,9236,1,0,0:0:0:0:
288,160,9315,1,0,0:0:0:0:
288,160,9394,1,8,0:0:0:0:
288,160,9473,1,0,0:0:0:0:
288,160,9552,1,8,0:0:0:0:
288,160,9631,1,0,0:0:0:0:
288,160,9710,1,0,0:0:0:0:
288,160,9789,1,8,0:0:0:0:
288,160,9868,1,8,0:0:0:0:
288,160,9947,1,0,0:0:0:0:
288,160,10026,1,8,0:0:0:0:
192,192,10105,1,0,0:0:0:0:
288,128,10184,1,0,0:0:0:0:
288,128,10263,1,8,0:0:0:0:
288,128,10342,1,0,0:0:0:0:
288,160,10421,1,8,0:0:0:0:
288,160,10500,1,8,0:0:0:0:
288,160,10578,1,0,0:0:0:0:
288,160,10657,1,8,0:0:0:0:
288,160,10736,1,0,0:0:0:0:
288,160,10815,1,8,0:0:0:0:
288,160,10894,1,0,0:0:0:0:
288,160,10973,1,0,0:0:0:0:
288,160,11052,1,8,0:0:0:0:
288,160,11131,1,8,0:0:0:0:
288,160,11210,1,0,0:0:0:0:
288,160,11289,1,0,0:0:0:0:
448,192,11368,1,0,0:0:0:0:
288,160,11447,1,0,0:0:0:0:
288,160,11526,1,8,0:0:0:0:
288,160,11605,1,0,0:0:0:0:
288,160,11684,1,8,0:0:0:0:
288,160,11763,1,0,0:0:0:0:
288,160,11842,1,0,0:0:0:0:
288,160,11921,1,8,0:0:0:0:
288,160,12000,1,0,0:0:0:0:
288,160,12078,1,8,0:0:0:0:
288,160,12157,1,0,0:0:0:0:
288,160,12236,1,0,0:0:0:0:
288,160,12315,1,8,0:0:0:0:
288,160,12394,1,8,0:0:0:0:
288,160,12473,1,0,0:0:0:0:
288,160,12552,1,8,0:0:0:0:
192,192,12631,1,0,0:0:0:0:
288,128,12710,1,0,0:0:0:0:
288,128,12789,1,8,0:0:0:0:
288,128,12868,1,0,0:0:0:0:
288,160,12947,1,8,0:0:0:0:
288,160,13026,1,8,0:0:0:0:
288,160,13105,1,0,0:0:0:0:
288,160,13184,1,8,0:0:0:0:
288,160,13263,1,0,0:0:0:0:
288,160,13342,1,8,0:0:0:0:
288,160,13421,1,0,0:0:0:0:
288,160,13500,1,0,0:0:0:0:
288,160,13578,1,8,0:0:0:0:
288,160,13657,1,8,0:0:0:0:
288,160,13736,1,0,0:0:0:0:
288,160,13815,1,0,0:0:0:0:
448,192,13894,1,0,0:0:0:0:
288,160,13973,1,0,0:0:0:0:
288,160,14052,1,8,0:0:0:0:
288,160,14131,1,0,0:0:0:0:
288,160,14210,1,8,0:0:0:0:
288,160,14289,1,0,0:0:0:0:
288,160,14368,1,0,0:0:0:0:
288,160,14447,1,8,0:0:0:0:
288,160,14526,1,0,0:0:0:0:
288,160,14605,1,8,0:0:0:0:
288,160,14684,1,0,0:0:0:0:
288,160,14763,1,0,0:0:0:0:
288,160,14842,1,8,0:0:0:0:
288,160,14921,1,8,0:0:0:0:
288,160,15000,1,0,0:0:0:0:
288,160,15078,1,8,0:0:0:0:
192,192,15157,1,0,0:0:0:0:
288,128,15236,1,0,0:0:0:0:
288,128,15315,1,8,0:0:0:0:
288,128,15394,1,0,0:0:0:0:
288,160,15473,1,8,0:0:0:0:
288,160,15552,1,8,0:0:0:0:
288,160,15631,1,0,0:0:0:0:
288,160,15710,1,8,0:0:0:0:
288,160,15789,1,0,0:0:0:0:
288,160,15868,1,8,0:0:0:0:
288,160,15947,1,0,0:0:0:0:
288,160,16026,1,0,0:0:0:0:
288,160,16105,1,8,0:0:0:0:
288,160,16184,1,8,0:0:0:0:
288,160,16263,1,0,0:0:0:0:
288,160,16342,1,0,0:0:0:0:
448,192,16421,1,0,0:0:0:0:
288,160,16500,1,0,0:0:0:0:
288,160,16578,1,8,0:0:0:0:
288,160,16657,1,0,0:0:0:0:
288,160,16736,1,8,0:0:0:0:
288,160,16815,1,0,0:0:0:0:
288,160,16894,1,0,0:0:0:0:
288,160,16973,1,0,0:0:0:0:
288,160,17052,1,8,0:0:0:0:
288,160,17131,1,0,0:0:0:0:
288,160,17210,1,8,0:0:0:0:
288,160,17289,1,0,0:0:0:0:
288,160,17368,1,8,0:0:0:0:
288,160,17447,1,0,0:0:0:0:
288,160,17526,1,8,0:0:0:0:
288,160,17605,1,8,0:0:0:0:
192,192,17684,1,0,0:0:0:0:
288,128,17763,1,0,0:0:0:0:
288,128,17842,1,8,0:0:0:0:
288,128,17921,1,0,0:0:0:0:
288,160,18000,1,8,0:0:0:0:
288,160,18078,1,8,0:0:0:0:
288,160,18157,1,0,0:0:0:0:
288,160,18236,1,8,0:0:0:0:
288,160,18315,1,0,0:0:0:0:
288,160,18394,1,8,0:0:0:0:
288,160,18473,1,0,0:0:0:0:
288,160,18552,1,0,0:0:0:0:
288,160,18631,1,8,0:0:0:0:
288,160,18710,1,8,0:0:0:0:
288,160,18789,1,0,0:0:0:0:
288,160,18868,1,0,0:0:0:0:
448,192,18947,1,0,0:0:0:0:
288,160,19026,1,0,0:0:0:0:
288,160,19105,1,8,0:0:0:0:
288,160,19184,1,0,0:0:0:0:
288,160,19263,1,8,0:0:0:0:
288,160,19342,1,0,0:0:0:0:
288,160,19421,1,0,0:0:0:0:
288,160,19500,1,8,0:0:0:0:
288,160,19578,1,0,0:0:0:0:
288,160,19657,1,8,0:0:0:0:
288,160,19736,1,0,0:0:0:0:
288,160,19815,1,0,0:0:0:0:
288,160,19894,1,8,0:0:0:0:
288,160,19973,1,8,0:0:0:0:
288,160,20052,1,0,0:0:0:0:
288,160,20131,1,8,0:0:0:0:
192,192,20210,1,0,0:0:0:0:
288,128,20289,1,0,0:0:0:0:
288,128,20368,1,8,0:0:0:0:
288,128,20447,1,0,0:0:0:0:
288,160,20526,1,8,0:0:0:0:
288,160,20605,1,8,0:0:0:0:
288,160,20684,1,0,0:0:0:0:
288,160,20763,1,8,0:0:0:0:
288,160,20842,1,0,0:0:0:0:
288,160,20921,1,8,0:0:0:0:
288,160,21000,1,0,0:0:0:0:
288,160,21078,1,0,0:0:0:0:
288,160,21157,1,8,0:0:0:0:
288,160,21236,1,8,0:0:0:0:
288,160,21315,1,0,0:0:0:0:
288,160,21394,1,0,0:0:0:0:
448,192,21473,1,0,0:0:0:0:
288,160,21552,1,0,0:0:0:0:
288,160,21631,1,8,0:0:0:0:
288,160,21710,1,0,0:0:0:0:
288,160,21789,1,8,0:0:0:0:
288,160,21868,1,0,0:0:0:0:
288,160,21947,1,0,0:0:0:0:
288,160,22026,1,8,0:0:0:0:
288,160,22105,1,0,0:0:0:0:
288,160,22184,1,8,0:0:0:0:
288,160,22263,1,0,0:0:0:0:
288,160,22342,1,0,0:0:0:0:
288,160,22421,1,8,0:0:0:0:
288,160,22500,1,8,0:0:0:0:
288,160,22578,1,0,0:0:0:0:
288,160,22657,1,8,0:0:0:0:
192,192,22736,1,0,0:0:0:0:
288,128,22815,1,0,0:0:0:0:
288,128,22894,1,8,0:0:0:0:
288,128,22973,1,0,0:0:0:0:
288,160,23052,1,8,0:0:0:0:
288,160,23131,1,8,0:0:0:0:
288,160,23210,1,0,0:0:0:0:
288,160,23289,1,8,0:0:0:0:
288,160,23368,1,0,0:0:0:0:
288,160,23447,1,8,0:0:0:0:
288,160,23526,1,0,0:0:0:0:
288,160,23605,1,0,0:0:0:0:
288,160,23684,1,8,0:0:0:0:
288,160,23763,1,8,0:0:0:0:
288,160,23842,1,0,0:0:0:0:
288,160,23921,1,0,0:0:0:0:
448,192,24000,1,0,0:0:0:0:
288,160,24078,1,0,0:0:0:0:
288,160,24157,1,8,0:0:0:0:
288,160,24236,1,0,0:0:0:0:
288,160,24315,1,8,0:0:0:0:
288,160,24394,1,0,0:0:0:0:
288,160,24473,1,0,0:0:0:0:
288,160,24552,1,8,0:0:0:0:
288,160,24631,1,0,0:0:0:0:
288,160,24710,1,8,0:0:0:0:
288,160,24789,1,0,0:0:0:0:
288,160,24868,1,0,0:0:0:0:
288,160,24947,1,8,0:0:0:0:
288,160,25026,1,8,0:0:0:0:
288,160,25105,1,0,0:0:0:0:
288,160,25184,1,8,0:0:0:0:
192,192,25263,1,0,0:0:0:0:
288,128,25342,1,0,0:0:0:0:
288,128,25421,1,8,0:0:0:0:
288,128,25500,1,0,0:0:0:0:
288,160,25578,1,8,0:0:0:0:
288,160,25657,1,8,0:0:0:0:
288,160,25736,1,0,0:0:0:0:
288,160,25815,1,8,0:0:0:0:
288,160,25894,1,0,0:0:0:0:
288,160,25973,1,8,0:0:0:0:
288,160,26052,1,0,0:0:0:0:
288,160,26131,1,0,0:0:0:0:
288,160,26210,1,8,0:0:0:0:
288,160,26289,1,8,0:0:0:0:
288,160,26368,1,0,0:0:0:0:
288,160,26447,1,0,0:0:0:0:
448,192,26526,1,0,0:0:0:0:
288,160,26605,1,0,0:0:0:0:
288,160,26684,1,8,0:0:0:0:
288,160,26763,1,0,0:0:0:0:
288,160,26842,1,8,0:0:0:0:
288,160,26921,1,0,0:0:0:0:
288,160,27000,1,0,0:0:0:0:
288,160,27078,1,0,0:0:0:0:
288,160,27157,1,8,0:0:0:0:
288,160,27236,1,0,0:0:0:0:
288,160,27315,1,8,0:0:0:0:
288,160,27394,1,0,0:0:0:0:
288,160,27473,1,8,0:0:0:0:
288,160,27552,1,0,0:0:0:0:
288,160,27631,1,8,0:0:0:0:
288,160,27710,1,8,0:0:0:0:
288,160,27789,1,0,0:0:0:0:
352,160,27947,1,0,0:0:0:0:
352,160,28026,1,8,0:0:0:0:
352,160,28184,1,0,0:0:0:0:
320,160,28342,1,8,0:0:0:0:
320,160,28421,1,0,0:0:0:0:
288,128,28578,1,8,0:0:0:0:
288,128,28736,1,8,0:0:0:0:
288,128,28815,1,8,0:0:0:0:
288,128,28894,1,8,0:0:0:0:
288,128,29052,1,0,0:0:0:0:
320,128,29210,1,0,0:0:0:0:
320,128,29289,1,8,0:0:0:0:
320,128,29447,1,0,0:0:0:0:
320,128,29605,1,8,0:0:0:0:
320,128,29684,1,0,0:0:0:0:
320,128,29842,1,8,0:0:0:0:
320,128,30000,1,8,0:0:0:0:
320,128,30078,1,0,0:0:0:0:
320,128,30157,1,8,0:0:0:0:
320,128,30315,1,0,0:0:0:0:
320,128,30473,1,0,0:0:0:0:
320,128,30552,1,8,0:0:0:0:
320,128,30710,1,0,0:0:0:0:
256,160,30868,1,8,0:0:0:0:
256,160,30947,1,0,0:0:0:0:
256,128,31105,1,8,0:0:0:0:
256,128,31263,1,8,0:0:0:0:
256,128,31342,1,8,0:0:0:0:
256,128,31421,1,8,0:0:0:0:
256,128,31578,1,0,0:0:0:0:
256,128,31736,1,0,0:0:0:0:
256,128,31815,1,8,0:0:0:0:
288,128,31973,1,0,0:0:0:0:
32,160,32052,1,0,0:0:0:0:
288,128,32210,1,12,0:0:0:0:
288,160,32368,1,12,0:0:0:0:
288,160,32526,1,12,0:0:0:0:
288,160,32684,1,12,0:0:0:0:
256,128,32842,1,0,0:0:0:0:
352,160,33000,1,0,0:0:0:0:
352,160,33078,1,8,0:0:0:0:
352,160,33236,1,0,0:0:0:0:
320,160,33394,1,8,0:0:0:0:
320,160,33473,1,0,0:0:0:0:
288,128,33631,1,8,0:0:0:0:
288,128,33789,1,8,0:0:0:0:
288,128,33868,1,8,0:0:0:0:
288,128,33947,1,8,0:0:0:0:
128,160,34026,1,8,0:0:0:0:
288,128,34105,1,0,0:0:0:0:
320,128,34263,1,0,0:0:0:0:
320,128,34342,1,8,0:0:0:0:
320,128,34500,1,0,0:0:0:0:
320,128,34657,1,8,0:0:0:0:
320,128,34736,1,0,0:0:0:0:
320,128,34894,1,8,0:0:0:0:
320,128,35052,1,8,0:0:0:0:
320,128,35131,1,0,0:0:0:0:
320,128,35210,1,8,0:0:0:0:
128,128,35289,1,8,0:0:0:0:
320,128,35368,1,0,0:0:0:0:
320,128,35526,1,0,0:0:0:0:
320,128,35605,1,8,0:0:0:0:
320,128,35763,1,0,0:0:0:0:
256,160,35921,1,8,0:0:0:0:
256,160,36000,1,0,0:0:0:0:
256,128,36157,1,8,0:0:0:0:
256,128,36315,1,8,0:0:0:0:
256,128,36394,1,8,0:0:0:0:
256,128,36473,1,8,0:0:0:0:
192,96,36552,1,8,0:0:0:0:
256,128,36631,1,0,0:0:0:0:
256,128,36789,1,0,0:0:0:0:
256,128,36868,1,8,0:0:0:0:
288,128,37026,1,0,0:0:0:0:
32,160,37105,1,0,0:0:0:0:
288,128,37263,1,12,0:0:0:0:
288,160,37421,1,12,0:0:0:0:
288,160,37578,1,12,0:0:0:0:
288,160,37736,1,12,0:0:0:0:
256,128,37894,1,0,0:0:0:0:
224,160,37973,1,0,0:0:0:0:
416,288,38052,1,0,0:0:0:0:
416,288,38131,1,0,0:0:0:0:
416,288,38210,1,8,0:0:0:0:
416,288,38289,1,0,0:0:0:0:
416,288,38368,1,0,0:0:0:0:
416,288,38447,1,0,0:0:0:0:
416,288,38526,1,8,0:0:0:0:
416,288,38605,1,0,0:0:0:0:
416,288,38684,1,0,0:0:0:0:
416,288,38763,1,0,0:0:0:0:
416,288,38842,1,8,0:0:0:0:
416,288,38921,1,0,0:0:0:0:
416,288,39000,1,8,0:0:0:0:
416,288,39078,1,8,0:0:0:0:
416,288,39157,1,0,0:0:0:0:
416,288,39236,1,0,0:0:0:0:
416,288,39315,1,0,0:0:0:0:
416,288,39394,1,0,0:0:0:0:
416,288,39473,1,8,0:0:0:0:
416,288,39552,1,0,0:0:0:0:
288,288,39631,1,0,0:0:0:0:
416,288,39710,1,0,0:0:0:0:
416,288,39789,1,8,0:0:0:0:
416,288,39868,1,0,0:0:0:0:
416,288,39947,1,0,0:0:0:0:
416,288,40026,1,0,0:0:0:0:
416,288,40105,1,8,0:0:0:0:
416,288,40184,1,0,0:0:0:0:
416,288,40263,1,8,0:0:0:0:
288,256,40342,1,8,0:0:0:0:
416,288,40421,1,0,0:0:0:0:
416,288,40500,1,0,0:0:0:0:
416,288,40578,1,0,0:0:0:0:
416,288,40657,1,0,0:0:0:0:
416,288,40736,1,8,0:0:0:0:
288,256,40815,1,0,0:0:0:0:
416,288,40894,1,0,0:0:0:0:
416,288,40973,1,0,0:0:0:0:
416,288,41052,1,8,0:0:0:0:
416,288,41131,1,0,0:0:0:0:
288,256,41210,1,0,0:0:0:0:
416,288,41289,1,0,0:0:0:0:
416,288,41368,1,8,0:0:0:0:
416,288,41447,1,0,0:0:0:0:
416,288,41526,1,8,0:0:0:0:
288,256,41605,1,8,0:0:0:0:
416,288,41684,1,0,0:0:0:0:
416,288,41763,1,0,0:0:0:0:
288,256,41842,1,0,0:0:0:0:
288,256,41921,1,0,0:0:0:0:
288,256,42000,1,8,0:0:0:0:
416,288,42078,1,0,0:0:0:0:
416,288,42157,1,0,0:0:0:0:
416,288,42236,1,8,0:0:0:0:
288,256,42315,1,0,0:0:0:0:
416,288,42394,1,0,0:0:0:0:
416,288,42473,1,8,0:0:0:0:
416,288,42552,1,0,0:0:0:0:
416,288,42631,1,8,0:0:0:0:
320,256,42710,1,8,0:0:0:0:
416,288,42789,1,8,0:0:0:0:
416,288,42868,1,8,0:0:0:0:
416,288,42947,1,0,0:0:0:0:
224,160,43026,1,0,0:0:0:0:
416,288,43105,1,8,0:0:0:0:
416,288,43184,1,0,0:0:0:0:
416,288,43263,1,8,0:0:0:0:
416,288,43342,1,8,0:0:0:0:
416,288,43421,1,0,0:0:0:0:
416,288,43500,1,0,0:0:0:0:
416,288,43578,1,8,0:0:0:0:
416,288,43657,1,8,0:0:0:0:
416,288,43736,1,0,0:0:0:0:
416,288,43815,1,0,0:0:0:0:
416,288,43894,1,8,0:0:0:0:
416,288,43973,1,0,0:0:0:0:
416,288,44052,1,8,0:0:0:0:
416,288,44131,1,8,0:0:0:0:
416,288,44210,1,0,0:0:0:0:
416,288,44289,1,0,0:0:0:0:
416,288,44368,1,8,0:0:0:0:
416,288,44447,1,0,0:0:0:0:
416,288,44526,1,8,0:0:0:0:
416,288,44605,1,8,0:0:0:0:
288,288,44684,1,0,0:0:0:0:
416,288,44763,1,0,0:0:0:0:
416,288,44842,1,8,0:0:0:0:
416,288,44921,1,8,0:0:0:0:
416,288,45000,1,0,0:0:0:0:
416,288,45078,1,0,0:0:0:0:
416,288,45157,1,8,0:0:0:0:
416,288,45236,1,0,0:0:0:0:
416,288,45315,1,8,0:0:0:0:
288,256,45394,1,8,0:0:0:0:
416,288,45473,1,0,0:0:0:0:
416,288,45552,1,0,0:0:0:0:
416,288,45631,1,8,0:0:0:0:
416,288,45710,1,0,0:0:0:0:
416,288,45789,1,8,0:0:0:0:
288,256,45868,1,8,0:0:0:0:
416,288,45947,1,0,0:0:0:0:
416,288,46026,1,0,0:0:0:0:
416,288,46105,1,8,0:0:0:0:
416,288,46184,1,8,0:0:0:0:
288,256,46263,1,0,0:0:0:0:
416,288,46342,1,0,0:0:0:0:
416,288,46421,1,8,0:0:0:0:
416,288,46500,1,0,0:0:0:0:
416,288,46578,1,8,0:0:0:0:
288,256,46657,1,8,0:0:0:0:
416,288,46736,1,0,0:0:0:0:
416,288,46815,1,0,0:0:0:0:
288,256,46894,1,8,0:0:0:0:
288,256,46973,1,0,0:0:0:0:
288,256,47052,1,8,0:0:0:0:
416,288,47131,1,0,0:0:0:0:
416,288,47210,1,0,0:0:0:0:
416,288,47289,1,8,0:0:0:0:
288,256,47368,1,0,0:0:0:0:
416,288,47447,1,0,0:0:0:0:
416,288,47526,1,8,0:0:0:0:
416,288,47605,1,0,0:0:0:0:
416,288,47684,1,8,0:0:0:0:
320,256,47763,1,8,0:0:0:0:
416,288,47842,1,8,0:0:0:0:
416,288,47921,1,8,0:0:0:0:
352,160,48000,5,0,0:0:0:0:
352,192,48157,1,0,0:0:0:0:
352,192,48236,1,0,0:0:0:0:
352,192,48315,1,8,0:0:0:0:
352,192,48394,1,8,0:0:0:0:
352,192,48473,1,0,0:0:0:0:
288,192,48631,1,0,0:0:0:0:
288,160,48789,1,0,0:0:0:0:
288,160,48947,1,8,0:0:0:0:
288,160,49026,1,8,0:0:0:0:
288,160,49105,1,8,0:0:0:0:
288,160,49263,1,0,0:0:0:0:
288,160,49421,1,0,0:0:0:0:
288,160,49500,1,0,0:0:0:0:
288,160,49578,1,8,0:0:0:0:
288,160,49657,1,8,0:0:0:0:
288,160,49736,1,0,0:0:0:0:
288,128,49894,5,0,0:0:0:0:
288,128,50052,1,0,0:0:0:0:
288,128,50210,1,8,0:0:0:0:
288,128,50289,1,8,0:0:0:0:
288,128,50368,1,0,0:0:0:0:
352,160,50526,5,0,0:0:0:0:
352,192,50684,1,0,0:0:0:0:
352,192,50763,1,0,0:0:0:0:
352,192,50842,1,8,0:0:0:0:
352,192,50921,1,8,0:0:0:0:
352,192,51000,1,0,0:0:0:0:
288,192,51157,1,0,0:0:0:0:
288,160,51315,1,0,0:0:0:0:
288,160,51473,1,8,0:0:0:0:
288,160,51552,1,8,0:0:0:0:
288,160,51631,1,8,0:0:0:0:
288,160,51789,1,0,0:0:0:0:
288,160,51947,1,0,0:0:0:0:
288,160,52026,1,0,0:0:0:0:
288,160,52105,1,8,0:0:0:0:
288,160,52184,1,8,0:0:0:0:
288,160,52263,1,0,0:0:0:0:
288,128,52421,5,0,0:0:0:0:
288,128,52578,1,0,0:0:0:0:
288,128,52736,1,12,0:0:0:0:
