osu file format v14

[General]
AudioFilename: audio.mp3
AudioLeadIn: 0
PreviewTime: 7578
Countdown: 0
SampleSet: Normal
StackLeniency: 0.7
Mode: 1
LetterboxInBreaks: 0
WidescreenStoryboard: 1

[Editor]
DistanceSpacing: 1.2
BeatDivisor: 4
GridSize: 32
TimelineZoom: 2.799999

[Metadata]
Title:Paella
TitleUnicode:Paella
Artist:Hanjamon
ArtistUnicode:Hanjamon
Creator:Hanjamon
Version:Futsuu
Source:
Tags:Unmei Muma _Gezo_ arroz rice catalancore
BeatmapID:1382494
BeatmapSetID:651947

[Difficulty]
HPDrainRate:6.5
CircleSize:5
OverallDifficulty:4
ApproachRate:5
SliderMultiplier:1.4
SliderTickRate:1

[Events]
//Background and Video events
0,0,"paella.jpg",0,0
//Break Periods
//Storyboard Layer 0 (Background)
//Storyboard Layer 1 (Fail)
//Storyboard Layer 2 (Pass)
//Storyboard Layer 3 (Foreground)
//Storyboard Sound Samples

[TimingPoints]
0,315.789473684211,4,1,0,80,1,0
7578,-100,4,1,0,80,0,1
27789,-100,4,1,0,80,0,0
37894,-100,4,1,0,80,0,1
48000,-100,4,1,0,80,0,0

[HitObjects]
352,160,0,5,0,0:0:0:0:
352,192,315,1,8,0:0:0:0:
352,192,631,1,0,0:0:0:0:
288,160,789,1,0,0:0:0:0:
288,160,947,1,8,0:0:0:0:
288,160,1263,1,0,0:0:0:0:
288,160,1578,1,8,0:0:0:0:
288,128,2052,1,0,0:0:0:0:
288,128,2210,1,8,0:0:0:0:
288,128,2526,1,12,0:0:0:0:
288,160,2842,1,8,0:0:0:0:
288,160,3315,1,0,0:0:0:0:
192,160,3473,1,8,0:0:0:0:
224,160,3789,1,12,0:0:0:0:
288,192,4105,1,8,0:0:0:0:
256,160,4578,1,0,0:0:0:0:
256,160,4736,1,8,0:0:0:0:
256,160,5052,1,12,0:0:0:0:
128,128,5684,1,12,0:0:0:0:
384,192,6315,1,12,0:0:0:0:
320,160,6631,1,12,0:0:0:0:
416,288,6947,1,12,0:0:0:0:
416,288,7105,1,12,0:0:0:0:
192,192,7263,1,12,0:0:0:0:
192,192,7578,1,4,0:0:0:0:
288,160,7894,1,8,0:0:0:0:
288,160,8526,1,0,0:0:0:0:
288,160,8684,1,0,0:0:0:0:
448,192,8842,1,0,0:0:0:0:
288,160,9157,1,8,0:0:0:0:
288,160,9473,1,0,0:0:0:0:
288,160,9631,1,8,0:0:0:0:
288,160,9789,1,8,0:0:0:0:
192,192,10105,1,0,0:0:0:0:
288,160,10421,1,8,0:0:0:0:
288,160,11052,1,8,0:0:0:0:
288,160,11210,1,0,0:0:0:0:
448,192,11368,1,0,0:0:0:0:
288,160,11684,1,8,0:0:0:0:
288,160,12315,1,8,0:0:0:0:
192,192,12631,1,0,0:0:0:0:
288,160,12947,1,8,0:0:0:0:
288,160,13578,1,0,0:0:0:0:
288,160,13736,1,0,0:0:0:0:
448,192,13894,1,0,0:0:0:0:
288,160,14210,1,8,0:0:0:0:
288,160,14526,1,0,0:0:0:0:
288,160,14684,1,8,0:0:0:0:
288,160,14842,1,8,0:0:0:0:
192,192,15157,1,0,0:0:0:0:
288,160,15473,1,8,0:0:0:0:
288,160,16105,1,8,0:0:0:0:
288,160,16263,1,0,0:0:0:0:
448,192,16421,1,0,0:0:0:0:
288,160,16736,1,8,0:0:0:0:
288,160,17052,1,8,0:0:0:0:
192,192,17684,1,4,0:0:0:0:
288,160,18000,1,8,0:0:0:0:
288,160,18631,1,0,0:0:0:0:
288,160,18789,1,0,0:0:0:0:
448,192,18947,1,0,0:0:0:0:
288,160,19263,1,8,0:0:0:0:
288,160,19578,1,0,0:0:0:0:
288,160,19736,1,8,0:0:0:0:
288,160,19894,1,8,0:0:0:0:
192,192,20210,1,0,0:0:0:0:
288,160,20526,1,8,0:0:0:0:
288,160,21157,1,8,0:0:0:0:
288,160,21315,1,0,0:0:0:0:
448,192,21473,1,0,0:0:0:0:
288,160,21789,1,8,0:0:0:0:
288,160,22421,1,8,0:0:0:0:
192,192,22736,1,0,0:0:0:0:
288,160,23052,1,8,0:0:0:0:
288,160,23684,1,0,0:0:0:0:
288,160,23842,1,0,0:0:0:0:
448,192,24000,1,0,0:0:0:0:
288,160,24315,1,8,0:0:0:0:
288,160,24631,1,0,0:0:0:0:
288,160,24789,1,8,0:0:0:0:
288,160,24947,1,8,0:0:0:0:
192,192,25263,1,0,0:0:0:0:
288,160,25578,1,8,0:0:0:0:
288,160,26210,1,8,0:0:0:0:
288,160,26368,1,0,0:0:0:0:
448,192,26526,1,0,0:0:0:0:
288,160,26842,5,8,0:0:0:0:
288,160,27157,1,8,0:0:0:0:
192,128,27789,1,0,0:0:0:0:
352,160,28105,5,8,0:0:0:0:
320,160,28421,1,0,0:0:0:0:
288,128,28578,1,8,0:0:0:0:
288,128,28736,1,8,0:0:0:0:
288,128,29052,1,0,0:0:0:0:
320,128,29684,1,0,0:0:0:0:
320,128,29842,1,0,0:0:0:0:
320,128,30000,1,8,0:0:0:0:
320,128,30315,1,0,0:0:0:0:
256,160,30947,1,0,0:0:0:0:
256,128,31105,1,8,0:0:0:0:
256,128,31263,1,8,0:0:0:0:
256,128,31578,1,0,0:0:0:0:
288,128,32210,1,12,0:0:0:0:
288,160,32368,1,12,0:0:0:0:
288,160,32526,1,12,0:0:0:0:
256,128,32842,1,0,0:0:0:0:
352,160,33157,1,8,0:0:0:0:
320,160,33473,1,0,0:0:0:0:
288,128,33631,1,8,0:0:0:0:
288,128,33789,1,8,0:0:0:0:
288,128,34105,1,0,0:0:0:0:
320,128,34736,1,0,0:0:0:0:
320,128,34894,1,8,0:0:0:0:
320,128,35052,1,0,0:0:0:0:
320,128,35368,1,0,0:0:0:0:
256,160,36000,1,0,0:0:0:0:
256,128,36157,1,8,0:0:0:0:
256,128,36315,1,8,0:0:0:0:
256,128,36631,1,0,0:0:0:0:
288,128,37263,1,12,0:0:0:0:
288,160,37421,1,12,0:0:0:0:
288,160,37578,1,12,0:0:0:0:
256,128,37894,1,4,0:0:0:0:
416,288,38210,1,8,0:0:0:0:
416,288,38526,1,0,0:0:0:0:
416,288,38842,1,8,0:0:0:0:
416,288,39000,1,8,0:0:0:0:
416,288,39157,1,0,0:0:0:0:
416,288,39473,1,8,0:0:0:0:
416,288,39789,1,0,0:0:0:0:
416,288,40105,1,8,0:0:0:0:
416,288,40263,1,8,0:0:0:0:
416,288,40421,1,0,0:0:0:0:
416,288,40736,1,8,0:0:0:0:
416,288,41052,1,0,0:0:0:0:
416,288,41368,1,8,0:0:0:0:
416,288,41526,1,8,0:0:0:0:
416,288,41684,1,0,0:0:0:0:
288,256,42000,1,8,0:0:0:0:
416,288,42631,1,8,0:0:0:0:
416,288,42947,1,0,0:0:0:0:
416,288,43263,1,8,0:0:0:0:
416,288,43578,1,8,0:0:0:0:
416,288,43894,1,8,0:0:0:0:
416,288,44052,1,8,0:0:0:0:
416,288,44210,1,0,0:0:0:0:
416,288,44526,1,8,0:0:0:0:
416,288,44842,1,8,0:0:0:0:
416,288,45157,1,8,0:0:0:0:
416,288,45315,1,8,0:0:0:0:
416,288,45473,1,0,0:0:0:0:
416,288,45789,1,8,0:0:0:0:
416,288,46105,1,8,0:0:0:0:
416,288,46421,1,8,0:0:0:0:
416,288,46578,1,8,0:0:0:0:
416,288,46736,1,0,0:0:0:0:
288,256,47052,1,8,0:0:0:0:
416,288,47684,1,8,0:0:0:0:
352,160,48000,5,0,0:0:0:0:
352,192,48315,1,8,0:0:0:0:
352,192,48631,1,0,0:0:0:0:
288,160,48789,1,0,0:0:0:0:
288,160,48947,1,8,0:0:0:0:
288,160,49263,1,0,0:0:0:0:
288,160,49578,1,8,0:0:0:0:
288,128,50052,1,0,0:0:0:0:
288,128,50210,1,8,0:0:0:0:
352,160,50526,5,0,0:0:0:0:
352,192,50842,1,8,0:0:0:0:
352,192,51157,1,0,0:0:0:0:
288,160,51315,1,0,0:0:0:0:
288,160,51473,1,8,0:0:0:0:
288,160,51789,1,0,0:0:0:0:
288,160,52105,1,8,0:0:0:0:
288,128,52736,1,12,0:0:0:0:
