osu file format v14

[General]
AudioFilename: audio.mp3
AudioLeadIn: 0
PreviewTime: 53139
Countdown: 1
SampleSet: None
StackLeniency: 0.7
Mode: 1
LetterboxInBreaks: 0
WidescreenStoryboard: 0

[Editor]
DistanceSpacing: 1.2
BeatDivisor: 4
GridSize: 4
TimelineZoom: 1

[Metadata]
Title:Rasa Sayang
TitleUnicode:Rasa Sayang
Artist:Hanie Soraya
ArtistUnicode:Hanie Soraya
Creator:mintong89
Version:Oni
Source:
Tags:
BeatmapID:1997013
BeatmapSetID:955983

[Difficulty]
HPDrainRate:5
CircleSize:5
OverallDifficulty:5
ApproachRate:5
SliderMultiplier:1.4
SliderTickRate:1

[Events]
//Background and Video events
//Break Periods
//Storyboard Layer 0 (Background)
//Storyboard Layer 1 (Fail)
//Storyboard Layer 2 (Pass)
//Storyboard Layer 3 (Foreground)
//Storyboard Sound Samples

[TimingPoints]
1039.76470588235,600,4,1,0,45,1,0
53839,-66.6666666666667,4,1,0,45,0,1
73039,-100,4,1,0,5,0,0
77839,-80,4,1,0,30,0,0
106639,-100,4,1,0,45,0,1
125839,-100,4,1,0,45,0,0
157875,600,4,1,0,45,1,0
165075,-100,4,1,0,45,0,1
179475,-100,4,1,0,45,0,0

[HitObjects]
206,154,53839,5,4,0:0:0:0:
220,201,54139,1,8,0:0:0:0:
220,201,54289,1,8,0:0:0:0:
220,201,54439,1,0,0:0:0:0:
220,201,54589,1,0,0:0:0:0:
220,201,54739,1,8,0:0:0:0:
221,196,54889,1,0,0:0:0:0:
221,196,55039,1,8,0:0:0:0:
221,196,55339,1,8,0:0:0:0:
221,196,55639,1,0,0:0:0:0:
221,196,55789,1,0,0:0:0:0:
340,236,55939,1,8,0:0:0:0:
151,226,56239,1,0,0:0:0:0:
151,226,56539,1,8,0:0:0:0:
224,241,56689,1,0,0:0:0:0:
224,241,56839,1,0,0:0:0:0:
224,241,56989,1,8,0:0:0:0:
224,241,57139,1,8,0:0:0:0:
219,170,57439,1,8,0:0:0:0:
269,120,57739,1,0,0:0:0:0:
204,109,58039,1,8,0:0:0:0:
224,206,58189,1,0,0:0:0:0:
224,206,58339,1,8,0:0:0:0:
384,291,58639,1,0,0:0:0:0:
384,291,58939,1,8,0:0:0:0:
384,291,59239,1,0,0:0:0:0:
384,291,59389,1,0,0:0:0:0:
384,291,59539,1,8,0:0:0:0:
224,206,59839,1,0,0:0:0:0:
224,206,60139,1,8,0:0:0:0:
224,206,60439,1,0,0:0:0:0:
232,247,60589,1,8,0:0:0:0:
224,206,60739,1,8,0:0:0:0:
232,247,61039,1,0,0:0:0:0:
232,247,61339,1,8,0:0:0:0:
232,247,61639,1,0,0:0:0:0:
232,247,61789,1,0,0:0:0:0:
232,247,61939,1,8,0:0:0:0:
232,247,62089,1,8,0:0:0:0:
232,247,62239,1,8,0:0:0:0:
163,187,62839,1,8,0:0:0:0:
163,187,63139,1,0,0:0:0:0:
209,267,63439,1,4,0:0:0:0:
209,267,63739,1,8,0:0:0:0:
209,267,63889,1,8,0:0:0:0:
209,267,64039,1,8,0:0:0:0:
209,267,64189,1,0,0:0:0:0:
209,267,64339,1,8,0:0:0:0:
209,267,64489,1,0,0:0:0:0:
209,267,64639,1,8,0:0:0:0:
171,255,64939,1,0,0:0:0:0:
171,255,65089,1,0,0:0:0:0:
171,255,65239,1,8,0:0:0:0:
171,255,65389,1,8,0:0:0:0:
171,255,65539,1,0,0:0:0:0:
171,255,65839,1,8,0:0:0:0:
171,255,66139,1,8,0:0:0:0:
171,255,66289,1,8,0:0:0:0:
171,255,66439,1,0,0:0:0:0:
171,255,66589,1,8,0:0:0:0:
171,255,66739,1,8,0:0:0:0:
209,213,66889,1,0,0:0:0:0:
217,167,67039,1,8,0:0:0:0:
171,255,67339,1,8,0:0:0:0:
171,255,67639,1,8,0:0:0:0:
171,255,67789,1,0,0:0:0:0:
171,255,67939,1,8,0:0:0:0:
242,244,68239,1,0,0:0:0:0:
242,244,68539,1,8,0:0:0:0:
242,244,68839,1,0,0:0:0:0:
210,218,68989,1,0,0:0:0:0:
210,218,69139,1,8,0:0:0:0:
205,170,69439,1,8,0:0:0:0:
175,239,69589,1,8,0:0:0:0:
205,170,69739,1,0,0:0:0:0:
205,170,70039,1,6,0:0:0:0:
205,170,70339,1,4,0:0:0:0:
215,196,70639,1,4,0:0:0:0:
215,196,70939,1,6,0:0:0:0:
215,196,71239,1,4,0:0:0:0:
215,196,71539,1,6,0:0:0:0:
215,196,71839,1,4,0:0:0:0:
200,199,72139,1,8,0:0:0:0:
200,199,72289,1,0,0:0:0:0:
200,199,72439,1,8,0:0:0:0:
142,158,73039,1,0,0:0:0:0:
142,158,73339,1,8,0:0:0:0:
142,158,73639,1,0,0:0:0:0:
183,192,73939,1,8,0:0:0:0:
254,200,74239,1,8,0:0:0:0:
254,200,74539,1,0,0:0:0:0:
254,200,74839,1,8,0:0:0:0:
254,200,75139,1,0,0:0:0:0:
254,200,75439,1,0,0:0:0:0:
254,200,75739,1,8,0:0:0:0:
254,200,76039,1,0,0:0:0:0:
254,200,76339,1,8,0:0:0:0:
254,200,76639,1,0,0:0:0:0:
158,223,77839,1,0,0:0:0:0:
158,223,78139,1,0,0:0:0:0:
180,120,78289,1,0,0:0:0:0:
182,234,78439,1,8,0:0:0:0:
180,120,78589,1,0,0:0:0:0:
217,113,78739,1,0,0:0:0:0:
180,120,79039,1,0,0:0:0:0:
188,129,79339,1,0,0:0:0:0:
188,129,79489,1,0,0:0:0:0:
188,129,79639,1,8,0:0:0:0:
188,129,79939,1,0,0:0:0:0:
188,129,80239,1,0,0:0:0:0:
