osu file format v14

[General]
AudioFilename: audio.mp3
AudioLeadIn: 0
PreviewTime: 59878
Countdown: 0
SampleSet: Soft
StackLeniency: 0.4
Mode: 0
LetterboxInBreaks: 0
WidescreenStoryboard: 1

[Editor]
DistanceSpacing: 1.2
BeatDivisor: 4
GridSize: 4
TimelineZoom: 1

[Metadata]
Title:sugar sweet nightmare (TV Size)
TitleUnicode:sugar sweet nightmare (TV Size)
Artist:Hanekawa Tsubasa (CV: Horie Yui)
ArtistUnicode:羽川翼 (CV: 堀江由衣)
Creator:not your kitty
Version:Normal
Source:化物語
Tags:neonmarijuana sanayui neko cat op bakemonogatari monogatari series 物語 japanese anime opening meg rock female vocal jpop j-pop pop j-rock rock milkgreen
BeatmapID:4412050
BeatmapSetID:1955177

[Difficulty]
HPDrainRate:3
CircleSize:3.6
OverallDifficulty:3.8
ApproachRate:5.8
SliderMultiplier:1
SliderTickRate:1

[Events]
//Background and Video events
0,0,"bg.jpg",0,0
//Break Periods
//Storyboard Layer 0 (Background)
//Storyboard Layer 1 (Fail)
//Storyboard Layer 2 (Pass)
//Storyboard Layer 3 (Foreground)
//Storyboard Layer 4 (Overlay)
//Storyboard Sound Samples

[TimingPoints]
1144,361.44578313253,4,2,1,60,1,0
1144,-125,4,2,1,60,0,0
10631,-125,4,2,1,5,0,0
10722,-125,4,2,1,60,0,0
11174,-125,4,2,1,5,0,0
11264,-125,4,2,1,60,0,0
12619,-125,4,2,1,5,0,0
12710,-100,4,2,1,70,0,0
24276,-111.111111111111,4,2,2,70,0,0
35119,-111.111111111111,4,2,1,70,0,0
35842,-111.111111111111,4,2,2,70,0,0
46686,-111.111111111111,4,2,1,70,0,0
47409,-100,4,2,1,70,0,0
60421,-90.9090909090909,4,2,1,80,0,1
64306,-90.9090909090909,4,2,1,5,0,1
64397,-90.9090909090909,4,2,1,80,0,1
64487,-90.9090909090909,4,2,1,5,0,1
64577,-90.9090909090909,4,2,1,80,0,1
68463,-90.9090909090909,4,2,1,5,0,1
68553,-90.9090909090909,4,2,1,80,0,1
71174,-90.9090909090909,4,2,1,5,0,1
71264,-90.9090909090909,4,2,1,80,0,1
75872,-90.9090909090909,4,2,1,5,0,1
75963,-90.9090909090909,4,2,1,80,0,1
76053,-90.9090909090909,4,2,1,5,0,1
76143,-90.9090909090909,4,2,1,80,0,1
79577,-100,4,2,1,80,0,0
80662,-90.9090909090909,4,2,1,80,0,1
81113,-90.9090909090909,4,2,1,5,0,1
81204,-90.9090909090909,4,2,1,80,0,1
81656,-90.9090909090909,4,2,1,5,0,1
81747,-90.9090909090909,4,2,1,80,0,1
82198,-90.9090909090909,4,2,1,5,0,1
82289,-90.9090909090909,4,2,1,80,0,1
82740,-90.9090909090909,4,2,1,5,0,1
82831,-90.9090909090909,4,2,1,80,0,1
83553,-117.647058823529,4,2,1,60,0,0

[Colours]
Combo1 : 128,128,128
Combo2 : 255,128,128
Combo3 : 192,192,192
Combo4 : 128,128,192

[HitObjects]
2,25,1144,6,0,L|98:37,1,80,2|2,0:0|0:0,0:0:0:0:
121,39,1686,2,0,L|105:161,1,120,2|2,0:0|0:0,0:0:0:0:
33,191,2589,2,0,L|20:287,1,80,2|2,0:0|0:0,0:0:0:0:
16,309,3131,1,2,0:0:0:0:
119,370,3674,1,2,0:0:0:0:
191,335,4035,6,0,L|270:344,1,80,2|2,0:0|0:0,0:0:0:0:
305,363,4577,2,0,L|424:377,1,120,2|2,0:0|0:0,0:0:0:0:
487,328,5481,2,0,L|496:248,1,80,2|0,0:0|0:0,0:0:0:0:
479,212,6023,2,0,L|399:202,1,80,2|2,0:0|0:0,0:0:0:0:
366,224,6565,1,2,0:0:0:0:
298,180,6927,6,0,L|307:100,1,80,2|0,0:0|0:0,0:0:0:0:
304,60,7469,1,2,0:0:0:0:
194,10,8011,1,2,0:0:0:0:
128,55,8372,2,0,L|48:45,1,80,2|0,0:0|0:0,0:0:0:0:
12,63,8915,2,0,L|2:142,1,80,2|2,0:0|0:0,0:0:0:0:
25,174,9457,1,2,0:0:0:0:
15,253,9818,6,0,B|90:243|90:243|104:193|104:193|179:184,1,200,2|2,0:0|0:0,0:0:0:0:
246,281,11264,2,0,B|301:287|301:287|328:266|328:266|403:276,1,160,2|0,0:0|0:0,0:0:0:0:
502,104,12710,6,0,L|513:40,1,50,6|2,3:2|0:0,0:0:0:0:
479,22,13071,1,10,0:0:0:0:
479,22,13252,2,0,L|368:4,1,100,2|2,0:0|3:0,0:0:0:0:
295,59,13975,2,0,L|279:157,1,100,2|2,0:0|0:0,0:0:0:0:
325,252,14698,1,2,0:0:0:0:
325,252,14878,2,0,L|388:263,1,50,0|0,3:0|3:0,0:0:0:0:
423,272,15240,1,10,0:0:0:0:
403,369,15601,6,0,L|353:359,1,50,2|2,3:0|0:0,0:0:0:0:
308,373,15963,1,10,0:0:0:0:
308,373,16143,2,0,L|197:355,1,100,2|2,0:0|3:0,0:0:0:0:
163,353,16686,1,8,0:0:0:0:
163,353,16866,1,2,0:0:0:0:
66,378,17228,1,2,0:0:0:0:
10,294,17589,2,0,L|27:183,1,100,2|2,0:0|3:0,0:0:0:0:
64,163,18131,1,10,0:0:0:0:
9,78,18493,6,0,L|18:28,1,50,2|2,3:0|0:0,0:0:0:0:
67,12,18854,1,10,0:0:0:0:
67,12,19035,2,0,L|165:27,1,100,2|2,0:0|3:0,0:0:0:0:
219,37,19577,1,10,0:0:0:0:
219,37,19758,1,2,0:0:0:0:
275,119,20119,1,2,0:0:0:0:
195,179,20481,1,2,0:0:0:0:
253,266,20842,1,2,3:0:0:0:
253,266,21023,1,10,0:0:0:0:
213,357,21384,6,0,L|262:366,1,50,2|2,3:0|0:0,0:0:0:0:
313,353,21746,1,10,0:0:0:0:
313,353,21927,2,0,L|411:368,1,100,2|2,0:0|3:0,0:0:0:0:
464,364,22469,1,8,0:0:0:0:
464,364,22650,1,2,0:0:0:0:
505,273,23011,1,2,0:0:0:0:
438,205,23372,1,2,3:0:0:0:
438,205,23553,2,0,L|447:155,1,50,8|8,0:0|0:3,0:0:0:0:
491,132,23915,1,0,3:0:0:0:
478,47,24276,5,2,3:0:0:0:
478,47,24457,2,0,L|338:60,1,134.999995880127,2|8,3:0|0:0,0:0:0:0:
263,96,25360,1,0,0:0:0:0:
263,96,25541,2,0,L|253:-11,2,89.9999972534181,0|0|0,3:0|3:0|3:0,0:0:0:0:
329,157,26625,1,6,3:2:0:0:
232,251,27168,5,2,3:0:0:0:
232,251,27348,2,0,L|98:263,1,134.999995880127,2|8,3:0|0:0,0:0:0:0:
12,252,28252,1,0,0:0:0:0:
12,252,28433,2,0,L|22:359,2,89.9999972534181,2|2|2,3:0|3:0|3:0,0:0:0:0:
61,176,29517,1,6,3:2:0:0:
6,57,30059,5,2,3:0:0:0:
6,57,30240,2,0,L|140:45,1,134.999995880127,2|8,3:0|0:0,0:0:0:0:
226,83,31143,1,0,0:0:0:0:
226,83,31324,2,0,L|315:74,2,89.9999972534181,0|0|0,3:0|3:0|3:0,0:0:0:0:
170,154,32409,1,6,3:2:0:0:
258,263,32951,5,2,3:0:0:0:
258,263,33131,2,0,L|266:352,1,89.9999972534181,2|2,3:0|0:0,0:0:0:0:
307,372,33674,2,0,L|396:363,1,89.9999972534181,8|0,0:0|0:0,0:0:0:0:
441,357,34216,1,2,3:0:0:0:
501,290,34577,1,2,3:0:0:0:
446,217,34939,2,0,L|439:165,1,44.999998626709,2|10,3:0|0:0,0:0:0:0:
457,130,35300,1,6,3:2:0:0:
387,20,35842,5,6,3:2:0:0:
387,20,36023,2,0,L|252:7,1,134.999995880127,2|8,3:0|0:0,0:0:0:0:
183,64,36927,1,0,0:0:0:0:
183,64,37107,2,0,L|93:55,2,89.9999972534181,0|0|0,3:0|3:0|3:0,0:0:0:0:
238,135,38192,1,6,3:2:0:0:
374,114,38734,5,6,3:2:0:0:
374,114,38915,2,0,L|361:248,1,134.999995880127,2|8,3:0|0:0,0:0:0:0:
324,332,39818,1,0,0:0:0:0:
324,332,39999,2,0,L|413:340,2,89.9999972534181,2|2|2,3:0|3:0|3:0,0:0:0:0:
241,368,41083,1,6,3:2:0:0:
148,276,41625,5,6,3:2:0:0:
148,276,41806,2,0,L|13:263,1,134.999995880127,2|8,3:0|0:0,0:0:0:0:
52,184,42710,1,0,0:0:0:0:
52,184,42890,2,0,L|141:192,2,89.9999972534181,0|0|0,3:0|3:0|3:0,0:0:0:0:
7,105,43975,1,6,3:2:0:0:
113,20,44517,5,6,3:2:0:0:
113,20,44698,2,0,L|202:28,1,89.9999972534181,2|2,3:0|0:0,0:0:0:0:
247,32,45240,2,0,L|238:121,1,89.9999972534181,8|0,0:0|0:0,0:0:0:0:
211,157,45782,1,2,3:0:0:0:
263,236,46143,1,2,3:0:0:0:
263,236,46324,2,0,L|307:241,1,44.999998626709,10|0,0:0|3:0,0:0:0:0:
352,246,46686,1,10,0:0:0:0:
418,185,47047,1,10,0:0:0:0:
496,247,47409,6,0,L|508:346,1,100,6|8,3:2|0:0,0:0:0:0:
467,374,47951,1,2,0:0:0:0:
383,330,48311,1,2,3:0:0:0:
383,330,48493,1,10,0:0:0:0:
292,372,48854,2,0,L|192:384,1,100,2|8,3:2|0:0,0:0:0:0:
104,336,49577,2,0,L|40:343,1,50,2|0,3:0|3:0,0:0:0:0:
10,317,49939,1,10,0:0:0:0:
63,232,50300,6,0,L|50:132,1,100,2|8,3:2|0:0,0:0:0:0:
25,89,50842,2,0,L|124:76,1,100,2|2,0:0|3:0,0:0:0:0:
173,86,51384,2,0,L|179:135,1,50,10|2,0:0|0:0,0:0:0:0:
175,185,51746,1,6,3:2:0:0:
273,203,52107,1,8,0:0:0:0:
242,298,52469,2,0,L|248:347,1,50,0|2,3:0|3:0,0:0:0:0:
293,368,52830,1,8,0:0:0:0:
380,318,53192,6,0,L|485:305,1,100,6|8,3:2|0:0,0:0:0:0:
509,265,53734,1,2,0:0:0:0:
439,201,54095,1,2,3:0:0:0:
439,201,54276,1,10,0:0:0:0:
503,124,54637,2,0,L|490:24,1,100,2|8,3:2|0:0,0:0:0:0:
391,9,55360,2,0,L|341:15,1,50,2|0,3:0|3:0,0:0:0:0:
307,52,55722,1,10,0:0:0:0:
212,19,56083,6,0,L|112:31,1,100,2|8,3:2|0:0,0:0:0:0:
74,63,56625,2,0,L|86:162,1,100,2|2,0:0|3:0,0:0:0:0:
127,191,57168,2,0,L|176:184,1,50,10|0,0:0|0:0,0:0:0:0:
225,175,57529,1,6,3:2:0:0:
313,221,57890,1,10,0:0:0:0:
259,305,58252,2,0,L|265:354,1,50,2|2,3:0|3:0,0:0:0:0:
311,373,58613,2,0,L|360:366,1,50,10|0,0:0|0:0,0:0:0:0:
410,360,58975,5,8,0:0:0:0:
497,309,59336,1,4,0:3:0:0:
497,309,59517,2,0,L|484:209,1,100,8|6,0:0|0:3,0:0:0:0:
445,178,60059,1,10,0:0:0:0:
357,245,60421,6,0,L|238:226,1,110.000003356934,6|10,3:2|0:0,0:0:0:0:
198,250,60963,1,2,0:0:0:0:
122,170,61324,2,0,L|67:163,1,55.0000016784668,2|10,3:0|0:0,0:0:0:0:
30,204,61686,2,0,L|12:312,1,110.000003356934,2|0,0:0|0:0,0:0:0:0:
44,364,62228,1,10,0:0:0:0:
44,364,62409,1,2,0:0:0:0:
146,325,62770,2,0,L|200:331,1,55.0000016784668,2|10,3:0|0:0,0:0:0:0:
246,362,63131,6,0,L|354:379,1,110.000003356934,2|0,0:0|0:0,0:0:0:0:
405,354,63674,1,10,0:0:0:0:
405,354,63854,1,2,0:0:0:0:
502,303,64216,2,0,L|508:248,1,55.0000016784668,2|10,3:0|0:0,0:0:0:0:
488,197,64577,2,0,L|379:179,1,110.000003356934,2|2,0:0|0:0,0:0:0:0:
291,246,65300,2,0,L|182:228,1,110.000003356934,2|2,0:0|3:0,0:0:0:0:
127,237,65842,2,0,L|133:182,1,55.0000016784668,10|2,0:0|0:0,0:0:0:0:
163,135,66204,6,0,L|180:26,1,110.000003356934,2|8,3:0|0:0,0:0:0:0:
283,63,66927,2,0,L|276:117,1,55.0000016784668,0|0,3:0|3:0,0:0:0:0:
299,167,67288,1,10,0:0:0:0:
407,146,67650,1,2,3:0:0:0:
479,229,68011,1,10,0:0:0:0:
443,333,68372,1,2,3:0:0:0:
335,354,68734,1,10,0:0:0:0:
263,271,69095,6,0,L|154:253,2,110.000003356934,2|8|0,3:0|0:0|3:0,0:0:0:0:
310,242,69999,1,2,3:0:0:0:
235,161,70360,2,0,L|252:52,1,110.000003356934,6|2,0:0|0:0,0:0:0:0:
288,10,70903,2,0,L|363:19,1,55.0000016784668,8|2,0:0|3:0,0:0:0:0:
396,25,71264,1,0,3:0:0:0:
483,90,71625,1,10,0:0:0:0:
404,166,71987,6,0,L|423:285,1,110.000003356934,4|10,3:2|0:0,0:0:0:0:
463,310,72529,1,2,0:0:0:0:
368,366,72890,2,0,L|313:373,1,55.0000016784668,2|10,3:0|0:0,0:0:0:0:
264,346,73252,2,0,L|145:365,1,110.000003356934,2|0,0:0|0:0,0:0:0:0:
105,356,73794,1,10,0:0:0:0:
105,356,73975,1,2,0:0:0:0:
24,280,74336,2,0,L|17:225,1,55.0000016784668,2|10,3:0|0:0,0:0:0:0:
56,186,74698,6,0,L|38:77,1,110.000003356934,2|0,0:0|0:0,0:0:0:0:
75,36,75240,1,10,0:0:0:0:
75,36,75421,1,2,0:0:0:0:
174,82,75782,2,0,L|181:137,1,55.0000016784668,2|10,3:0|0:0,0:0:0:0:
224,170,76143,2,0,L|332:152,1,110.000003356934,2|2,0:0|0:0,0:0:0:0:
422,216,76866,2,0,L|439:324,1,110.000003356934,2|2,0:0|3:0,0:0:0:0:
404,367,77409,2,0,L|349:374,1,55.0000016784668,10|2,0:0|0:0,0:0:0:0:
297,356,77770,6,0,L|188:373,1,110.000003356934,0|8,3:2|0:0,0:0:0:0:
81,345,78493,2,0,L|74:290,1,55.0000016784668,0|0,3:0|3:0,0:0:0:0:
34,252,78854,1,10,0:0:0:0:
107,171,79216,1,2,3:0:0:0:
107,171,79397,1,0,3:0:0:0:
107,171,79577,1,8,0:0:0:0:
278,273,80300,1,2,0:0:0:0:
388,248,80662,5,10,0:0:0:0:
388,248,80842,1,10,0:0:0:0:
317,163,81204,2,0,L|324:108,1,55.0000016784668,10|10,0:0|0:0,0:0:0:0:
410,39,81746,1,10,0:0:0:0:
410,39,81927,1,10,0:0:0:0:
491,120,82288,1,10,0:0:0:0:
491,120,82469,1,10,0:0:0:0:
421,204,82830,2,0,L|428:259,1,55.0000016784668,10|8,0:0|0:3,0:0:0:0:
459,303,83192,1,14,0:0:0:0:
387,349,83553,6,0,L|252:365,1,127.50000243187,6|2,0:0|0:0,0:0:0:0:
195,309,84457,1,2,0:0:0:0:
252,246,84818,2,0,L|238:138,1,85.0000016212464,2|2,0:0|0:0,0:0:0:0:
186,96,85541,2,0,L|59:111,1,127.50000243187,2|2,0:0|3:0,0:0:0:0:
14,182,86445,5,4,0:0:0:0:
