osu file format v14

[General]
AudioFilename: audio.mp3
AudioLeadIn: 0
PreviewTime: 54238
Countdown: 0
SampleSet: Soft
StackLeniency: 0.5
Mode: 0
LetterboxInBreaks: 0
WidescreenStoryboard: 0

[Editor]
DistanceSpacing: 0.6
BeatDivisor: 4
GridSize: 4
TimelineZoom: 2.2

[Metadata]
Title:Hanazono Denki Guitar!!!
TitleUnicode:花園電気ギター!!!
Artist:Hanazono Tae(CV. Otsuka Sae)
ArtistUnicode:花園たえ(CV.大塚紗英)
Creator:Hytex
Version:Insane!!!
Source:BanG Dream! ガールズバンドパーティー!
Tags:hanazono electric guitar!!! girls band poppin' party game edit bite_you_death bite you death
BeatmapID:1410854
BeatmapSetID:666639

[Difficulty]
HPDrainRate:5.5
CircleSize:4
OverallDifficulty:7.3
ApproachRate:9.1
SliderMultiplier:1.7
SliderTickRate:1

[Events]
//Background and Video events
0,0,"ashjdhfkasefa.jpg",0,0
//Break Periods
//Storyboard Layer 0 (Background)
//Storyboard Layer 1 (Fail)
//Storyboard Layer 2 (Pass)
//Storyboard Layer 3 (Foreground)
//Storyboard Sound Samples

[TimingPoints]
1020,319.148936170213,4,2,1,50,1,0
1020,-125,4,2,1,50,0,0
5488,-111.111111111111,4,2,1,45,0,0
6046,-111.111111111111,4,2,1,5,0,0
6126,-111.111111111111,4,2,1,65,0,0
8679,-100,4,2,1,75,0,0
11152,-100,4,2,1,75,0,0
11232,-100,4,2,1,75,0,0
21445,-111.111111111111,4,2,1,75,0,0
29105,-142.857142857143,4,2,1,75,0,0
30222,-111.111111111111,4,2,1,75,0,0
39317,-142.857142857143,4,2,1,75,0,0
40434,-111.111111111111,4,2,1,75,0,0
41871,-142.857142857143,4,2,1,75,0,0
46339,-125,4,2,1,50,0,0
46658,-111.111111111111,4,2,1,65,0,0
46977,-100,4,2,1,75,0,0
54637,-90.9090909090909,4,2,1,75,0,1
69956,-100,4,2,1,75,0,0
71232,-83.3333333333333,4,2,1,75,0,0
71551,-100,4,2,1,75,0,0
75062,-125,4,2,1,75,0,0
77615,-100,4,2,1,75,0,0
100913,-200,4,2,1,5,0,0
102030,-200,4,2,1,80,0,0
102908,-200,4,2,1,5,0,0

[Colours]
Combo1 : 255,255,0
Combo2 : 121,255,228
Combo3 : 255,255,128
Combo4 : 192,192,192

[HitObjects]
194,164,1020,5,0,0:0:0:0:
194,164,1179,1,0,0:0:0:0:
187,75,1339,2,0,P|141:91|120:112,1,68,2|0,0:0|0:0,0:0:0:0:
111,197,1658,1,0,0:0:0:0:
203,235,1817,2,0,L|193:164,1,68,2|0,0:0|0:0,0:0:0:0:
53,160,2137,6,0,P|112:198|138:199,1,68,2|0,0:0|0:0,0:0:0:0:
193,163,2456,2,0,L|268:166,1,68,2|0,0:0|0:0,0:0:0:0:
360,211,2775,1,0,0:0:0:0:
420,139,2934,2,0,P|374:117|330:124,1,68,2|0,0:0|0:0,0:0:0:0:
275,263,3254,2,0,L|282:333,1,68,0|2,0:0|0:0,0:0:0:0:
139,361,3573,5,0,0:0:0:0:
139,361,3732,1,0,0:0:0:0:
183,224,3892,2,0,L|192:304,1,68,2|0,0:0|0:0,0:0:0:0:
101,257,4211,1,0,0:0:0:0:
173,147,4371,2,0,L|241:142,1,68,2|0,0:0|0:0,0:0:0:0:
403,128,4690,6,0,P|410:88|402:55,1,68,2|0,0:0|0:0,0:0:0:0:
330,197,5009,2,0,P|323:237|329:273,1,68,2|0,0:0|0:0,0:0:0:0:
417,234,5328,1,0,0:0:0:0:
332,345,5488,6,2,B|288:348|262:316|262:316|239:357|239:357|233:318|205:284|151:281|122:310,1,267.749991828919,2|0,0:0|0:0,1:0:0:0:
119,314,6126,6,0,P|127:261|118:228,1,76.4999976654053,6|2,0:0|0:0,0:0:0:0:
19,122,6445,2,0,P|13:161|21:198,1,76.4999976654053,8|2,3:0|0:0,0:0:0:0:
167,64,6764,2,0,L|72:60,1,76.4999976654053,8|2,3:0|0:0,0:0:0:0:
164,203,7083,2,0,L|248:200,1,76.4999976654053,8|2,3:0|0:0,0:0:0:0:
320,336,7402,6,0,B|292:341|292:341|228:332,1,76.4999976654053,8|2,3:0|0:0,0:0:0:0:
306,151,7722,2,0,B|334:146|334:146|398:155,1,76.4999976654053,8|2,3:0|0:0,0:0:0:0:
461,288,8041,2,0,L|474:194,1,76.4999976654053,8|2,3:0|0:0,0:0:0:0:
358,66,8360,2,0,L|371:160,1,76.4999976654053,8|2,3:0|0:0,0:0:0:0:
343,300,8679,5,8,3:0:0:0:
196,245,8839,1,8,0:0:0:0:
411,205,8998,1,0,0:0:0:0:
237,351,9158,5,8,3:0:0:0:
303,133,9317,1,8,0:0:0:0:
346,316,9477,1,0,0:0:0:0:
223,167,9637,1,0,0:0:0:0:
392,56,9796,6,0,B|400:96|400:96|392:131|392:131|406:165|406:165|408:201|384:234,1,170,6|0,0:0|0:0,0:0:0:0:
295,92,10275,1,8,0:0:0:0:
496,115,10434,1,0,0:0:0:0:
496,115,10514,1,0,0:0:0:0:
496,115,10594,1,8,0:0:0:0:
393,294,10754,1,0,0:0:0:0:
393,294,10833,1,0,0:0:0:0:
393,294,10913,2,0,P|336:282|250:300,1,127.5,8|0,0:0|0:0,0:0:0:0:
257,295,11232,6,0,P|271:248|268:203,1,85,6|0,0:0|0:0,0:0:0:0:
157,97,11551,1,8,0:0:0:0:
113,182,11711,1,0,0:0:0:0:
237,73,11871,1,0,0:0:0:0:
74,109,12030,1,0,0:0:0:0:
185,221,12190,1,8,0:0:0:0:
335,99,12349,6,0,P|271:83|194:153,1,170
292,282,12828,1,8,0:0:0:0:
420,173,12988,2,0,L|428:67,1,85
335,54,13307,1,0,0:0:0:0:
299,204,13466,2,0,L|307:310,1,85,8|0,0:0|0:0,0:0:0:0:
223,146,13785,6,0,P|272:116|330:124,1,85
407,237,14105,1,8,0:0:0:0:
311,215,14264,1,0,0:0:0:0:
473,200,14424,1,0,0:0:0:0:
340,301,14583,1,0,0:0:0:0:
394,151,14743,1,8,0:0:0:0:
395,367,14902,6,0,P|339:383|257:320,1,170
333,138,15381,2,0,L|322:44,1,85,8|0,0:0|0:0,0:0:0:0:
183,140,15700,1,0,0:0:0:0:
265,208,15860,1,0,0:0:0:0:
240,44,16020,2,0,P|202:26|160:28,1,85,8|0,0:0|0:0,0:0:0:0:
66,220,16339,6,0,P|108:221|146:203,1,85,6|0,0:0|0:0,0:0:0:0:
225,61,16658,1,8,0:0:0:0:
337,144,16817,1,0,0:0:0:0:
282,0,16977,1,0,0:0:0:0:
262,195,17137,1,0,0:0:0:0:
354,60,17296,1,8,0:0:0:0:
144,44,17456,6,0,P|96:113|126:214,1,170
180,258,17934,1,8,0:0:0:0:
308,209,18094,2,0,P|315:168|298:124,1,85
184,88,18413,1,0,0:0:0:0:
226,176,18573,1,8,0:0:0:0:
410,123,18732,1,0,0:0:0:0:
410,123,19051,5,8,3:0:0:0:
313,49,19211,1,8,0:0:0:0:
297,246,19371,1,0,0:0:0:0:
417,39,19530,5,8,0:0:0:0:
210,120,19690,1,0,0:0:0:0:
333,172,19849,1,0,0:0:0:0:
267,52,20009,6,0,B|242:50|224:35|224:35|197:36|179:49|179:49|151:20|97:32,1,170,12|0,0:0|0:0,0:0:0:0:
32,133,20488,2,0,L|45:240,1,85,8|0,0:0|0:0,0:0:0:0:
174,322,20807,2,0,L|187:215,1,85,8|0,0:0|0:0,0:0:0:0:
184,237,21046,1,0,0:0:0:0:
184,237,21126,1,8,0:0:0:0:
148,84,21285,1,0,0:0:0:0:
282,218,21445,6,0,P|346:228|378:216,1,76.4999976654053,6|0,0:0|0:0,0:0:0:0:
248,114,21764,2,0,P|184:104|152:116,1,76.4999976654053,8|0,0:0|0:0,0:0:0:0:
68,176,22083,1,0,0:0:0:0:
145,243,22243,1,0,0:0:0:0:
94,91,22402,1,8,0:0:0:0:
59,258,22562,6,0,L|78:343,1,76.4999976654053
154,205,22881,2,0,L|173:120,1,76.4999976654053,0|8,0:0|0:0,0:0:0:0:
85,75,23200,1,0,0:0:0:0:
157,224,23360,2,0,P|197:243|254:240,1,76.4999976654053
293,72,23679,2,0,P|255:75|221:93,1,76.4999976654053,8|0,0:0|0:0,0:0:0:0:
406,198,23998,5,0,0:0:0:0:
381,101,24158,1,0,0:0:0:0:
349,286,24317,1,8,0:0:0:0:
349,286,24637,5,0,0:0:0:0:
406,198,24796,1,0,0:0:0:0:
381,101,24956,2,0,L|292:93,1,76.4999976654053,8|0,0:0|0:0,0:0:0:0:
148,128,25275,5,0,0:0:0:0:
241,169,25434,1,0,0:0:0:0:
227,76,25594,1,8,0:0:0:0:
69,180,25754,2,0,L|91:334,1,152.999995330811
183,368,26232,2,0,P|236:365|270:342,1,76.4999976654053,8|0,0:0|0:0,0:0:0:0:
332,215,26551,6,0,L|314:117,1,76.4999976654053,6|0,0:0|0:0,0:0:0:0:
296,48,26871,2,0,P|250:41|216:54,1,76.4999976654053,8|0,0:0|0:0,0:0:0:0:
136,191,27190,2,0,P|172:200|209:193,1,76.4999976654053
142,38,27509,2,0,L|147:121,1,76.4999976654053,8|0,0:0|0:0,0:0:0:0:
288,219,27828,6,0,L|283:302,1,76.4999976654053
151,190,28147,2,0,L|146:107,1,76.4999976654053,8|0,0:0|0:0,0:0:0:0:
248,38,28466,1,0,0:0:0:0:
286,129,28626,1,0,0:0:0:0:
168,18,28785,1,8,0:0:0:0:
331,53,28945,1,0,0:0:0:0:
249,197,29105,6,0,P|217:168|229:76,1,118.999996368408,6|0,0:0|0:0,0:0:0:0:
291,37,29583,1,0,0:0:0:0:
291,37,29743,2,0,L|415:34,1,118.999996368408,8|0,0:0|0:0,0:0:0:0:
487,86,30222,6,0,L|486:176,1,76.4999976654053,6|0,0:0|0:0,0:0:0:0:
486,257,30541,1,8,0:0:0:0:
409,319,30700,2,0,P|362:313|332:292,1,76.4999976654053
215,190,31020,1,8,0:0:0:0:
225,291,31179,1,0,0:0:0:0:
225,291,31259,1,0,0:0:0:0:
225,291,31339,1,8,0:0:0:0:
332,169,31498,1,0,0:0:0:0:
332,169,31578,1,0,0:0:0:0:
332,169,31658,6,0,L|336:66,1,76.4999976654053,12|0,0:0|0:0,0:0:0:0:
253,202,31977,1,8,0:0:0:0:
325,267,32137,1,0,0:0:0:0:
412,225,32296,2,0,L|428:139,1,76.4999976654053
325,267,32615,2,0,L|341:353,1,76.4999976654053,8|0,0:0|0:0,0:0:0:0:
251,210,32934,6,0,P|215:204|173:217,1,76.4999976654053
123,296,33254,1,8,0:0:0:0:
288,282,33413,2,0,L|270:112,1,152.999995330811
261,37,33892,2,0,P|221:31|179:40,1,76.4999976654053,8|0,0:0|0:0,0:0:0:0:
119,109,34211,6,0,L|127:198,1,76.4999976654053
307,229,34530,1,8,0:0:0:0:
254,141,34690,1,0,0:0:0:0:
215,234,34849,2,0,P|237:291|271:317,1,76.4999976654053
397,225,35168,2,0,P|375:168|341:142,1,76.4999976654053,8|0,0:0|0:0,0:0:0:0:
307,229,35488,5,0,0:0:0:0:
399,326,35647,1,0,0:0:0:0:
463,146,35807,1,8,0:0:0:0:
397,225,35966,1,0,0:0:0:0:
397,225,36285,5,0,0:0:0:0:
463,146,36445,2,0,L|466:52,1,76.4999976654053,8|0,0:0|0:0,0:0:0:0:
383,20,36764,6,0,P|336:16|301:35,1,76.4999976654053,6|0,0:0|0:0,0:0:0:0:
200,92,37083,2,0,L|115:85,1,76.4999976654053,8|0,0:0|0:0,0:0:0:0:
222,219,37402,2,0,L|307:212,1,76.4999976654053
138,168,37722,2,0,P|125:213|134:268,1,76.4999976654053,8|0,0:0|0:0,0:0:0:0:
247,299,38041,6,0,P|260:344|251:399,1,76.4999976654053
114,316,38360,2,0,P|113:277|125:241,1,76.4999976654053,8|0,0:0|0:0,0:0:0:0:
266,180,38679,1,0,0:0:0:0:
257,289,38839,1,0,0:0:0:0:
193,140,38998,1,8,0:0:0:0:
341,221,39158,1,0,0:0:0:0:
207,361,39317,6,0,P|176:321|189:236,1,118.999996368408,6|0,0:0|0:0,0:0:0:0:
230,184,39796,1,0,0:0:0:0:
230,184,39956,2,0,P|261:144|248:59,1,118.999996368408,8|0,0:0|0:0,0:0:0:0:
182,25,40434,6,0,L|101:23,1,76.4999976654053,6|0,0:0|0:0,0:0:0:0:
11,24,40754,1,8,0:0:0:0:
66,109,40913,2,0,P|88:145|94:198,1,76.4999976654053
85,364,41232,1,8,0:0:0:0:
187,230,41392,1,0,0:0:0:0:
111,282,41551,1,0,0:0:0:0:
198,321,41711,1,0,0:0:0:0:
272,259,41871,6,0,L|282:136,1,118.999996368408,6|0,0:0|0:0,0:0:0:0:
292,61,42349,1,0,0:0:0:0:
292,61,42509,2,0,P|350:84|372:149,1,118.999996368408,2|0,0:0|0:0,0:0:0:0:
352,213,42988,1,0,0:0:0:0:
352,213,43147,6,0,P|388:214|420:200,2,59.4999981842042,2|0|0,0:0|0:0|0:0,0:0:0:0:
296,152,43626,1,0,0:0:0:0:
296,152,43785,2,0,L|167:146,1,118.999996368408,2|0,0:0|0:0,0:0:0:0:
115,90,44264,1,0,0:0:0:0:
115,90,44424,6,0,L|34:86,1,59.4999981842042,2|0,0:0|0:0,0:0:0:0:
3,151,44743,2,0,L|12:273,2,118.999996368408,0|2|0,0:0|0:0|0:0,0:0:0:0:
83,173,45541,1,0,0:0:0:0:
83,173,45700,2,0,P|128:178|161:169,1,59.4999981842042,2|0,0:0|0:0,0:0:0:0:
217,143,46020,1,2,0:0:0:0:
217,143,46339,6,0,L|301:148,1,68,8|0,0:0|0:0,0:0:0:0:
374,263,46658,2,0,L|279:273,1,76.4999976654053,8|0,0:0|0:0,0:0:0:0:
458,108,46977,6,0,L|455:295,1,170,6|8,0:0|0:0,0:0:0:0:
387,343,47456,1,0,0:0:0:0:
387,343,47615,2,0,P|340:353|301:347,1,85
228,287,47934,1,8,0:0:0:0:
331,99,48094,6,0,L|339:283,1,170,6|0,0:0|0:0,0:0:0:0:
195,198,48573,2,0,L|197:99,1,85,8|0,0:0|0:0,0:0:0:0:
329,14,48892,2,0,L|331:113,1,85
152,38,49211,1,8,0:0:0:0:
152,38,49530,6,0,P|130:88|122:129,1,85,12|0,0:0|0:0,0:0:0:0:
269,187,49849,2,0,P|236:142|205:115,1,85,8|0,0:0|0:0,0:0:0:0:
80,221,50168,2,0,P|134:215|173:201,1,85,8|0,0:0|0:0,0:0:0:0:
279,73,50488,1,8,0:0:0:0:
279,73,50647,1,0,0:0:0:0:
419,152,50807,6,0,L|445:252,1,85,8|0,0:0|0:0,0:0:0:0:
296,284,51126,2,0,L|355:199,1,85,8|0,0:0|0:0,0:0:0:0:
466,329,51445,2,0,L|366:301,1,85,8|0,0:0|0:0,0:0:0:0:
225,249,51764,1,8,0:0:0:0:
225,249,51924,1,0,0:0:0:0:
362,148,52083,5,8,0:0:0:0:
278,107,52243,1,8,0:0:0:0:
356,47,52402,1,8,0:0:0:0:
329,243,52562,1,14,0:0:0:0:
336,236,53040,5,8,0:0:0:0:
275,160,53200,1,8,0:0:0:0:
376,153,53359,1,8,0:0:0:0:
335,317,53519,1,6,0:0:0:0:
335,317,53839,5,0,0:0:0:0:
267,375,53998,1,0,0:0:0:0:
190,328,54158,1,0,0:0:0:0:
210,242,54317,1,0,0:0:0:0:
299,233,54477,1,0,0:0:0:0:
249,93,54637,6,0,L|138:77,1,93.5000028533936,6|0,0:0|0:0,0:0:0:0:
65,222,54956,2,0,L|176:206,1,93.5000028533936,8|0,0:0|0:0,0:0:0:0:
324,173,55275,1,0,0:0:0:0:
237,108,55434,1,0,0:0:0:0:
316,253,55594,1,8,0:0:0:0:
343,93,55754,1,0,0:0:0:0:
237,229,55913,6,0,P|236:269|283:331,1,93.5000028533936
398,278,56232,2,0,P|399:238|352:176,1,93.5000028533936,8|0,0:0|0:0,0:0:0:0:
286,157,56551,1,0,0:0:0:0:
316,253,56711,1,0,0:0:0:0:
449,155,56871,2,0,L|460:48,1,93.5000028533936
286,157,57190,6,0,L|305:308,1,140.25000428009
308,329,57509,1,8,0:0:0:0:
382,212,57668,2,0,L|364:97,1,93.5000028533936
199,200,57988,2,0,L|214:315,1,93.5000028533936,0|8,0:0|0:0,0:0:0:0:
211,292,58307,1,0,0:0:0:0:
261,137,58466,6,0,P|198:109|108:177,1,187.000005706787,0|8,0:0|0:0,0:0:0:0:
301,215,58945,1,0,0:0:0:0:
301,215,59105,2,0,L|406:196,1,93.5000028533936
286,36,59424,2,0,L|181:17,1,93.5000028533936,8|0,0:0|0:0,0:0:0:0:
161,235,59743,6,0,P|197:199|175:102,1,140.25000428009
168,101,60062,2,0,L|51:86,1,93.5000028533936,8|0,0:0|0:0,0:0:0:0:
131,287,60381,1,0,0:0:0:0:
252,245,60541,1,0,0:0:0:0:
100,195,60700,1,8,0:0:0:0:
171,369,60860,1,0,0:0:0:0:
332,217,61020,6,0,P|279:169|171:213,1,187.000005706787,0|8,0:0|0:0,0:0:0:0:
252,245,61498,1,0,0:0:0:0:
310,87,61658,2,0,L|181:77,1,93.5000028533936
84,208,61977,2,0,L|213:198,1,93.5000028533936,8|0,0:0|0:0,0:0:0:0:
390,271,62296,5,8,0:0:0:0:
435,149,62456,1,0,0:0:0:0:
295,235,62615,1,0,0:0:0:0:
483,232,62775,1,8,0:0:0:0:
381,74,62934,1,0,0:0:0:0:
320,272,63094,1,8,0:0:0:0:
321,248,63413,6,0,B|306:224|323:177|323:177|310:129|310:129|322:106|315:63,1,187.000005706787,6|0,0:0|0:0,0:0:0:0:
476,190,63892,2,0,P|437:215|373:215,1,93.5000028533936,8|0,0:0|0:0,0:0:0:0:
225,123,64211,1,0,0:0:0:0:
392,108,64371,1,0,0:0:0:0:
218,204,64530,1,8,0:0:0:0:
190,199,64610,1,8,0:0:0:0:
166,183,64690,1,8,0:0:0:0:
151,158,64770,1,8,0:0:0:0:
149,130,64849,6,0,L|163:24,1,93.5000028533936,6|0,0:0|0:0,0:0:0:0:
370,122,65168,2,0,L|384:228,1,93.5000028533936,8|0,0:0|0:0,0:0:0:0:
217,308,65488,1,0,0:0:0:0:
241,178,65647,1,0,0:0:0:0:
323,349,65807,1,8,0:0:0:0:
139,269,65966,1,0,0:0:0:0:
317,134,66126,6,0,P|331:181|301:239,1,93.5000028533936
169,219,66445,2,0,P|155:172|185:114,1,93.5000028533936,8|0,0:0|0:0,0:0:0:0:
241,178,66764,1,0,0:0:0:0:
238,273,66924,1,0,0:0:0:0:
73,163,67083,2,0,L|66:57,1,93.5000028533936,8|0,0:0|0:0,0:0:0:0:
174,237,67402,6,0,P|237:207|308:250,1,140.25000428009,4|0,0:0|0:0,0:0:0:0:
316,264,67722,1,8,0:0:0:0:
429,110,67881,2,0,L|331:117,1,93.5000028533936,0|4,0:0|0:0,0:0:0:0:
259,334,68200,2,0,L|357:341,1,93.5000028533936,0|8,0:0|0:0,0:0:0:0:
352,340,68520,1,0,0:0:0:0:
239,182,68679,6,0,L|45:189,1,187.000005706787,4|8,0:0|0:0,0:0:0:0:
52,188,69158,1,0,0:0:0:0:
237,270,69317,2,0,P|300:253|330:197,1,93.5000028533936,4|0,0:0|0:0,0:0:0:0:
249,89,69637,2,0,P|186:106|156:162,1,93.5000028533936,8|0,0:0|0:0,0:0:0:0:
246,179,69876,1,0,0:0:0:0:
246,179,69956,5,8,0:0:0:0:
246,179,70275,5,8,0:0:0:0:
405,151,70434,1,0,0:0:0:0:
202,261,70594,1,8,0:0:0:0:
435,285,70754,1,0,0:0:0:0:
281,85,70913,5,8,0:0:0:0:
291,311,71073,1,0,0:0:0:0:
399,180,71232,6,0,P|408:124|356:68,1,135.99999584961,6|0,0:0|0:0,0:0:0:0:
280,96,71552,1,0,0:0:0:0:
280,96,71871,2,0,L|293:168,2,56.6666666666667,8|0|0,0:0|0:0|0:0,0:0:0:0:
188,232,72190,2,0,L|175:304,2,56.6666666666667,8|0|0,0:0|0:0|0:0,0:0:0:0:
70,201,72509,5,2,0:0:0:0:
70,201,72828,2,0,L|61:104,1,85
131,52,73147,2,0,P|170:102|275:106,1,170,8|0,0:0|0:0,0:0:0:0:
350,45,73626,1,0,0:0:0:0:
406,234,73785,5,0,0:0:0:0:
312,212,73945,1,8,0:0:0:0:
477,174,74105,1,0,0:0:0:0:
412,328,74264,1,0,0:0:0:0:
370,141,74424,2,0,L|380:56,1,85,8|0,0:0|0:0,0:0:0:0:
477,174,74743,2,0,L|487:259,1,85
380,238,75062,6,0,B|303:243|269:170|269:170|173:167|150:254,1,272,6|0,0:0|0:0,0:0:0:0:
243,286,76020,1,2,0:0:0:0:
360,144,76339,6,0,B|364:128|348:96|348:96|352:72|360:48|360:48|296:60|256:28|256:28|228:36|228:36|208:36|188:23,1,272,6|0,0:0|0:0,0:0:0:0:
97,107,77296,2,0,L|103:187,1,68,8|0,0:0|0:0,0:0:0:0:
233,286,77615,6,0,P|244:243|229:192,1,85,6|0,0:0|0:0,0:0:0:0:
75,170,77934,1,8,0:0:0:0:
146,244,78094,1,0,0:0:0:0:
139,107,78254,1,0,0:0:0:0:
54,253,78413,1,0,0:0:0:0:
228,226,78573,1,8,0:0:0:0:
103,29,78732,6,0,P|57:77|107:186,1,170
220,258,79211,1,8,0:0:0:0:
355,177,79371,2,0,L|366:72,1,85
281,35,79690,1,0,0:0:0:0:
211,173,79849,2,0,L|222:278,1,85,8|0,0:0|0:0,0:0:0:0:
373,314,80168,6,0,P|390:260|366:204,1,85,6|0,0:0|0:0,0:0:0:0:
233,183,80488,1,8,0:0:0:0:
305,263,80647,1,0,0:0:0:0:
278,110,80807,1,0,0:0:0:0:
196,259,80966,1,0,0:0:0:0:
337,171,81125,1,8,0:0:0:0:
109,243,81285,6,0,P|127:312|245:329,1,170
345,197,81764,2,0,L|347:86,1,85,8|0,0:0|0:0,0:0:0:0:
194,54,82083,1,8,0:0:0:0:
225,153,82243,1,0,0:0:0:0:
81,221,82402,2,0,P|65:159|82:113,1,85,8|0,0:0|0:0,0:0:0:0:
225,153,82722,6,0,L|217:346,1,170,6|8,0:0|0:0,0:0:0:0:
306,371,83200,1,0,0:0:0:0:
425,262,83360,2,0,P|433:202|419:158,1,85
300,67,83679,1,0,0:0:0:0:
258,170,83839,6,0,L|432:178,1,170,4|0,0:0|0:0,0:0:0:0:
250,85,84317,2,0,L|259:189,1,85,8|0,0:0|0:0,0:0:0:0:
139,282,84637,1,0,0:0:0:0:
169,191,84796,1,0,0:0:0:0:
234,266,84956,1,8,0:0:0:0:
88,185,85115,6,0,P|126:120|219:124,1,170
283,190,85594,2,0,L|386:194,1,85,8|0,0:0|0:0,0:0:0:0:
465,56,85913,1,0,0:0:0:0:
367,80,86073,1,0,0:0:0:0:
457,223,86232,1,8,0:0:0:0:
328,325,86392,6,0,L|149:324,1,170
48,204,86871,2,0,P|35:143|46:97,1,85,8|0,0:0|0:0,0:0:0:0:
48,96,87110,1,0,0:0:0:0:
64,80,87190,1,8,0:0:0:0:
176,56,87349,1,0,0:0:0:0:
172,76,87429,1,0,0:0:0:0:
168,96,87509,1,8,0:0:0:0:
164,116,87589,1,0,0:0:0:0:
160,132,87668,2,0,B|183:144|237:131,1,42.5
308,124,87828,6,0,L|418:112,1,85,6|0,0:0|0:0,0:0:0:0:
253,259,88147,2,0,L|143:247,1,85,8|0,0:0|0:0,0:0:0:0:
128,119,88466,1,8,0:0:0:0:
209,171,88626,1,0,0:0:0:0:
62,298,88785,1,8,0:0:0:0:
89,202,88945,1,0,0:0:0:0:
227,342,89105,6,0,L|132:351,1,85,8|0,0:0|0:0,0:0:0:0:
219,170,89424,1,8,0:0:0:0:
268,259,89583,1,0,0:0:0:0:
146,218,89743,2,0,P|133:171|152:114,1,85,8|0,0:0|0:0,0:0:0:0:
299,125,90062,2,0,P|312:172|293:229,1,85,8|0,0:0|0:0,0:0:0:0:
214,46,90381,6,0,L|387:29,1,170,8|8,0:0|0:0,0:0:0:0:
466,162,90860,1,0,0:0:0:0:
391,219,91020,2,0,P|370:169|383:119,1,85,8|0,0:0|0:0,0:0:0:0:
477,67,91339,1,8,0:0:0:0:
462,157,91498,1,0,0:0:0:0:
295,49,91658,6,0,L|398:40,1,85,8|0,0:0|0:0,0:0:0:0:
256,197,91977,2,0,L|153:188,1,85,8|0,0:0|0:0,0:0:0:0:
97,44,92296,1,8,0:0:0:0:
189,90,92456,1,0,0:0:0:0:
105,247,92615,2,0,P|83:180|136:111,1,127.5,8|0,0:0|0:0,0:0:0:0:
132,115,92934,6,0,L|227:111,1,85,8|0,0:0|0:0,0:0:0:0:
330,273,93254,2,0,L|235:269,1,85,8|0,0:0|0:0,0:0:0:0:
346,138,93573,1,8,0:0:0:0:
406,218,93732,1,0,0:0:0:0:
248,178,93892,1,8,0:0:0:0:
443,139,94051,6,0,P|482:176|455:289,1,170,4|0,0:0|0:0,0:0:0:0:
392,346,94530,2,0,L|289:344,1,85,8|0,0:0|0:0,0:0:0:0:
212,344,94849,1,8,0:0:0:0:
190,329,94929,1,8,0:0:0:0:
165,321,95009,1,8,0:0:0:0:
139,321,95089,1,8,0:0:0:0:
115,329,95168,2,0,L|45:338,2,56.6666666666667,8|8|8,0:0|0:0|0:0,0:0:0:0:
219,240,95488,5,6,0:0:0:0:
256,192,95567,12,8,102030,0:0:0:0:
