osu file format v14

[General]
AudioFilename: audio.mp3
AudioLeadIn: 0
PreviewTime: 63204
Countdown: 0
SampleSet: Soft
StackLeniency: 0.7
Mode: 0
LetterboxInBreaks: 0
WidescreenStoryboard: 0

[Editor]
Bookmarks: 11604,32242,41274,83862,86443
DistanceSpacing: 1.6
BeatDivisor: 4
GridSize: 4
TimelineZoom: 2.899999

[Metadata]
Title:Mission! Kenkou Dai Ichi (TV Size)
TitleUnicode:ミッション! 健・康・第・イチ (TV Size)
Artist:Hanazawa Kana, Maeno Tomoaki, Ono Daisuke, Inoue Kikuko
ArtistUnicode:花澤香菜, 前野智昭, 小野大輔, 井上喜久子
Creator:sahuang
Version:Collab Hard
Source:はたらく細胞
Tags:Kencho -ClariS- yf_bmp My Angel Azusa Meg - G I D Z - Firika Oiso Hataraku Saibō cells at work health first opening op
BeatmapID:1740277
BeatmapSetID:819243

[Difficulty]
HPDrainRate:4
CircleSize:3.5
OverallDifficulty:6
ApproachRate:7.5
SliderMultiplier:1.4
SliderTickRate:1

[Events]
//Background and Video events
0,0,"loliwaifu.jpg",0,0
//Break Periods
//Storyboard Layer 0 (Background)
//Storyboard Layer 1 (Fail)
//Storyboard Layer 2 (Pass)
//Storyboard Layer 3 (Foreground)
//Storyboard Sound Samples

[TimingPoints]
1350,322.58064516129,4,2,1,50,1,0
11672,-100,4,2,1,50,0,0
52962,-133.333333333333,4,2,1,50,0,0
58124,-111.111111111111,4,2,1,50,0,0
60704,-100,4,2,1,50,0,0
63285,-83.3333333333333,4,2,1,60,0,1
78769,-111.111111111111,4,2,1,60,0,0
81349,-66.6666666666667,4,2,1,60,0,0
83769,-100,4,2,1,50,0,0

[Colours]
Combo1 : 255,0,0
Combo2 : 64,255,255
Combo3 : 241,175,78
Combo4 : 196,98,0

[HitObjects]
45,296,1188,5,0,3:0:0:0:
45,296,1269,1,0,3:0:0:0:
45,296,1350,1,0,0:0:0:0:
159,331,1672,6,0,L|142:240,1,70,2|0,1:0|0:0,0:0:0:0:
131,179,1995,1,0,0:0:0:0:
159,331,2317,6,0,L|211:254,1,70,2|0,1:0|0:0,0:0:0:0:
246,203,2640,1,0,0:0:0:0:
159,331,2962,6,0,L|249:314,1,70,2|0,1:0|0:0,0:0:0:0:
310,302,3285,2,0,L|400:285,1,70,2|0,0:0|0:0,0:0:0:0:
461,270,3608,2,0,P|484:212|470:120,1,140,2|4,1:0|3:0,0:0:0:0:
378,35,4253,6,0,L|395:126,1,70,4|0,1:2|0:0,0:0:0:0:
406,187,4576,1,0,0:0:0:0:
378,35,4898,6,0,L|325:111,1,70,4|0,1:2|0:0,0:0:0:0:
291,163,5220,2,0,L|238:239,1,70,4|0,0:3|0:0,0:0:0:0:
309,281,5543,1,8,1:0:0:0:
263,351,5704,1,0,0:0:0:0:
202,292,5866,2,0,P|122:291|62:237,1,140,0|4,0:0|1:2,0:0:0:0:
52,89,6511,1,4,1:0:0:0:
219,92,6833,6,0,L|320:92,1,70,8|0,1:0|0:0,0:0:0:0:
373,93,7156,1,0,0:0:0:0:
219,92,7479,6,0,L|290:163,1,70,0|0,1:0|0:0,0:0:0:0:
327,201,7802,1,0,0:0:0:0:
219,92,8124,6,0,L|219:193,1,70,0|0,1:0|0:0,0:0:0:0:
218,245,8446,2,0,L|216:321,1,70,8|0,0:0|0:0,0:0:0:0:
297,349,8769,6,0,L|299:280,1,70,0|0,1:0|0:0,0:0:0:0:
299,196,9091,2,0,P|343:134|426:116,1,140,4|4,3:0|1:2,0:0:0:0:
478,264,9737,1,0,0:0:0:0:
409,311,9898,1,0,0:0:0:0:
362,242,10059,1,0,1:0:0:0:
431,195,10220,1,0,1:0:0:0:
256,192,10704,12,0,11349,1:0:0:0:
29,41,11672,6,0,P|10:104|54:172,1,140,4|0,1:0|1:0,0:0:0:0:
92,96,12156,1,0,0:0:0:0:
170,66,12317,2,0,L|254:58,1,70,2|0,0:0|0:0,0:0:0:0:
315,96,12640,2,0,L|409:89,1,70,0|0,1:0|0:0,0:0:0:0:
435,23,12962,6,0,P|468:77|430:161,1,140,2|0,0:0|1:0,0:0:0:0:
443,230,13446,2,0,P|480:286|464:352,1,140,2|0,0:0|1:0,0:0:0:0:
332,248,14091,6,0,L|186:264,1,140,0|0,0:0|0:0,0:0:0:0:
127,316,14575,1,0,1:0:0:0:
48,284,14737,2,0,P|33:210|64:150,1,140,0|0,0:0|0:0,0:0:0:0:
131,110,15220,1,0,1:0:0:0:
55,73,15382,1,0,0:0:0:0:
131,110,15543,6,0,L|230:111,1,70,2|0,0:0|0:0,0:0:0:0:
250,178,15866,2,0,P|271:150|282:116,1,70,0|0,1:0|0:0,0:0:0:0:
275,33,16188,2,0,P|338:28|409:96,1,140,0|0,0:0|1:0,0:0:0:0:
397,71,16672,1,0,1:0:0:0:
412,238,16995,6,0,L|406:327,2,70,0|0|0,0:0|1:0|0:0,0:0:0:0:
337,198,17479,2,0,P|286:192|249:210,1,70,2|0,0:0|0:0,0:0:0:0:
231,272,17801,2,0,P|196:279|163:271,1,70,0|0,1:0|0:0,0:0:0:0:
105,332,18124,6,0,P|81:267|109:206,1,140,2|0,0:0|1:0,0:0:0:0:
71,130,18608,2,0,P|47:65|73:1,1,140,2|0,0:0|1:0,0:0:0:0:
275,97,19253,6,0,P|298:161|272:225,1,140,0|0,0:0|0:0,0:0:0:0:
190,246,19737,1,0,1:0:0:0:
235,316,19898,1,0,0:0:0:0:
316,297,20059,2,0,L|404:333,1,70,2|0,0:0|0:0,0:0:0:0:
454,258,20382,2,0,L|389:231,1,70,0|0,1:0|0:0,0:0:0:0:
309,175,20704,6,0,P|348:144|395:142,1,70,2|0,0:0|1:0,0:0:0:0:
459,171,21027,2,0,P|465:121|452:86,1,70,0|0,1:0|0:0,0:0:0:0:
382,42,21349,1,0,1:0:0:0:
382,42,21511,1,0,1:0:0:0:
256,192,21833,12,2,23608,0:0:0:0:
116,342,23930,5,0,1:0:0:0:
116,342,24092,1,2,0:0:0:0:
256,192,24414,12,0,26511,1:0:0:0:
41,178,26833,5,4,3:0:0:0:
41,178,26995,6,0,P|108:161|184:176,1,140,2|2,1:0|1:0,0:0:0:0:
246,261,27479,1,0,1:0:0:0:
135,279,27640,1,0,1:0:0:0:
176,172,27801,1,2,1:0:0:0:
479,124,28285,6,0,P|412:141|336:126,1,140,2|2,1:0|1:0,0:0:0:0:
274,40,28769,1,0,1:0:0:0:
234,144,28930,1,0,1:0:0:0:
343,129,29091,1,2,1:0:0:0:
374,340,29575,6,0,P|443:309|472:253,1,140,2|2,1:0|1:0,0:0:0:0:
433,163,30059,1,0,1:0:0:0:
368,236,30220,1,0,1:0:0:0:
273,208,30382,2,0,P|236:197|186:196,1,70,2|0,1:0|0:0,0:0:0:0:
109,218,30704,2,0,P|88:180|84:147,1,70,2|0,1:0|0:0,0:0:0:0:
160,92,31027,5,0,1:0:0:0:
256,78,31188,1,2,1:0:0:0:
194,1,31349,1,0,1:0:0:0:
160,92,31511,1,0,1:0:0:0:
61,261,31995,5,2,3:2:0:0:
61,261,32317,6,0,P|122:281|208:261,1,140,4|0,1:0|1:0,0:0:0:0:
258,202,32801,1,2,0:0:0:0:
283,296,32962,2,0,L|367:288,1,70,0|2,0:0|0:0,0:0:0:0:
421,349,33285,2,0,L|515:342,1,70,0|0,1:0|0:0,0:0:0:0:
452,261,33607,6,0,P|436:194|475:138,1,140,2|0,0:0|1:0,0:0:0:0:
383,123,34091,2,0,P|399:56|360:0,1,140,2|0,0:0|1:0,0:0:0:0:
276,146,34737,6,0,B|246:150|246:150|225:147|225:147|203:163|203:163|186:156|186:156|134:162,1,140,0|2,0:0|0:0,0:0:0:0:
75,111,35220,1,0,1:0:0:0:
30,182,35382,1,2,0:0:0:0:
97,232,35543,2,0,P|128:284|91:377,1,140,0|0,0:0|1:0,0:0:0:0:
46,303,36027,1,0,0:0:0:0:
110,357,36188,6,0,L|196:352,1,70,0|0,0:0|0:0,0:0:0:0:
240,294,36511,2,0,L|326:299,1,70,0|0,1:0|1:2,0:0:0:0:
384,335,36833,1,0,1:2:0:0:
442,274,36995,2,0,L|434:195,2,70,0|0|0,0:0|1:0|1:0,0:0:0:0:
244,155,37640,6,0,L|251:224,2,70,2|0|2,0:0|1:0|0:0,0:0:0:0:
227,72,38124,2,0,P|166:43|136:50,1,70,0|2,0:0|0:0,0:0:0:0:
163,126,38446,2,0,P|95:131|73:152,1,70,0|0,1:0|0:0,0:0:0:0:
135,205,38769,6,0,B|118:269|118:269|171:340,1,140,2|0,0:0|1:0,0:0:0:0:
241,300,39253,2,0,B|308:294|308:294|375:336,1,140,2|0,0:0|1:0,0:0:0:0:
492,218,39898,6,0,B|425:224|425:224|357:181,1,140,0|2,0:0|0:0,0:0:0:0:
338,104,40382,1,0,1:0:0:0:
192,21,40704,2,0,L|112:31,1,70,0|2,0:0|0:0,0:0:0:0:
120,114,41027,2,0,L|200:104,1,70,0|0,1:0|0:0,0:0:0:0:
275,151,41349,6,0,P|250:181|201:196,1,70,0|0,3:0|1:0,0:0:0:0:
133,236,41672,2,0,P|164:279|207:297,1,70,0|0,1:0|0:0,0:0:0:0:
273,308,41995,1,0,1:0:0:0:
273,308,42156,1,0,1:0:0:0:
256,192,42478,12,0,44253,0:0:0:0:
237,81,44575,5,0,1:0:0:0:
237,81,44736,1,2,0:0:0:0:
256,192,45059,12,0,47156,1:0:0:0:
114,281,47640,6,0,P|95:206|120:135,1,140,2|2,1:0|1:0,0:0:0:0:
185,62,48124,1,0,1:0:0:0:
226,165,48285,1,0,1:0:0:0:
112,147,48446,1,2,1:0:0:0:
445,102,48930,6,0,P|464:177|439:248,1,140,2|2,1:0|1:0,0:0:0:0:
362,309,49414,1,0,1:0:0:0:
341,199,49575,1,0,1:0:0:0:
446,235,49736,1,2,1:0:0:0:
138,44,50220,6,0,P|69:75|40:131,1,140,2|2,1:0|1:0,0:0:0:0:
79,221,50704,1,0,1:0:0:0:
144,148,50865,1,0,1:0:0:0:
239,176,51027,2,0,P|276:187|326:188,1,70,2|0,1:0|0:0,0:0:0:0:
403,166,51349,2,0,P|424:204|428:237,1,70,2|4,1:0|1:2,0:0:0:0:
352,292,51672,5,0,1:0:0:0:
318,383,51833,1,2,1:0:0:0:
256,306,51994,1,0,1:0:0:0:
352,292,52156,1,0,1:0:0:0:
352,292,52962,6,0,P|296:284|255:249,1,105.000004005432,0|2,0:0|0:0,0:0:0:0:
223,111,53608,1,0,1:0:0:0:
364,73,53930,1,2,0:0:0:0:
223,111,54253,2,0,L|112:97,1,105.000004005432,0|2,0:0|0:0,0:0:0:0:
19,206,54898,2,0,L|123:219,1,105.000004005432,0|2,1:0|0:0,0:0:0:0:
217,332,55543,6,0,L|206:221,1,105.000004005432,0|2,0:0|0:0,0:0:0:0:
352,204,56188,2,0,L|362:308,1,105.000004005432,0|2,1:0|0:0,0:0:0:0:
471,209,56833,1,0,0:0:0:0:
440,130,56995,1,0,1:0:0:0:
404,53,57156,2,0,L|345:58,1,52.5000020027161,0|0,0:0|0:0,0:0:0:0:
282,105,57479,2,0,L|216:100,1,52.5000020027161,0|0,1:0|0:0,0:0:0:0:
155,62,57801,1,0,1:0:0:0:
106,130,57962,1,0,0:0:0:0:
183,169,58124,5,0,1:0:0:0:
256,192,58204,12,0,60059,1:0:0:0:
417,65,60704,6,0,L|376:57,3,35,0|0|0|0,1:0|1:0|1:0|1:0,0:0:0:0:
343,89,61027,2,0,L|302:97,3,35,0|0|0|0,1:0|1:0|1:0|1:0,0:0:0:0:
269,65,61349,6,0,L|228:57,3,35,0|0|0|0,1:0|1:0|1:0|1:0,0:0:0:0:
195,89,61672,2,0,L|154:97,3,35,0|0|0|0,1:0|1:0|1:0|1:0,0:0:0:0:
58,71,62156,5,2,1:0:0:0:
93,163,62317,1,2,1:0:0:0:
161,96,62479,1,2,1:0:0:0:
196,188,62640,1,2,1:0:0:0:
196,188,62962,5,4,1:2:0:0:
430,164,63285,6,0,P|443:202|433:245,1,83.9999974365235,4|2,0:0|0:0,0:0:0:0:
343,113,63608,2,0,P|332:60|343:32,1,83.9999974365235,0|2,1:0|0:0,0:0:0:0:
427,73,63930,1,0,0:0:0:0:
346,211,64091,2,0,P|259:203|196:147,1,167.999994873047,2|0,0:0|0:0,0:0:0:0:
118,101,64575,6,0,P|158:64|188:58,1,83.9999974365235,0|0,0:0|0:0,0:0:0:0:
116,204,64898,2,0,P|75:240|45:244,1,83.9999974365235,0|2,1:0|0:0,0:0:0:0:
39,151,65220,1,0,0:0:0:0:
199,152,65381,2,0,P|235:231|218:313,1,167.999994873047,2|0,0:0|0:0,0:0:0:0:
8,382,65866,6,0,L|99:376,1,83.9999974365235,4|2,0:0|0:0,0:0:0:0:
220,308,66188,2,0,L|129:302,1,83.9999974365235,0|2,1:0|0:0,0:0:0:0:
74,226,66511,1,0,0:0:0:0:
78,131,66672,2,0,P|156:74|251:88,1,167.999994873047,2|0,0:0|0:0,0:0:0:0:
436,2,67156,6,0,L|345:8,1,83.9999974365235,0|0,0:0|0:0,0:0:0:0:
224,76,67478,2,0,L|315:82,1,83.9999974365235,0|2,1:0|0:0,0:0:0:0:
370,158,67801,1,0,0:0:0:0:
366,253,67962,2,0,P|288:310|193:296,1,167.999994873047,2|0,0:0|0:0,0:0:0:0:
118,349,68446,6,0,P|105:284|114:255,1,83.9999974365235,2|0,0:0|0:0,0:0:0:0:
15,273,68769,2,0,P|36:210|58:189,1,83.9999974365235,0|0,1:0|0:0,0:0:0:0:
142,185,69091,2,0,P|166:151|174:110,1,83.9999974365235
123,33,69414,2,0,P|161:14|204:20,1,83.9999974365235,0|0,1:0|0:0,0:0:0:0:
259,96,69737,6,0,P|319:114|361:90,1,83.9999974365235,0|0,0:0|0:0,0:0:0:0:
395,34,70059,2,0,P|426:79|428:131,1,83.9999974365235,0|0,1:0|0:0,0:0:0:0:
385,192,70382,2,0,P|394:232|420:265,1,83.9999974365235,0|0,0:0|0:0,0:0:0:0:
485,335,70704,2,0,P|421:360|384:353,1,83.9999974365235,0|0,1:0|0:0,0:0:0:0:
295,303,71027,5,0,1:0:0:0:
139,245,71349,1,0,1:0:0:0:
198,88,71672,1,0,1:0:0:0:
355,147,71995,1,0,1:0:0:0:
335,156,72317,5,4,1:0:0:0:
209,108,72479,1,0,1:0:0:0:
162,234,72640,1,0,0:0:0:0:
287,280,72801,2,0,B|362:310|434:280|434:280|410:224|444:149,1,251.999992309571,4|8,1:2|1:0,0:0:0:0:
240,73,73608,6,0,P|169:56|136:67,1,83.9999974365235,8|0,1:2|0:0,0:0:0:0:
65,1,73930,2,0,P|49:39|59:90,1,83.9999974365235,8|0,1:2|0:0,0:0:0:0:
75,188,74253,1,8,1:2:0:0:
182,167,74414,2,0,P|198:234|161:323,1,167.999994873047,0|0,0:0|0:0,0:0:0:0:
272,311,74898,6,0,P|343:328|376:317,1,83.9999974365235,8|0,1:2|0:0,0:0:0:0:
446,383,75220,2,0,P|463:312|452:279,1,83.9999974365235,8|0,1:2|0:0,0:0:0:0:
437,196,75543,1,8,1:2:0:0:
330,217,75704,2,0,P|314:150|351:61,1,167.999994873047
460,54,76188,6,0,L|372:59,1,83.9999974365235,8|0,1:2|0:0,0:0:0:0:
285,120,76511,2,0,L|197:125,1,83.9999974365235,8|0,1:2|0:0,0:0:0:0:
129,42,76833,1,8,1:2:0:0:
24,76,76995,2,0,P|8:170|40:252,1,167.999994873047,0|0,0:0|0:0,0:0:0:0:
69,339,77479,6,0,L|157:334,1,83.9999974365235,8|0,1:2|0:0,0:0:0:0:
244,273,77802,2,0,L|332:268,1,83.9999974365235,8|0,1:2|0:0,0:0:0:0:
400,351,78124,1,8,1:2:0:0:
505,317,78286,2,0,P|521:223|489:141,1,167.999994873047,0|0,0:0|0:0,0:0:0:0:
399,136,78769,6,0,L|375:266,1,125.999996154785,4|0,0:2|0:0,0:0:0:0:
189,337,79414,2,0,L|213:207,1,125.999996154785,0|0,1:0|0:0,0:0:0:0:
325,46,80059,2,0,L|301:176,1,125.999996154785,2|0,0:0|0:0,0:0:0:0:
118,252,80704,2,0,L|142:122,1,125.999996154785,0|0,1:0|1:0,0:0:0:0:
62,86,81188,1,0,1:0:0:0:
129,30,81349,6,0,P|214:14|335:47,1,210.000008010865,0|4,0:0|1:2,0:0:0:0:
479,195,81995,2,0,P|379:225|276:210,1,210.000008010865,0|4,0:0|1:2,0:0:0:0:
68,244,82640,2,0,P|50:309|152:290,1,210.000008010865,4|0,1:0|0:0,0:0:0:0:
417,342,83285,5,0,1:0:0:0:
487,271,83446,1,0,0:0:0:0:
449,173,83607,1,0,1:0:0:0:
379,255,83769,6,0,P|310:257|249:225,1,140,4|0,0:2|0:0,0:0:0:0:
248,126,84253,1,2,1:0:0:0:
379,255,84575,1,0,1:0:0:0:
379,255,84737,1,2,1:0:0:0:
248,126,85059,6,0,P|309:93|378:95,1,140,2|0,0:1|0:0,0:0:0:0:
435,175,85543,1,0,1:0:0:0:
435,175,85704,1,2,0:0:0:0:
379,255,85866,6,0,L|357:328,2,70,2|0|0,1:0|0:0|1:0,0:0:0:0:
342,164,86349,1,2,0:1:0:0:
281,85,86511,6,0,L|259:12,2,70,0|0|0,1:0|0:0|1:0,0:0:0:0:
244,176,86994,1,2,0:1:0:0:
187,256,87156,6,0,L|165:329,2,70,0|0|0,1:0|0:0|1:0,0:0:0:0:
150,165,87639,1,2,0:1:0:0:
86,89,87801,6,0,L|64:16,2,70,0|0|0,1:0|0:0|1:0,0:0:0:0:
50,179,88284,1,2,0:1:0:0:
85,271,88446,5,0,1:0:0:0:
196,228,88608,1,0,0:0:0:0:
305,272,88769,1,0,1:0:0:0:
415,228,88930,1,2,1:1:0:0:
