osu file format v14

[General]
AudioFilename: audio.mp3
AudioLeadIn: 0
PreviewTime: 63057
Countdown: 0
SampleSet: Soft
StackLeniency: 0.6
Mode: 0
LetterboxInBreaks: 0
WidescreenStoryboard: 1

[Editor]
Bookmarks: 476,798,1444,1767,2089,2412,2734,3057,3380,3863,4025,4347,4670,4992,5315,5638,5960,6605,6928,7251,7573,7896,8218,8541,8863,9186,9509,9670,9831,9992,10315,11444,12734,13863,15315,15638,16283,16444,16767,17896,19025,20476,21605,22412,23057,23541,24186,24670,25638,26121,26767,28057,29347,30799,31767,32089,34589,37251,41121,41363,41686,42251,42734,43057,43380,43702,44025,44347,44831,45315,45638,45960,46283,46605,46928,47412,48702,49992,50799,51444,52251,52734,53863,55315,56605,57251,57573,57734,57896,58541,59186,59831,60476,61928,62089,62251,62412,63057,64347,65638,66928,68218,69509,70799,71121,71444,71767,72089,73380,73702,74025,74347,74670,74992,75315,75638,75960,76283,76605,76928,77251,77573,77896,78218,78541,79186,80154,80476,80799,81121,81767,82412,83057,84025,84831,85638,86283,86928,87573,88218,88380,88541,88702
DistanceSpacing: 0.6
BeatDivisor: 4
GridSize: 4
TimelineZoom: 2.1888

[Metadata]
Title:Mission! Kenkou Dai Ichi (TV Size)
TitleUnicode:ミッション!健・康・第・イチ (TV Size)
Artist:Hanazawa Kana, Maeno Tomoaki, Ono Daisuke, Inoue Kikuko
ArtistUnicode:花澤香菜, 前野智昭, 小野大輔, 井上喜久子
Creator:Giants
Version:Hataraku!
Source:はたらく細胞
Tags:ken kou health comes first hataraku saibou saibō cells at work op opening
BeatmapID:2223583
BeatmapSetID:1061857

[Difficulty]
HPDrainRate:5
CircleSize:4.3
OverallDifficulty:8.8
ApproachRate:9.5
SliderMultiplier:2
SliderTickRate:1

[Events]
//Background and Video events
0,0,"bg.jpg",0,0
//Break Periods
2,37251,40551
//Storyboard Layer 0 (Background)
//Storyboard Layer 1 (Fail)
//Storyboard Layer 2 (Pass)
//Storyboard Layer 3 (Foreground)
//Storyboard Layer 4 (Overlay)
//Storyboard Sound Samples

[TimingPoints]
476,322.58064516129,4,2,1,40,1,0
476,-133.333333333333,4,2,1,40,0,0
798,-100,4,2,1,40,0,0
1122,322.58064516129,4,2,1,60,1,0
6928,-76.9230769230769,4,2,1,60,0,0
8863,-100,4,2,1,60,0,0
10476,-100,4,2,1,60,0,0
11444,-100,4,2,1,50,0,0
21605,-133.333333333333,4,2,1,50,0,0
24186,-100,4,2,1,50,0,0
24670,-133.333333333333,4,2,1,50,0,0
26767,-100,4,2,1,50,0,0
31767,-133.333333333333,4,2,1,50,0,0
32089,-166.666666666667,4,2,1,35,0,0
37251,-100,4,2,1,20,0,0
41121,-100,4,2,1,50,0,0
42251,-100,4,2,1,60,0,0
44347,-133.333333333333,4,2,1,60,0,0
44831,-100,4,2,1,60,0,0
46928,-133.333333333333,4,2,1,60,0,0
47412,-100,4,2,1,60,0,0
52251,-133.333333333333,4,2,1,60,0,0
52734,-181.818181818181,4,2,1,45,0,0
57573,-153.846153846154,4,2,1,45,0,0
57734,-133.333333333333,4,2,1,45,0,0
57896,-100,4,2,1,50,0,0
60476,-100,4,2,1,55,0,0
61928,-100,4,2,1,60,0,0
62412,-83.3333333333333,4,2,1,60,0,0
63057,-100,4,2,1,80,0,1
72089,-66.6666666666667,4,2,1,80,0,1
72573,-100,4,2,1,70,0,0
73380,-100,4,2,1,80,0,1
78541,-153.846153846154,4,2,1,80,0,1
80154,-133.333333333333,4,2,1,80,0,1
80476,-100,4,2,1,80,0,1
80799,-83.3333333333333,4,2,1,80,0,1
81121,-66.6666666666667,4,2,1,80,0,1
82412,-100,4,2,1,80,0,1
83541,-100,4,2,1,60,0,0

[Colours]
Combo1 : 192,192,192
Combo2 : 128,255,255
Combo3 : 0,255,64

[HitObjects]
415,116,476,6,0,P|432:190|406:224,1,112.500004291535
359,291,798,6,0,L|373:178,1,100
332,108,1040,1,0,0:0:0:0:
281,116,1122,6,0,L|170:96,1,100
18,229,1444,6,0,L|129:209,1,100
311,39,1767,5,0,0:0:0:0:
281,232,1928,1,0,0:0:0:0:
148,80,2089,6,0,L|41:68,1,100
210,246,2412,6,0,P|239:202|209:145,1,100
75,357,2734,6,0,L|197:342,1,100
383,250,3057,6,0,B|348:219|348:219|290:219,1,100
284,384,3380,6,0,L|291:258,1,100
295,219,3621,1,0,0:0:0:0:
295,219,3702,1,0,0:0:0:0:
379,77,3863,5,0,0:0:0:0:
483,239,4025,6,0,L|497:134,1,100
512,45,4347,5,0,0:0:0:0:
344,154,4509,1,0,0:0:0:0:
421,290,4670,6,0,P|462:320|513:316,1,100
148,237,4992,6,0,B|100:238|100:238|49:282,1,100
257,119,5315,6,0,B|280:76|280:76|267:10,1,100
314,271,5638,6,0,B|338:312|338:312|402:334,1,100
500,169,5960,6,0,B|462:157|462:157|411:204,1,100
368,241,6202,1,0,0:0:0:0:
368,241,6283,2,0,L|258:230,1,100
82,102,6605,6,0,P|133:94|184:123,1,100
194,298,6928,5,0,0:0:0:0:
247,158,7089,1,0,0:0:0:0:
257,337,7251,6,0,P|188:370|140:347,1,129.999994049073
5,163,7573,5,0,0:0:0:0:
129,263,7734,1,0,0:0:0:0:
243,142,7896,6,0,P|280:88|260:15,1,129.999994049073
129,263,8218,6,0,P|183:300|256:280,1,129.999994049073
5,163,8541,5,0,0:0:0:0:
134,25,8863,6,0,B|184:40|184:40|238:149,1,150
259,185,9186,6,0,L|76:176,1,150
63,156,9509,5,0,0:0:0:0:
260,38,9670,5,0,0:0:0:0:
379,235,9831,5,0,0:0:0:0:
182,354,9992,5,0,0:0:0:0:
142,84,10315,5,0,0:0:0:0:
142,84,10396,1,0,0:0:0:0:
142,84,10476,2,0,B|164:155|131:268|131:268|238:180|224:270|324:187,1,400
426,30,11444,5,0,0:0:0:0:
322,188,11605,1,0,0:0:0:0:
322,188,11767,2,0,L|333:77,1,100
476,206,12089,2,0,L|467:306,2,100
389,370,12573,1,0,0:0:0:0:
235,155,12734,6,0,P|262:112|320:101,1,100
477,207,13057,1,0,0:0:0:0:
235,155,13218,2,0,P|262:112|320:101,1,100
415,220,13541,2,0,P|389:261|342:276,1,100
170,374,13863,6,0,P|200:332|341:339,1,200
459,363,14347,2,0,B|423:333|423:333|428:266,1,100
512,158,14670,1,0,0:0:0:0:
512,158,14831,1,0,0:0:0:0:
386,34,14992,1,0,0:0:0:0:
484,135,15154,1,0,0:0:0:0:
330,111,15315,5,0,0:0:0:0:
475,56,15476,1,0,0:0:0:0:
327,185,15638,6,0,L|167:160,1,150
224,307,15960,2,0,P|278:243|255:189,1,150
57,204,16283,6,0,L|110:202,1,50
164,346,16444,6,0,B|123:322|123:322|107:266,1,100
146,121,16767,6,0,P|148:74|114:26,2,100
16,227,17251,2,0,P|57:199|106:201,1,100
189,276,17573,1,0,0:0:0:0:
189,276,17734,1,0,0:0:0:0:
296,141,17896,6,0,B|315:94|315:94|290:39,1,100
73,13,18218,1,0,0:0:0:0:
296,141,18380,6,0,B|315:94|315:94|290:39,1,100
172,56,18702,2,0,B|152:102|152:102|177:157,1,100
331,281,19025,6,0,P|260:326|150:292,1,200
108,88,19509,1,0,0:0:0:0:
236,137,19670,1,0,0:0:0:0:
119,205,19831,1,0,0:0:0:0:
241,16,19992,1,0,0:0:0:0:
343,216,20154,1,0,0:0:0:0:
172,319,20476,5,0,0:0:0:0:
229,161,20638,1,0,0:0:0:0:
229,161,20799,1,0,0:0:0:0:
321,288,20960,1,0,0:0:0:0:
115,241,21121,1,0,0:0:0:0:
382,170,21283,1,0,0:0:0:0:
194,28,21605,6,0,B|159:74|159:74|174:186,1,150.000005722046
230,245,22089,1,0,0:0:0:0:
325,225,22251,1,0,0:0:0:0:
368,311,22412,6,0,L|454:348,1,75.0000028610231
443,243,22734,2,0,L|529:280,1,75.0000028610231
473,162,23057,6,0,B|394:128|412:201|329:162,1,150.000005722046
201,91,23541,5,0,0:0:0:0:
201,91,23621,1,0,0:0:0:0:
201,91,23702,1,0,0:0:0:0:
253,190,23863,1,0,0:0:0:0:
181,277,24025,1,0,0:0:0:0:
111,74,24186,6,0,B|79:114|79:114|51:192|122:172|81:264,1,200
29,328,24670,5,0,0:0:0:0:
129,377,24831,1,0,0:0:0:0:
260,284,24992,2,0,L|183:267,1,75.0000028610231
223,177,25315,2,0,L|146:160,1,75.0000028610231
17,89,25638,6,0,P|47:42|152:28,1,150.000005722046
280,88,26121,5,0,0:0:0:0:
280,88,26202,1,0,0:0:0:0:
280,88,26283,1,0,0:0:0:0:
398,141,26444,1,0,0:0:0:0:
240,205,26605,1,0,0:0:0:0:
376,328,26767,6,0,B|421:206|421:206|396:135,1,200
240,205,27251,1,0,0:0:0:0:
240,205,27412,1,0,0:0:0:0:
127,36,27573,1,0,0:0:0:0:
452,90,28057,6,0,B|385:50|306:79|306:79|352:122,1,200
455,206,28541,1,0,0:0:0:0:
455,206,28702,1,0,0:0:0:0:
245,218,28863,1,0,0:0:0:0:
87,345,29347,6,0,B|40:314|40:314|15:163,1,200
178,132,29831,1,0,0:0:0:0:
43,14,29992,1,0,0:0:0:0:
119,185,30154,2,0,P|209:204|253:111,1,200
218,0,30638,1,0,0:0:0:0:
18,160,30799,5,0,0:0:0:0:
99,312,30960,1,0,0:0:0:0:
170,78,31121,1,0,0:0:0:0:
251,230,31283,1,0,0:0:0:0:
427,41,31767,6,0,P|447:74|430:153,1,112.500004291535
425,172,32089,6,0,B|347:145|379:204|300:171,1,119.999996337891
209,110,32734,2,0,L|209:45,2,59.9999981689454
209,188,33218,1,0,0:0:0:0:
123,269,33380,2,0,P|76:289|1:266,1,119.999996337891
119,192,33863,2,0,P|62:175|6:196,1,119.999996337891
235,379,34589,6,0,P|258:350|233:269,1,119.999996337891
207,235,34992,2,0,P|196:202|208:175,1,59.9999981689454
250,116,35315,2,0,L|312:109,2,59.9999981689454
288,184,35799,2,0,B|383:173|383:173|418:195,1,119.999996337891
390,263,36283,2,0,P|444:259|480:193,1,119.999996337891
156,228,41121,6,0,L|140:328,1,100
32,384,41363,5,0,0:0:0:0:
32,384,41444,2,0,L|47:285,1,100
35,160,41686,5,0,0:0:0:0:
35,160,41767,2,0,B|75:125|75:125|129:124,2,100
235,305,42251,6,0,P|281:234|230:129,1,200
104,34,42734,5,0,0:0:0:0:
410,54,42896,1,0,0:0:0:0:
114,119,43057,5,0,0:0:0:0:
419,138,43219,1,0,0:0:0:0:
119,204,43380,5,0,0:0:0:0:
425,224,43542,1,0,0:0:0:0:
214,304,43702,5,0,0:0:0:0:
299,102,43863,1,0,0:0:0:0:
361,291,44025,5,0,0:0:0:0:
215,156,44186,1,0,0:0:0:0:
383,65,44347,6,0,L|396:156,2,75.0000028610231
234,329,44831,6,0,B|255:199|255:199|316:166,1,200
477,89,45315,5,0,0:0:0:0:
405,336,45476,1,0,0:0:0:0:
365,35,45638,5,0,0:0:0:0:
306,308,45799,1,0,0:0:0:0:
210,56,45960,5,0,0:0:0:0:
446,248,46121,1,0,0:0:0:0:
177,211,46283,5,0,0:0:0:0:
388,134,46444,1,0,0:0:0:0:
241,298,46605,5,0,0:0:0:0:
299,107,46767,1,0,0:0:0:0:
325,293,46928,6,0,L|314:216,2,75.0000028610231
450,134,47412,6,0,P|480:194|407:313,1,200
314,218,47896,1,0,0:0:0:0:
314,218,48057,1,0,0:0:0:0:
182,349,48218,1,0,0:0:0:0:
47,83,48702,6,0,B|84:176|11:152|50:239|50:239|76:207,1,200
154,109,49186,1,0,0:0:0:0:
154,109,49347,1,0,0:0:0:0:
248,269,49509,1,0,0:0:0:0:
26,326,49992,6,0,B|76:354|76:354|162:328|162:328|212:352,1,200
310,266,50476,1,0,0:0:0:0:
310,266,50638,1,0,0:0:0:0:
174,133,50799,6,0,P|119:121|74:139,2,100
269,186,51283,1,0,0:0:0:0:
375,123,51444,5,0,0:0:0:0:
208,77,51605,1,0,0:0:0:0:
330,290,51767,1,0,0:0:0:0:
163,244,51928,1,0,0:0:0:0:
400,355,52251,5,0,0:0:0:0:
405,337,52331,1,0,0:0:0:0:
409,318,52412,2,0,P|389:272|311:258,1,112.500004291535
322,260,52734,6,0,P|295:213|311:159,1,110.000003356934
500,71,53380,2,0,P|453:44|399:60,1,110.000003356934
439,131,53863,5,0,0:0:0:0:
400,204,54025,1,0,0:0:0:0:
357,131,54186,1,0,0:0:0:0:
325,204,54347,2,0,P|328:237|355:258,1,55.0000016784668
451,291,54670,2,0,P|393:278|350:310,1,110.000003356934
482,378,55315,6,0,L|492:257,1,110.000003356934
502,175,55799,1,0,0:0:0:0:
449,46,55960,2,0,P|419:94|431:160,1,110.000003356934
502,175,56444,1,0,0:0:0:0:
354,199,56605,5,0,0:0:0:0:
405,274,56767,1,0,0:0:0:0:
423,145,56928,1,0,0:0:0:0:
214,46,57251,6,0,L|314:35,1,82.5000025177003
332,58,57573,6,0,P|341:81|336:107,1,32.4999985122681
248,154,57734,6,0,P|237:195|219:207,1,37.5000014305115
57,91,57896,5,0,0:0:0:0:
69,69,57976,1,0,0:0:0:0:
86,51,58057,1,0,0:0:0:0:
108,39,58137,1,0,0:0:0:0:
132,33,58218,1,0,0:0:0:0:
157,34,58299,1,0,0:0:0:0:
181,42,58380,2,0,P|204:60|215:87,1,50
267,144,58542,5,0,0:0:0:0:
271,109,58622,1,0,0:0:0:0:
292,81,58703,1,0,0:0:0:0:
323,67,58783,1,0,0:0:0:0:
358,71,58864,1,0,0:0:0:0:
386,91,58945,1,0,0:0:0:0:
401,122,59026,2,0,P|403:160|391:175,1,50
381,271,59186,5,0,0:0:0:0:
364,245,59266,1,0,0:0:0:0:
342,225,59347,1,0,0:0:0:0:
316,211,59427,1,0,0:0:0:0:
287,204,59508,1,0,0:0:0:0:
257,205,59589,1,0,0:0:0:0:
228,213,59669,1,0,0:0:0:0:
203,228,59750,1,0,0:0:0:0:
182,249,59831,6,0,L|166:314,1,50
93,220,59992,2,0,L|77:285,1,50
0,111,60154,2,0,L|16:176,1,50
89,82,60315,2,0,L|105:147,1,50
93,220,60476,5,0,0:0:0:0:
141,208,60556,1,0,0:0:0:0:
187,226,60637,1,0,0:0:0:0:
216,266,60717,1,0,0:0:0:0:
218,315,60798,1,0,0:0:0:0:
193,357,60879,1,0,0:0:0:0:
148,378,60960,1,0,0:0:0:0:
163,331,61040,1,0,0:0:0:0:
199,298,61121,1,0,0:0:0:0:
248,286,61201,1,0,0:0:0:0:
295,300,61282,1,0,0:0:0:0:
329,334,61363,1,0,0:0:0:0:
364,369,61444,1,0,0:0:0:0:
411,383,61525,1,0,0:0:0:0:
459,371,61605,1,0,0:0:0:0:
495,338,61686,1,0,0:0:0:0:
433,90,61928,5,0,0:0:0:0:
248,132,62089,5,0,0:0:0:0:
291,318,62251,5,0,0:0:0:0:
476,275,62412,6,0,P|365:221|236:253,1,239.999992675781
19,25,63057,6,0,P|72:43|101:92,1,100
139,237,63380,1,0,0:0:0:0:
17,178,63541,1,0,0:0:0:0:
92,347,63702,1,0,0:0:0:0:
221,140,63863,1,0,0:0:0:0:
221,140,63944,1,0,0:0:0:0:
221,140,64025,2,0,L|237:243,1,100
356,342,64347,6,0,P|382:299|368:232,1,100
281,93,64670,1,0,0:0:0:0:
464,204,64831,1,0,0:0:0:0:
466,93,64992,1,0,0:0:0:0:
290,233,65154,1,0,0:0:0:0:
290,233,65234,1,0,0:0:0:0:
290,233,65315,2,0,P|264:276|278:343,1,100
341,120,65638,6,0,L|229:91,1,100
20,67,65960,1,0,0:0:0:0:
214,22,66121,1,0,0:0:0:0:
0,0,66283,1,0,0:0:0:0:
164,158,66444,1,0,0:0:0:0:
164,158,66525,1,0,0:0:0:0:
164,158,66605,2,0,L|276:187,1,100
450,331,66928,6,0,B|407:358|407:358|348:353,1,100
98,301,67251,1,0,0:0:0:0:
288,346,67412,1,0,0:0:0:0:
64,372,67573,1,0,0:0:0:0:
257,246,67734,1,0,0:0:0:0:
257,246,67815,1,0,0:0:0:0:
257,246,67896,2,0,L|372:225,1,100
116,100,68218,6,0,P|151:133|211:140,1,100
53,262,68541,2,0,P|88:229|148:222,1,100
167,49,68863,2,0,P|185:94|237:125,1,100
89,327,69186,2,0,P|110:284|164:257,1,100
362,300,69509,6,0,P|315:321|268:304,1,100
381,92,69831,2,0,P|371:142|330:171,1,100
318,329,70154,2,0,P|267:333|228:301,1,100
339,55,70476,2,0,P|347:106|318:147,1,100
295,158,70718,1,0,0:0:0:0:
295,158,70799,5,0,0:0:0:0:
115,303,70960,1,0,0:0:0:0:
166,66,71121,5,0,0:0:0:0:
205,347,71283,1,0,0:0:0:0:
261,36,71444,5,0,0:0:0:0:
328,328,71605,1,0,0:0:0:0:
357,7,71767,5,0,0:0:0:0:
452,310,71928,1,0,0:0:0:0:
443,121,72089,6,0,P|399:118|361:145,1,75.0000028610231
216,343,72251,2,0,P|240:306|236:259,1,75.0000028610231
130,30,72412,2,0,P|149:69|191:89,1,75.0000028610231
403,176,72573,2,0,P|335:129|262:152,1,150
205,227,72896,5,0,0:0:0:0:
205,227,72976,1,0,0:0:0:0:
205,227,73057,2,0,L|316:216,1,100
496,200,73380,5,0,0:0:0:0:
240,120,73541,1,0,0:0:0:0:
336,353,73702,5,0,0:0:0:0:
360,86,73863,1,0,0:0:0:0:
173,219,74025,5,0,0:0:0:0:
447,121,74186,1,0,0:0:0:0:
185,208,74347,5,0,0:0:0:0:
471,306,74509,1,0,0:0:0:0:
205,362,74670,5,0,0:0:0:0:
306,124,74831,1,0,0:0:0:0:
305,325,74992,5,0,0:0:0:0:
202,67,75154,1,0,0:0:0:0:
359,276,75315,5,0,0:0:0:0:
149,123,75476,1,0,0:0:0:0:
367,206,75638,5,0,0:0:0:0:
154,195,75799,1,0,0:0:0:0:
295,351,75960,6,0,L|303:298,1,50
325,88,76121,1,0,0:0:0:0:
188,332,76283,5,0,0:0:0:0:
118,35,76444,1,0,0:0:0:0:
30,287,76605,5,0,0:0:0:0:
119,49,76767,1,0,0:0:0:0:
183,313,76928,5,0,0:0:0:0:
119,63,77089,1,0,0:0:0:0:
9,341,77251,6,0,L|21:278,1,50
54,75,77412,1,0,0:0:0:0:
242,219,77573,5,0,0:0:0:0:
0,173,77734,1,0,0:0:0:0:
217,354,77896,5,0,0:0:0:0:
182,185,78057,1,0,0:0:0:0:
29,237,78218,5,0,0:0:0:0:
180,311,78380,1,0,0:0:0:0:
225,162,78541,6,0,L|213:296,1,129.999994049073
43,179,79186,6,0,P|111:161|167:193,1,129.999994049073
257,275,79670,1,0,0:0:0:0:
195,350,79831,1,0,0:0:0:0:
148,264,79992,1,0,0:0:0:0:
86,339,80154,6,0,P|45:298|41:225,1,112.500004291535
47,171,80476,6,0,L|211:125,1,150
241,86,80799,6,0,L|258:159,1,59.9999981689454
371,303,80960,2,0,L|384:244,1,59.9999981689454
491,119,81121,6,0,P|435:73|329:97,1,150.000005722046
211,193,81444,1,0,0:0:0:0:
314,253,81767,5,0,0:0:0:0:
211,193,81928,1,0,0:0:0:0:
211,313,82089,1,0,0:0:0:0:
34,208,82412,5,0,0:0:0:0:
99,308,82573,1,0,0:0:0:0:
178,350,82734,1,0,0:0:0:0:
237,356,82896,1,0,0:0:0:0:
370,313,83057,5,0,0:0:0:0:
328,117,83218,1,0,0:0:0:0:
180,251,83380,1,0,0:0:0:0:
379,185,83541,2,0,B|320:201|285:163|285:163|235:147|185:183,1,200
18,287,84025,6,0,L|32:178,1,100
45,89,84347,1,0,0:0:0:0:
113,270,84509,2,0,L|127:161,1,100
299,189,84831,6,0,P|227:140|124:172,1,200
64,245,85315,1,0,0:0:0:0:
64,245,85476,1,0,0:0:0:0:
161,364,85638,5,0,0:0:0:0:
154,289,85799,1,0,0:0:0:0:
229,282,85960,1,0,0:0:0:0:
235,357,86121,1,0,0:0:0:0:
417,233,86283,5,0,0:0:0:0:
426,134,86444,1,0,0:0:0:0:
326,125,86605,1,0,0:0:0:0:
318,225,86767,1,0,0:0:0:0:
64,214,86928,5,0,0:0:0:0:
42,90,87089,1,0,0:0:0:0:
165,69,87251,1,0,0:0:0:0:
187,192,87412,1,0,0:0:0:0:
442,207,87573,5,0,0:0:0:0:
481,62,87734,1,0,0:0:0:0:
336,24,87896,1,0,0:0:0:0:
298,169,88057,1,0,0:0:0:0:
149,375,88218,5,0,0:0:0:0:
72,85,88380,5,0,0:0:0:0:
362,8,88541,5,0,0:0:0:0:
439,298,88702,5,0,0:0:0:0:
