osu file format v14

[General]
AudioFilename: audio.mp3
AudioLeadIn: 0
PreviewTime: 52259
Countdown: 0
SampleSet: Soft
StackLeniency: 0.7
Mode: 0
LetterboxInBreaks: 0
WidescreenStoryboard: 0

[Editor]
DistanceSpacing: 2.4
BeatDivisor: 4
GridSize: 16
TimelineZoom: 1

[Metadata]
Title:happy endings (TV Size)
TitleUnicode:happy endings (TV Size)
Artist:Hanazawa Kana
ArtistUnicode:花澤香菜
Creator:Lilyanna
Version:Kirakira
Source:絶園のテンペスト
Tags:Zetsuen no tempest ed ending Japanese Anime Pentori Saya
BeatmapID:1983147
BeatmapSetID:949719

[Difficulty]
HPDrainRate:6
CircleSize:4.3
OverallDifficulty:6
ApproachRate:9
SliderMultiplier:1.6
SliderTickRate:1

[Events]
//Background and Video events
0,0,"fuwa_aika.jpg",0,0
//Break Periods
//Storyboard Layer 0 (Background)
//Storyboard Layer 1 (Fail)
//Storyboard Layer 2 (Pass)
//Storyboard Layer 3 (Foreground)
//Storyboard Sound Samples

[TimingPoints]
567,461.538461538462,4,2,0,60,1,0
7951,-166.666666666667,4,2,0,60,0,0
37490,-100,4,2,0,60,0,0
52259,-83.3333333333333,4,2,0,60,0,1
81797,-100,4,2,0,60,0,0
85490,-100,4,2,0,60,0,0
85951,-100,4,2,0,5,0,0

[Colours]
Combo1 : 255,231,155
Combo2 : 159,255,159
Combo3 : 252,180,247
Combo4 : 130,251,248

[HitObjects]
466,96,567,5,0,0:0:0:0:
250,36,1028,1,4,1:2:0:0:
313,194,1374,1,0,0:0:0:0:
313,194,1490,2,0,P|352:141|354:111,1,80,0|0,1:0|0:0,0:0:0:0:
223,177,1951,1,0,1:0:0:0:
223,177,2067,2,0,P|222:228|223:231,2,40,0|0|0,1:0|0:0|0:0,0:0:0:0:
262,281,2413,6,0,P|190:253|128:281,1,120,4|0,2:1|0:0,0:0:0:0:
79,296,2874,1,2,1:2:0:0:
127,143,3105,1,2,0:0:0:0:
199,331,3336,1,2,0:0:0:0:
23,101,3567,1,2,0:0:0:0:
124,364,3797,1,0,1:0:0:0:
275,107,4028,6,0,P|274:148|248:187,1,80,2|0,0:0|0:0,0:0:0:0:
366,23,4490,2,0,P|389:55|432:73,1,80,2|0,0:0|1:0,0:0:0:0:
345,247,4951,1,2,0:0:0:0:
460,148,5182,2,0,P|438:200|449:238,1,80,2|2,0:2|0:2,0:0:0:0:
235,316,5643,2,0,P|249:279|240:240,1,80,2|0,1:2|0:0,0:0:0:0:
54,271,6105,6,0,B|120:248|120:294|190:266,1,120,2|0,3:0|0:0,0:0:0:0:
241,242,6567,1,2,1:2:0:0:
354,130,6797,1,2,0:0:0:0:
282,318,7028,1,2,0:0:0:0:
458,88,7259,1,2,0:0:0:0:
357,351,7489,1,0,1:0:0:0:
213,161,7720,2,0,P|214:136|227:111,1,40,2|0,0:0|0:0,0:0:0:0:
190,163,7951,6,0,P|186:112|67:64,1,191.999994140625,4|0,1:0|0:0,0:0:0:0:
95,155,9105,1,0,0:0:0:0:
264,46,9336,1,0,0:0:0:0:
262,235,9567,1,0,0:0:0:0:
404,92,9797,6,0,P|420:143|443:164,1,71.9999978027344,2|0,3:0|0:0,0:0:0:0:
493,205,10259,1,2,0:2:0:0:
403,305,10490,2,0,P|387:254|378:241,1,47.9999985351563,2|0,0:2|0:0,0:0:0:0:
493,205,10951,1,0,0:0:0:0:
325,140,11182,1,0,0:0:0:0:
257,293,11412,1,0,0:0:0:0:
151,190,11643,6,0,P|135:139|112:118,1,71.9999978027344,2|0,3:0|0:0,0:0:0:0:
64,73,12105,1,0,1:0:0:0:
218,38,12336,2,0,P|208:59|205:83,1,47.9999985351563
298,189,12797,1,0,0:0:0:0:
148,242,13028,1,0,1:0:0:0:
80,89,13258,1,0,0:0:0:0:
320,210,13490,6,0,P|302:255|302:276,1,47.9999985351563,2|0,3:0|0:0,0:0:0:0:
339,354,13951,1,0,1:0:0:0:
420,176,14182,1,0,0:0:0:0:
400,281,14413,2,0,P|448:277|467:268,1,47.9999985351563,0|0,0:0|0:0,0:0:0:0:
420,176,14874,1,0,1:0:0:0:
339,354,15105,1,0,0:0:0:0:
232,280,15336,6,0,P|151:250|149:250,1,71.9999978027344,2|0,3:0|0:0,0:0:0:0:
90,243,15797,1,0,1:0:0:0:
169,145,16028,2,0,P|209:144|229:140,1,47.9999985351563,2|0,0:0|0:0,0:0:0:0:
331,56,16490,1,0,0:0:0:0:
278,206,16721,1,0,1:0:0:0:
431,274,16951,1,0,0:0:0:0:
227,332,17182,6,0,P|175:321|141:330,1,71.9999978027344,2|0,3:0|0:0,0:0:0:0:
82,343,17643,1,2,0:2:0:0:
65,206,17874,2,0,P|69:240|65:263,1,47.9999985351563,2|0,0:2|0:0,0:0:0:0:
20,116,18336,1,0,0:0:0:0:
170,169,18567,1,0,1:0:0:0:
238,16,18797,1,0,0:0:0:0:
323,93,19028,6,0,P|339:144|362:165,1,71.9999978027344,2|0,3:0|0:0,0:0:0:0:
416,201,19490,1,0,1:0:0:0:
322,306,19721,2,0,P|306:255|297:242,1,47.9999985351563,2|0,0:0|0:0,0:0:0:0:
416,201,20182,1,0,0:0:0:0:
244,141,20413,1,0,1:0:0:0:
193,281,20643,6,0,L|140:290,1,47.9999985351563,0|2,0:0|3:0,0:0:0:0:
46,229,21105,1,0,0:0:0:0:
53,113,21336,1,0,1:0:0:0:
155,165,21567,1,0,0:0:0:0:
153,50,21797,1,0,0:0:0:0:
220,251,22028,1,0,0:0:0:0:
36,120,22259,1,0,1:0:0:0:
237,267,22490,1,0,0:0:0:0:
426,88,22720,6,0,P|400:132|392:161,1,71.9999978027344,4|0,1:0|0:0,0:0:0:0:
332,239,23182,2,0,P|319:205|299:175,1,71.9999978027344,4|0,1:0|0:0,0:0:0:0:
246,116,23643,1,2,3:0:0:0:
169,202,23874,1,0,0:0:0:0:
111,50,24105,1,0,0:0:0:0:
53,292,24336,1,0,0:0:0:0:
248,306,24567,6,0,P|299:322|320:345,1,71.9999978027344,2|0,3:0|0:0,0:0:0:0:
378,375,25029,1,2,1:2:0:0:
439,278,25260,2,0,P|455:227|464:214,1,47.9999985351563,2|0,0:2|0:0,0:0:0:0:
495,125,25721,1,0,0:0:0:0:
391,19,25952,1,0,1:0:0:0:
301,201,26182,1,0,0:0:0:0:
109,93,26413,6,0,P|160:77|181:54,1,71.9999978027344,2|0,3:0|0:0,0:0:0:0:
239,23,26875,1,0,1:0:0:0:
330,75,27106,2,0,P|346:126|355:139,1,47.9999985351563,2|0,0:0|0:0,0:0:0:0:
291,223,27567,1,0,0:0:0:0:
158,157,27798,1,0,1:0:0:0:
212,354,28028,1,0,0:0:0:0:
91,293,28260,6,0,P|73:248|73:227,1,47.9999985351563,2|0,3:0|0:0,0:0:0:0:
158,157,28721,2,0,P|151:180|140:200,1,47.9999985351563,0|0,1:0|0:0,0:0:0:0:
200,79,29183,2,0,P|248:82|267:91,1,47.9999985351563
357,115,29644,1,0,1:0:0:0:
450,47,29875,1,0,0:0:0:0:
450,246,30106,6,0,P|369:216|367:216,1,71.9999978027344,2|0,3:0|0:0,0:0:0:0:
308,205,30567,1,2,1:2:0:0:
235,273,30798,2,0,P|275:274|295:278,1,47.9999985351563,2|0,0:0|0:0,0:0:0:0:
362,359,31260,1,0,0:0:0:0:
234,184,31491,1,0,1:0:0:0:
125,343,31721,1,0,0:0:0:0:
43,116,31952,6,0,P|50:167|45:202,1,71.9999978027344,2|0,3:0|0:0,0:0:0:0:
9,254,32413,1,2,1:2:0:0:
140,259,32644,2,0,P|174:255|197:259,1,47.9999985351563,2|0,0:2|0:0,0:0:0:0:
277,329,33106,1,0,0:0:0:0:
234,184,33337,1,0,1:0:0:0:
180,370,33567,1,0,0:0:0:0:
358,245,33798,6,0,P|379:194|397:173,1,71.9999978027344,2|0,3:0|0:0,0:0:0:0:
436,119,34259,2,0,P|413:110|390:105,1,47.9999985351563,0|0,1:0|0:0,0:0:0:0:
274,36,34720,1,0,0:0:0:0:
136,181,34952,1,0,0:0:0:0:
287,191,35183,1,0,1:0:0:0:
89,52,35413,1,0,0:0:0:0:
202,224,35643,6,0,P|175:262|164:298,1,71.9999978027344,4|0,1:0|0:0,0:0:0:0:
175,364,36105,1,0,1:0:0:0:
392,269,36336,1,0,0:0:0:0:
302,196,36567,2,0,P|312:174|321:152,1,47.9999985351563,0|0,0:0|0:0,0:0:0:0:
259,54,37028,1,0,1:0:0:0:
259,54,37143,1,0,1:0:0:0:
259,54,37259,1,0,1:0:0:0:
161,219,37490,6,0,P|144:142|149:83,1,120,4|0,0:2|0:0,0:0:0:0:
64,40,37951,2,0,P|51:97|38:130,1,80,0|0,1:0|0:0,0:0:0:0:
259,54,38413,1,0,0:0:0:0:
333,214,38643,2,0,P|320:176|312:136,1,80,0|0,0:0|1:0,0:0:0:0:
234,313,39105,6,0,P|164:308|148:310,1,80,0|0,0:0|0:0,0:0:0:0:
56,142,39567,2,0,P|109:96|118:83,1,80,0|0,0:0|1:0,0:0:0:0:
296,24,40028,2,0,P|337:80|348:91,1,80,0|0,0:0|0:0,0:0:0:0:
417,262,40490,2,0,P|347:250|331:251,1,80,0|0,0:0|1:0,0:0:0:0:
155,215,40951,6,0,P|208:169|222:162,1,80,0|0,0:0|0:0,0:0:0:0:
407,134,41413,1,0,0:0:0:0:
211,25,41643,2,0,B|246:56|259:88,1,80,0|0,1:0|0:0,0:0:0:0:
157,321,42105,2,0,B|195:286|205:257,1,80,0|0,0:0|0:0,0:0:0:0:
15,294,42567,1,0,1:0:0:0:
200,81,42797,6,0,B|161:115|151:144,1,80,2|0,0:2|0:0,0:0:0:0:
278,316,43259,1,2,0:2:0:0:
79,51,43490,2,0,B|59:98|63:128,1,80,2|2,1:2|0:2,0:0:0:0:
66,292,43951,1,0,0:2:0:0:
59,266,44067,1,0,0:0:0:0:
51,237,44182,1,0,0:0:0:0:
189,369,44413,1,2,1:2:0:0:
80,148,44643,1,0,0:0:0:0:
248,239,44874,6,0,P|298:217|363:238,1,120,2|0,3:0|0:0,0:0:0:0:
435,80,45336,2,0,P|412:124|408:164,1,80,0|0,1:0|0:0,0:0:0:0:
306,307,45797,1,0,0:0:0:0:
210,71,46028,2,0,P|214:120|209:163,1,80,0|0,0:0|1:0,0:0:0:0:
68,241,46490,6,0,P|101:205|142:192,1,80,0|0,0:0|0:0,0:0:0:0:
306,307,46951,2,0,P|273:343|232:356,1,80,0|0,0:0|1:0,0:0:0:0:
410,201,47413,2,0,P|443:237|484:250,1,80,0|0,0:0|0:0,0:0:0:0:
311,123,47874,2,0,P|267:144|224:142,1,80,0|0,0:0|1:0,0:0:0:0:
415,71,48336,1,0,0:0:0:0:
220,248,48567,6,0,P|180:225|87:227,1,120,4|0,1:0|0:0,0:0:0:0:
29,240,49028,1,0,1:0:0:0:
91,83,49259,1,2,0:0:0:0:
72,305,49490,1,2,0:0:0:0:
168,110,49721,1,2,0:0:0:0:
126,359,49951,1,0,1:0:0:0:
11,48,50182,1,2,0:0:0:0:
336,119,50413,5,2,3:0:0:0:
336,119,50874,2,0,P|310:169|302:220,1,80,4|0,1:2|0:0,0:0:0:0:
219,236,51220,1,0,3:0:0:0:
219,236,51336,1,0,1:0:0:0:
408,202,51567,1,0,0:0:0:0:
193,71,51797,1,0,1:0:0:0:
187,99,51913,1,0,1:0:0:0:
188,128,52028,1,0,1:0:0:0:
41,317,52259,6,0,P|87:327|141:357,1,95.9999970703126
363,207,52720,2,0,P|300:207|250:186,1,95.9999970703126,0|0,1:0|0:0,0:0:0:0:
88,51,53182,1,0,0:0:0:0:
88,51,53413,2,0,P|126:93|145:133,1,95.9999970703126,0|0,0:0|1:0,0:0:0:0:
50,339,53874,6,0,P|72:296|105:262,1,95.9999970703126,2|0,0:2|0:0,0:0:0:0:
336,246,54336,2,0,P|281:260|243:283,1,95.9999970703126,2|0,0:2|1:0,0:0:0:0:
338,73,54797,1,2,0:2:0:0:
338,73,55028,2,0,P|283:59|245:36,1,95.9999970703126,2|0,0:0|0:0,0:0:0:0:
42,143,55490,2,0,L|163:144,1,95.9999970703126,2|0,1:2|0:0,0:0:0:0:
327,330,55951,6,0,P|290:272|312:188,1,143.999995605469,2|0,3:0|0:0,0:0:0:0:
266,76,56413,2,0,P|252:130|206:168,1,95.9999970703126,0|0,1:0|0:0,0:0:0:0:
31,284,56874,1,0,0:0:0:0:
31,284,57105,2,0,P|89:261|152:284,1,95.9999970703126,0|0,0:0|1:0,0:0:0:0:
340,339,57567,1,0,0:0:0:0:
393,115,57797,6,0,P|347:162|339:244,1,143.999995605469,0|0,0:0|0:0,0:0:0:0:
225,268,58259,2,0,P|190:195|163:178,1,95.9999970703126,0|0,1:1|0:0,0:0:0:0:
326,9,58720,2,0,P|293:44|280:89,1,95.9999970703126,0|0,0:0|0:1,0:0:0:0:
131,263,59182,1,0,1:0:0:0:
372,86,59413,1,0,0:0:0:0:
142,74,59643,5,2,3:0:0:0:
279,191,59874,1,2,0:0:0:0:
312,23,60105,1,0,1:0:0:0:
293,225,60336,1,2,0:0:0:0:
56,58,60567,1,2,0:0:0:0:
56,58,61028,5,4,1:2:0:0:
274,236,61259,1,2,0:0:0:0:
107,277,61490,1,2,3:0:0:0:
308,248,61721,1,2,0:0:0:0:
129,21,61952,1,0,1:0:0:0:
129,21,62413,2,0,P|199:48|236:49,2,95.9999970703126,0|0|0,0:0|0:0|1:0,0:0:0:0:
358,40,63105,1,0,0:0:0:0:
358,40,63336,6,0,P|355:104|362:148,1,95.9999970703126,2|0,3:0|0:0,0:0:0:0:
166,262,63797,2,0,P|212:253|260:259,1,95.9999970703126,0|0,1:0|0:0,0:0:0:0:
118,76,64259,2,0,P|126:122|120:170,1,95.9999970703126,0|0,0:0|0:0,0:0:0:0:
232,42,64720,1,0,1:0:0:0:
232,42,64951,6,0,P|254:84|289:116,1,95.9999970703126,0|0,0:0|0:0,0:0:0:0:
54,229,65413,1,4,0:2:0:0:
349,186,65643,1,0,1:0:0:0:
80,351,65874,2,0,P|102:308|137:276,1,95.9999970703126,4|0,0:2|0:0,0:0:0:0:
440,205,66336,2,0,P|417:247|382:279,1,95.9999970703126,4|0,0:2|1:0,0:0:0:0:
360,49,66797,1,0,1:0:0:0:
349,78,66913,1,0,1:0:0:0:
339,107,67028,6,0,P|289:95|237:109,1,95.9999970703126,2|0,3:0|0:0,0:0:0:0:
31,191,67490,2,0,P|77:200|123:188,1,95.9999970703126,4|0,1:2|0:0,0:0:0:0:
285,352,67951,1,0,0:0:0:0:
285,352,68182,2,0,P|286:266|293:241,1,95.9999970703126,0|0,0:0|1:0,0:0:0:0:
397,53,68643,6,0,P|403:100|400:148,1,95.9999970703126,2|0,0:2|0:0,0:0:0:0:
174,144,69105,2,0,P|239:130|278:131,1,95.9999970703126,2|0,0:2|1:0,0:0:0:0:
43,74,69567,1,2,0:2:0:0:
43,74,69797,2,0,P|60:129|30:221,1,143.999995605469,2|0,0:2|0:0,0:0:0:0:
114,297,70259,2,0,P|172:267|239:279,1,95.9999970703126,2|0,1:2|0:0,0:0:0:0:
422,291,70720,5,0,0:0:0:0:
439,102,70951,1,0,0:0:0:0:
402,329,71182,1,0,1:0:0:0:
329,55,71413,1,0,0:0:0:0:
366,343,71643,1,0,0:0:0:0:
230,35,71874,2,0,P|174:45|127:44,1,95.9999970703126,0|0,0:0|1:0,0:0:0:0:
58,263,72336,1,0,0:0:0:0:
58,263,72567,6,0,P|68:193|54:152,1,95.9999970703126,2|0,3:0|0:0,0:0:0:0:
276,253,73028,2,0,P|268:300|279:346,1,95.9999970703126,0|0,1:0|0:0,0:0:0:0:
375,135,73490,1,0,0:0:0:0:
176,249,73720,1,0,0:0:0:0:
276,131,73951,2,0,P|268:83|279:37,1,95.9999970703126,0|0,1:0|0:0,0:0:0:0:
291,268,74413,5,2,3:0:0:0:
189,119,74644,1,0,0:1:0:0:
359,104,74875,1,0,1:0:0:0:
156,102,75106,1,0,0:1:0:0:
298,355,75337,1,0,0:1:0:0:
298,355,75798,5,4,1:2:0:0:
143,120,76029,1,0,0:0:0:0:
92,282,76260,1,2,3:0:0:0:
135,85,76491,1,0,0:0:0:0:
342,286,76720,1,0,1:0:0:0:
342,286,77182,2,0,P|334:225|395:165,1,143.999995605469,4|0,0:2|0:0,0:0:0:0:
357,56,77643,2,0,P|317:94|260:107,1,95.9999970703126,4|0,1:2|0:0,0:0:0:0:
108,157,78105,5,2,3:0:0:0:
247,291,78336,1,0,0:0:0:0:
278,106,78567,1,0,1:0:0:0:
261,325,78798,1,0,0:0:0:0:
18,100,79029,1,0,1:0:0:0:
18,100,79490,5,4,1:2:0:0:
169,318,79721,1,0,0:0:0:0:
7,203,79952,1,2,3:0:0:0:
187,349,80183,1,0,0:0:0:0:
274,102,80414,1,0,1:0:0:0:
386,301,80643,5,0,3:0:0:0:
386,301,80759,1,0,3:0:0:0:
386,301,80874,1,0,3:0:0:0:
133,58,81105,1,0,1:0:0:0:
133,88,81220,1,0,1:0:0:0:
136,124,81336,1,0,1:0:0:0:
137,154,81451,1,0,1:0:0:0:
137,184,81566,1,0,1:0:0:0:
140,220,81682,1,0,1:0:0:0:
142,251,81797,6,0,P|203:227|280:261,1,120,2|0,3:0|0:0,0:0:0:0:
322,291,82259,1,2,1:2:0:0:
249,144,82490,1,2,0:0:0:0:
309,321,82720,1,2,0:0:0:0:
347,83,82951,1,2,0:0:0:0:
286,338,83182,1,0,1:0:0:0:
235,33,83413,6,0,P|179:43|153:72,1,80,2|0,0:0|0:0,0:0:0:0:
27,122,83874,2,0,P|64:164|102:172,1,80,2|0,0:0|1:0,0:0:0:0:
273,126,84336,1,2,0:0:0:0:
204,232,84567,2,0,P|182:284|193:322,1,80,2|2,0:2|0:2,0:0:0:0:
359,158,85028,2,0,P|396:146|420:114,1,80,2|0,1:2|0:0,0:0:0:0:
256,192,85490,12,0,87797,0:0:0:0:
