osu file format v14

[General]
AudioFilename: audio.mp3
AudioLeadIn: 0
PreviewTime: 59513
Countdown: 0
SampleSet: Soft
StackLeniency: 0.1
Mode: 0
LetterboxInBreaks: 0
WidescreenStoryboard: 1

[Editor]
Bookmarks: 7129,9552,21667,39898,43590,43821,58360,58475,73937,80975,81090,174898,179629,181244,185744,196129,199129,199590,223744,224744,225206,251975
DistanceSpacing: 1.8
BeatDivisor: 4
GridSize: 4
TimelineZoom: 2.1

[Metadata]
Title:happy endings
TitleUnicode:happy endings
Artist:Hanazawa Kana
ArtistUnicode:花澤香菜
Creator:IWEJ
Version:insane
Source:絶園のテンペスト
Tags:zetsuen no tempest blast of ed ending japanese pop anime
BeatmapID:3564038
BeatmapSetID:1743401

[Difficulty]
HPDrainRate:5
CircleSize:5
OverallDifficulty:8
ApproachRate:7.5
SliderMultiplier:1.6
SliderTickRate:1

[Events]
//Background and Video events
0,0,"bg.jpg",0,0
//Break Periods
//Storyboard Layer 0 (Background)
//Storyboard Layer 1 (Fail)
//Storyboard Layer 2 (Pass)
//Storyboard Layer 3 (Foreground)
//Storyboard Layer 4 (Overlay)
//Storyboard Sound Samples

[TimingPoints]
437,461.538461538462,4,2,1,70,1,0
15206,-100,4,2,2,60,0,0
16360,-125,4,2,1,60,0,0
17052,-125,4,2,1,60,0,0
31129,-111.111111111111,4,2,1,60,0,0
31821,-111.111111111111,4,2,1,70,0,0
44744,-100,4,2,1,70,0,0
54667,-95.2380952380952,4,2,1,70,0,0
55129,-90.9090909090909,4,2,1,70,0,0
55821,-100,4,2,1,70,0,0
58129,-100,4,2,1,70,0,0
59513,-83.3333333333333,4,2,1,75,0,1
73821,-83.3333333333333,4,2,1,55,0,1
74052,-83.3333333333333,4,2,1,75,0,1
84437,-76.9230769230769,4,2,1,75,0,1
84898,-71.4285714285714,4,2,1,75,0,1
88129,-71.4285714285714,4,2,1,75,0,1
89052,-100,4,2,1,65,0,0
94590,-100,4,2,1,55,0,0
95744,-125,4,2,1,65,0,0
96437,-125,4,2,2,50,0,0
110513,-125,4,2,2,60,0,0
111206,-111.111111111111,4,2,1,70,0,0
124129,-100,4,2,1,70,0,0
134052,-95.2380952380952,4,2,1,70,0,0
134513,-90.9090909090909,4,2,1,70,0,0
134975,-100,4,2,1,70,0,0
137052,-83.3333333333333,4,2,1,75,0,1
151360,-83.3333333333333,4,2,1,55,0,1
151590,-83.3333333333333,4,2,1,75,0,1
161975,-76.9230769230769,4,2,1,75,0,1
162437,-71.4285714285714,4,2,1,75,0,1
166590,-100,4,2,1,70,0,0
166937,-100,4,2,1,70,0,0
181360,-100,4,2,1,50,0,0
181590,-100,4,2,1,70,0,0
195437,-100,4,2,1,70,0,0
210898,-100,4,2,1,70,0,0
214590,-83.3333333333333,4,2,1,75,0,1
235821,-76.9230769230769,4,2,1,75,0,1
236283,-71.4285714285714,4,2,1,75,0,1
240437,-100,4,2,1,70,0,0
253360,-90.9090909090909,4,2,2,70,0,0
255206,-166.666666666667,4,2,2,60,0,0

[Colours]
Combo1 : 244,149,108
Combo2 : 164,52,231
Combo3 : 237,46,65
Combo4 : 240,43,166
Combo5 : 239,102,44
Combo6 : 192,115,238
Combo7 : 242,111,123
Combo8 : 244,108,193

[HitObjects]
136,193,437,69,8,0:3:0:0:
90,22,898,1,4,0:0:0:0:
8,150,1244,5,8,0:0:0:0:
10,140,1360,1,8,0:0:0:0:
160,122,1590,1,8,0:3:0:0:
65,249,1821,1,8,0:0:0:0:
59,229,1937,1,8,0:0:0:0:
54,210,2052,1,8,0:3:0:0:
47,338,2283,6,0,P|99:364|157:352,1,120,4|0,0:0|0:0,0:0:0:0:
218,311,2744,2,0,L|222:255,1,40,10|0,0:0|0:0,0:0:0:0:
294,257,2975,1,8,0:3:0:0:
183,187,3206,1,8,0:3:0:0:
309,160,3437,1,0,0:0:0:0:
183,187,3667,1,8,0:0:0:0:
338,73,3898,6,0,P|302:55|263:56,1,80,2|8,0:0|0:3,0:0:0:0:
473,43,4360,2,0,P|437:25|398:26,1,80,2|8,0:0|0:0,0:0:0:0:
338,73,4821,1,10,0:3:0:0:
449,134,5052,70,0,L|452:173,1,40,10|0,0:3|0:0,0:0:0:0:
425,283,5283,2,0,L|421:243,1,40,2|0,0:0|0:0,0:0:0:0:
449,134,5513,2,0,L|452:173,1,40,10|0,0:0|0:0,0:0:0:0:
425,283,5744,2,0,L|421:243,1,40,2|0,0:0|0:0,0:0:0:0:
321,217,5975,1,8,0:3:0:0:
150,192,6437,6,0,L|146:152,1,40,10|0,0:0|0:0,0:0:0:0:
82,218,6667,1,8,0:3:0:0:
219,256,6898,1,8,0:3:0:0:
134,337,7129,1,2,0:0:0:0:
150,192,7360,1,8,0:0:0:0:
306,305,7590,6,0,P|323:340|320:379,1,80,2|8,0:0|0:3,0:0:0:0:
400,286,8052,2,0,P|396:325|414:360,1,80,2|8,0:0|0:0,0:0:0:0:
306,305,8513,1,10,0:3:0:0:
480,232,8744,2,0,P|421:181|348:205,2,160,10|8|8,0:3|0:0|0:3,0:0:0:0:
300,69,10129,6,0,L|260:73,1,40,10|0,0:0|0:0,0:0:0:0:
208,128,10360,1,8,0:3:0:0:
63,92,10590,2,0,P|56:52|69:14,1,80,8|0,0:3|0:0,0:0:0:0:
128,136,11052,1,8,0:0:0:0:
265,227,11283,70,0,P|229:243|190:240,1,80,2|8,0:0|0:3,0:0:0:0:
41,237,11744,2,0,P|76:220|115:223,1,80,2|8,0:0|0:0,0:0:0:0:
41,237,12206,1,2,0:0:0:0:
39,355,12437,6,0,L|79:351,1,40,10|0,0:3|0:0,0:0:0:0:
141,384,12667,2,0,L|181:380,1,40,10|0,0:3|0:0,0:0:0:0:
272,323,12898,2,0,L|232:327,1,40,10|0,0:0|0:0,0:0:0:0:
181,380,13129,2,0,L|141:384,1,40,10|0,0:3|0:0,0:0:0:0:
39,355,13360,1,8,0:3:0:0:
191,221,13821,6,0,L|195:181,1,40,10|0,0:0|0:0,0:0:0:0:
150,122,14052,1,8,0:3:0:0:
316,86,14283,1,8,0:3:0:0:
201,58,14513,2,0,L|161:49,2,40,8|8|8,0:3|0:3|0:0,0:0:0:0:
316,86,14975,1,2,0:0:0:0:
294,238,15206,6,0,B|277:267|280:341|339:316|367:357|367:357|370:308|434:299|400:234|371:217,1,320,4|0,0:0|0:0,0:0:0:0:
311,159,16360,69,2,0:0:0:0:
240,171,16590,1,2,0:0:0:0:
169,184,16821,1,2,0:0:0:0:
105,294,17052,6,0,P|91:322|97:353,1,64,4|0,0:0|0:0,0:0:0:0:
173,300,17513,1,8,0:0:0:0:
166,360,17744,2,0,P|179:331|173:300,1,64,8|8,0:3|0:3,0:0:0:0:
42,255,18206,5,2,0:0:0:0:
29,184,18437,1,10,0:0:0:0:
17,113,18667,1,2,0:0:0:0:
96,19,18898,6,0,P|156:2|213:29,1,128,8|8,0:3|0:0,0:0:0:0:
182,94,19590,1,8,0:3:0:0:
182,94,19821,1,8,0:3:0:0:
198,201,20052,69,2,0:0:0:0:
269,188,20283,1,10,0:0:0:0:
340,175,20513,2,0,P|367:189|399:187,1,64,2|8,0:0|0:3,0:0:0:0:
472,101,20975,5,2,0:0:0:0:
447,34,21206,1,8,0:0:0:0:
377,22,21437,1,10,0:3:0:0:
308,9,21667,1,8,0:3:0:0:
377,22,21898,1,2,0:0:0:0:
447,34,22129,1,10,0:0:0:0:
472,101,22360,1,2,0:0:0:0:
504,200,22590,6,0,L|493:288,1,64,8|0,0:3|0:0,0:0:0:0:
448,345,23052,1,8,0:0:0:0:
508,337,23283,2,0,P|479:349|448:345,1,64,8|8,0:3|0:3,0:0:0:0:
360,246,23744,5,2,0:0:0:0:
289,258,23975,1,10,0:0:0:0:
218,271,24206,1,2,0:0:0:0:
130,375,24437,70,0,P|98:369|76:346,1,64,8|0,0:3|0:0,0:0:0:0:
117,221,24898,1,8,0:0:0:0:
113,285,25129,2,0,L|118:221,1,64,10|8,0:3|0:3,0:0:0:0:
25,128,25590,5,2,0:0:0:0:
96,140,25821,1,10,0:0:0:0:
167,153,26052,1,2,0:0:0:0:
259,260,26283,6,0,P|273:232|268:201,1,64,8|0,0:3|0:0,0:0:0:0:
259,260,26744,1,8,0:0:0:0:
239,134,26975,2,0,P|233:103|248:75,1,64,8|8,0:3|0:3,0:0:0:0:
330,28,27437,5,2,0:0:0:0:
401,40,27667,1,10,0:0:0:0:
472,56,27898,2,0,P|487:83|485:115,1,64,2|8,0:0|0:3,0:0:0:0:
388,202,28360,69,2,0:0:0:0:
322,177,28590,1,8,0:0:0:0:
256,152,28821,1,10,0:3:0:0:
276,84,29052,1,8,0:3:0:0:
256,152,29283,1,2,0:0:0:0:
190,177,29513,1,8,0:0:0:0:
124,202,29744,1,2,0:0:0:0:
58,227,29975,5,8,0:3:0:0:
454,227,30437,1,12,0:0:0:0:
58,227,30898,1,8,0:3:0:0:
9,339,31129,5,2,0:0:0:0:
87,351,31360,1,10,0:3:0:0:
166,365,31590,1,2,0:0:0:0:
259,286,31821,6,0,P|290:269|325:273,1,71.9999978027344,4|0,0:0|0:0,0:0:0:0:
336,344,32283,1,8,0:0:0:0:
270,357,32513,2,0,P|305:361|336:344,1,71.9999978027344,8|8,0:3|0:3,0:0:0:0:
462,360,32975,69,2,0:0:0:0:
474,282,33206,1,10,0:0:0:0:
488,203,33437,1,2,0:0:0:0:
384,136,33667,6,0,L|390:207,1,71.9999978027344,8|0,0:3|0:0,0:0:0:0:
307,157,34129,1,8,0:0:0:0:
390,207,34360,2,0,L|396:278,1,71.9999978027344,8|8,0:3|0:3,0:0:0:0:
462,148,34821,5,2,0:0:0:0:
384,136,35052,1,10,0:0:0:0:
305,122,35283,2,0,P|283:94|281:58,1,71.9999978027344,2|8,0:0|0:3,0:0:0:0:
374,0,35744,2,0,P|395:27|397:63,1,71.9999978027344,2|8,0:0|0:0,0:0:0:0:
384,136,36206,1,10,0:3:0:0:
397,63,36437,1,10,0:3:0:0:
475,75,36667,1,2,0:0:0:0:
462,148,36898,1,8,0:0:0:0:
384,136,37129,1,2,0:0:0:0:
267,162,37360,6,0,P|232:158|201:174,1,71.9999978027344,8|0,0:3|0:0,0:0:0:0:
80,239,37821,1,8,0:0:0:0:
147,229,38052,2,0,P|111:223|80:239,1,71.9999978027344,8|8,0:3|0:3,0:0:0:0:
17,159,38513,69,2,0:0:0:0:
29,81,38744,1,10,0:0:0:0:
43,2,38975,1,2,0:0:0:0:
154,77,39206,6,0,L|166:147,1,71.9999978027344,8|0,0:3|0:0,0:0:0:0:
259,26,39667,1,10,0:0:0:0:
193,12,39898,2,0,P|228:9|259:26,1,71.9999978027344,8|8,0:3|0:3,0:0:0:0:
242,162,40360,5,2,0:0:0:0:
320,150,40590,1,10,0:0:0:0:
399,136,40821,1,2,0:0:0:0:
471,62,41052,6,0,P|412:22|343:35,1,143.999995605469,8|8,0:3|0:0,0:0:0:0:
461,221,41975,69,10,0:3:0:0:
498,150,42206,1,2,0:0:0:0:
461,221,42437,1,10,0:0:0:0:
382,205,42667,1,2,0:0:0:0:
250,194,42898,6,0,L|181:173,1,71.9999978027344,4|0,0:0|0:0,0:0:0:0:
136,106,43360,1,10,0:0:0:0:
98,233,43590,1,8,0:3:0:0:
26,114,43821,5,8,0:0:0:0:
31,94,43937,1,8,0:0:0:0:
36,75,44052,1,8,0:0:0:0:
41,56,44167,1,8,0:0:0:0:
75,34,44283,5,8,0:3:0:0:
77,43,44398,1,0,0:3:0:0:
80,53,44513,1,8,0:3:0:0:
82,62,44629,1,0,0:3:0:0:
102,87,44744,70,0,P|140:96|177:83,1,80,4|0,0:0|0:0,0:0:0:0:
263,17,45206,2,0,P|299:31|318:65,1,80,10|8,0:0|0:3,0:0:0:0:
285,185,45667,1,10,0:3:0:0:
255,102,45898,2,0,P|279:71|318:65,1,80,2|8,0:0|0:0,0:0:0:0:
434,93,46360,6,0,P|454:59|449:20,1,80,2|8,0:0|0:3,0:0:0:0:
419,165,46821,2,0,P|414:125|434:92,1,80,2|8,0:0|0:0,0:0:0:0:
500,278,47283,2,0,L|486:199,1,80,10|8,0:3|0:3,0:0:0:0:
494,357,47744,2,0,L|500:277,1,80,2|8,0:0|0:0,0:0:0:0:
381,279,48206,6,0,P|346:260|307:265,1,80,2|8,0:0|0:3,0:0:0:0:
250,334,48667,1,2,0:0:0:0:
167,301,48898,1,8,0:0:0:0:
178,212,49129,1,8,0:3:0:0:
263,188,49360,1,8,0:3:0:0:
263,188,49821,5,8,0:0:0:0:
178,212,50052,2,0,L|100:191,1,80,2|8,0:0|0:3,0:0:0:0:
39,297,50513,69,2,0:0:0:0:
100,356,50744,1,8,0:0:0:0:
184,344,50975,1,8,0:3:0:0:
256,292,51206,2,0,L|256:252,2,40,10|0|2,0:3|0:0|0:0,0:0:0:0:
328,344,51667,1,8,0:0:0:0:
412,356,51898,1,2,0:0:0:0:
473,297,52129,1,8,0:3:0:0:
326,127,52590,6,0,P|301:96|304:57,1,80,10|8,0:0|0:3,0:0:0:0:
406,98,53052,1,10,0:3:0:0:
385,29,53283,2,0,P|409:59|406:98,1,80,2|8,0:0|0:0,0:0:0:0:
344,217,53744,6,0,P|383:211|419:226,1,80,2|8,0:0|0:3,0:0:0:0:
274,188,54206,2,0,P|313:193|344:217,1,80,2|8,0:0|0:0,0:0:0:0:
229,123,54667,2,0,P|261:148|274:188,1,83.9999974365235,2|8,0:0|0:3,0:0:0:0:
226,41,55129,2,0,P|241:81|229:123,1,88.000002685547,2|8,0:0|0:0,0:0:0:0:
140,15,55590,5,2,0:0:0:0:
103,148,55821,1,4,0:0:0:0:
239,221,56283,69,8,0:0:0:0:
361,178,56513,1,8,0:3:0:0:
481,230,56744,1,8,0:3:0:0:
447,292,56975,1,8,0:3:0:0:
403,118,57206,1,10,0:0:0:0:
309,233,57437,1,8,0:0:0:0:
310,237,57513,1,8,0:3:0:0:
311,241,57590,1,8,0:3:0:0:
312,246,57667,1,8,0:3:0:0:
199,5,58129,5,4,0:0:0:0:
63,42,58475,5,8,0:0:0:0:
65,32,58590,1,8,0:0:0:0:
238,64,58821,1,8,0:3:0:0:
102,101,59052,1,8,0:0:0:0:
108,121,59167,1,8,0:0:0:0:
113,140,59283,1,8,0:3:0:0:
15,190,59513,69,4,0:0:0:0:
102,101,59744,1,0,0:0:0:0:
196,178,59975,2,0,P|243:181|286:161,1,95.9999970703126,10|8,0:0|0:3,0:0:0:0:
332,56,60437,1,8,0:3:0:0:
286,161,60667,2,0,P|243:181|196:178,1,95.9999970703126,2|8,0:0|0:0,0:0:0:0:
196,178,61129,2,0,P|243:181|286:161,1,95.9999970703126,2|8,0:0|0:3,0:0:0:0:
286,161,61590,2,0,P|243:181|196:178,1,95.9999970703126,2|8,0:0|0:0,0:0:0:0:
102,101,62052,1,8,0:3:0:0:
196,178,62283,2,0,P|238:157|286:161,1,95.9999970703126,10|8,0:3|0:3,0:0:0:0:
285,160,62744,2,0,P|241:182|193:177,1,95.9999970703126,10|8,0:0|0:3,0:0:0:0:
380,142,63206,70,0,L|389:47,1,95.9999970703126,2|0,0:0|0:0,0:0:0:0:
428,212,63667,2,0,L|419:307,1,95.9999970703126,10|8,0:0|0:3,0:0:0:0:
469,379,64129,1,8,0:3:0:0:
419,307,64360,2,0,L|428:212,1,95.9999970703126,2|8,0:0|0:0,0:0:0:0:
380,142,64821,2,0,L|389:47,2,95.9999970703126,8|8|8,0:3|0:3|0:3,0:0:0:0:
293,249,65513,5,8,0:0:0:0:
180,271,65744,1,10,0:3:0:0:
293,249,65975,1,10,0:3:0:0:
406,228,66206,1,2,0:0:0:0:
293,249,66437,1,8,0:0:0:0:
135,208,66898,5,10,0:3:0:0:
37,166,67129,1,2,0:0:0:0:
46,60,67360,1,8,0:0:0:0:
149,37,67590,1,10,0:3:0:0:
204,127,67821,1,10,0:3:0:0:
204,127,68283,6,0,P|217:107|217:84,1,47.9999985351563,6|0,0:0|0:0,0:0:0:0:
149,37,68513,2,0,P|134:17|112:9,1,47.9999985351563,2|0,0:0|0:0,0:0:0:0:
46,60,68744,2,0,P|23:67|8:85,1,47.9999985351563,10|0,0:3|0:0,0:0:0:0:
37,166,68975,2,0,P|36:189|50:208,1,47.9999985351563,10|0,0:3|0:0,0:0:0:0:
135,208,69206,1,8,0:0:0:0:
135,208,69667,69,10,0:3:0:0:
37,166,69898,1,2,0:0:0:0:
46,60,70129,1,10,0:0:0:0:
37,166,70360,2,0,L|29:261,1,95.9999970703126,2|8,0:0|0:3,0:0:0:0:
107,337,70821,1,2,0:0:0:0:
265,335,71052,6,0,L|274:231,1,95.9999970703126,8|8,0:0|0:3,0:0:0:0:
351,312,71513,1,10,0:3:0:0:
265,335,71744,2,0,L|274:231,1,95.9999970703126,2|8,0:0|0:0,0:0:0:0:
186,291,72206,1,2,0:0:0:0:
432,49,72667,5,10,0:3:0:0:
80,49,73129,1,10,0:3:0:0:
432,49,73590,1,10,0:3:0:0:
256,48,73821,1,12,0:0:0:0:
337,94,74052,1,8,0:0:0:0:
356,99,74167,1,8,0:0:0:0:
376,104,74283,1,4,0:0:0:0:
489,85,74513,5,0,0:0:0:0:
416,267,74744,2,0,P|441:228|430:182,1,95.9999970703126,10|8,0:0|0:3,0:0:0:0:
489,85,75206,1,8,0:3:0:0:
430,182,75437,2,0,P|441:228|416:267,1,95.9999970703126,2|8,0:0|0:0,0:0:0:0:
416,267,75898,2,0,P|441:228|430:182,1,95.9999970703126,2|8,0:0|0:3,0:0:0:0:
430,182,76360,2,0,P|441:228|416:267,1,95.9999970703126,2|8,0:0|0:0,0:0:0:0:
442,382,76821,1,8,0:3:0:0:
430,181,77052,2,0,P|405:221|416:267,1,95.9999970703126,10|8,0:3|0:3,0:0:0:0:
416,266,77513,2,0,P|405:221|430:181,1,95.9999970703126,10|8,0:0|0:3,0:0:0:0:
374,93,77975,69,10,0:3:0:0:
475,38,78206,1,2,0:0:0:0:
374,93,78437,1,8,0:0:0:0:
262,67,78667,1,10,0:3:0:0:
150,37,78898,1,8,0:3:0:0:
36,11,79129,2,0,P|22:56|36:101,1,95.9999970703126,10|8,0:3|0:0,0:0:0:0:
150,37,79590,1,2,0:0:0:0:
213,170,79821,5,10,0:3:0:0:
101,200,80052,1,2,0:0:0:0:
83,305,80283,2,0,L|175:280,1,95.9999970703126,8|8,0:0|0:3,0:0:0:0:
101,200,80744,1,8,0:3:0:0:
175,280,80975,1,8,0:3:0:0:
173,289,81090,1,0,0:0:0:0:
171,299,81206,1,10,0:0:0:0:
338,313,81667,5,10,0:3:0:0:
439,280,81898,1,2,0:0:0:0:
439,174,82129,1,8,0:0:0:0:
338,142,82360,1,10,0:3:0:0:
276,227,82590,1,10,0:3:0:0:
276,227,83052,6,0,P|266:248|270:271,1,47.9999985351563,6|0,0:0|0:0,0:0:0:0:
338,142,83283,2,0,P|314:140|293:151,1,47.9999985351563,2|0,0:0|0:0,0:0:0:0:
439,173,83513,2,0,P|433:149|416:134,1,47.9999985351563,10|0,0:3|0:0,0:0:0:0:
439,280,83744,2,0,P|459:268|469:247,1,47.9999985351563,10|0,0:3|0:0,0:0:0:0:
338,313,83975,1,8,0:0:0:0:
338,313,84437,70,0,P|376:346|427:346,1,103.999995239258,8|0,0:0|0:0,0:0:0:0:
338,313,84898,2,0,P|290:330|233:308,1,111.999996582031,8|0,0:0|0:0,0:0:0:0:
131,220,85360,5,6,0:0:0:0:
218,132,85590,1,2,0:0:0:0:
159,22,85821,1,8,0:0:0:0:
36,44,86052,1,10,0:3:0:0:
21,166,86283,1,10,0:3:0:0:
21,166,86744,6,0,P|3:144|2:116,1,55.9999982910157,6|0,0:0|0:0,0:0:0:0:
35,43,86975,2,0,P|46:18|70:4,1,55.9999982910157,2|0,0:0|0:0,0:0:0:0:
159,22,87206,2,0,P|186:24|207:42,1,55.9999982910157,10|0,0:3|0:0,0:0:0:0:
218,132,87437,2,0,P|223:158|213:184,1,55.9999982910157,10|0,0:3|0:0,0:0:0:0:
131,220,87667,1,8,0:0:0:0:
106,70,87898,5,8,0:0:0:0:
109,83,88013,1,8,0:3:0:0:
112,95,88129,2,0,L|105:156,1,55.9999982910157,8|0,0:0|0:0,0:0:0:0:
131,220,88360,2,0,L|124:281,1,55.9999982910157,8|0,0:0|0:0,0:0:0:0:
81,345,88590,1,8,0:0:0:0:
69,348,88706,1,8,0:0:0:0:
57,351,88821,1,8,0:3:0:0:
169,372,89052,6,0,P|225:388|280:365,1,120,4|0,0:0|0:0,0:0:0:0:
366,364,89513,2,0,L|370:308,1,40,10|0,0:0|0:0,0:0:0:0:
342,259,89744,1,8,0:3:0:0:
443,219,89975,1,8,0:3:0:0:
475,322,90206,1,0,0:0:0:0:
485,157,90437,1,8,0:0:0:0:
439,61,90667,6,0,P|475:45|512:56,1,80,2|8,0:0|0:3,0:0:0:0:
372,43,91129,2,0,P|339:21|299:25,1,80,2|8,0:0|0:0,0:0:0:0:
439,61,91590,1,10,0:3:0:0:
366,142,91821,6,0,L|327:145,1,40,10|0,0:3|0:0,0:0:0:0:
233,101,92052,2,0,L|273:97,1,40,10|0,0:3|0:0,0:0:0:0:
195,163,92283,2,0,L|156:166,1,40,10|0,0:0|0:0,0:0:0:0:
233,101,92513,2,0,L|273:97,1,40,10|0,0:3|0:0,0:0:0:0:
267,194,92744,1,8,0:3:0:0:
88,92,93206,6,0,L|92:52,1,40,10|0,0:0|0:0,0:0:0:0:
156,17,93437,1,8,0:3:0:0:
17,59,93667,1,8,0:3:0:0:
156,125,93898,2,0,L|148:212,1,80,8|8,0:3|0:0,0:0:0:0:
88,92,94360,1,2,0:0:0:0:
44,216,94590,70,0,B|91:205|102:179|132:166|154:194|154:194|174:215|153:235|126:224|138:197|138:197|148:163|181:165|201:186|250:177,1,320,4|0,0:0|0:0,0:0:0:0:
346,153,95744,5,2,0:0:0:0:
334,224,95975,1,2,0:0:0:0:
321,295,96206,1,2,0:0:0:0:
424,353,96437,6,0,P|455:356|482:340,1,64,8|0,0:3|0:0,0:0:0:0:
427,216,96898,1,8,0:0:0:0:
438,279,97129,2,0,L|425:208,1,64,8|8,0:3|0:3,0:0:0:0:
363,106,97590,5,10,0:0:0:0:
434,118,97821,1,2,0:0:0:0:
505,131,98052,1,10,0:3:0:0:
483,24,98283,70,0,P|451:19|422:32,1,64,8|0,0:3|0:0,0:0:0:0:
293,32,98744,1,8,0:0:0:0:
353,24,98975,2,0,P|321:19|293:33,1,64,8|8,0:3|0:3,0:0:0:0:
221,97,99437,5,10,0:0:0:0:
234,168,99667,1,2,0:0:0:0:
221,97,99898,2,0,P|192:84|160:88,1,64,10|8,0:3|0:3,0:0:0:0:
74,34,100360,5,2,0:0:0:0:
20,78,100590,1,8,0:0:0:0:
35,146,100821,1,10,0:3:0:0:
20,78,101052,1,8,0:3:0:0:
35,146,101283,1,10,0:0:0:0:
55,213,101513,1,2,0:0:0:0:
13,270,101744,1,8,0:3:0:0:
87,359,101975,6,0,P|114:373|145:367,1,64,8|0,0:3|0:0,0:0:0:0:
155,297,102437,1,8,0:0:0:0:
96,288,102667,2,0,P|127:282|155:297,1,64,8|8,0:3|0:3,0:0:0:0:
266,336,103129,69,10,0:0:0:0:
278,265,103360,1,2,0:0:0:0:
291,194,103590,1,10,0:3:0:0:
416,238,103821,6,0,P|429:209|423:178,1,64,8|0,0:3|0:0,0:0:0:0:
374,110,104283,1,10,0:0:0:0:
437,100,104513,2,0,L|373:110,1,64,8|8,0:3|0:3,0:0:0:0:
291,194,104975,5,10,0:0:0:0:
279,123,105206,1,2,0:0:0:0:
266,52,105437,1,10,0:3:0:0:
154,12,105667,6,0,P|139:39|144:70,1,64,8|0,0:3|0:0,0:0:0:0:
160,194,106129,1,8,0:0:0:0:
172,135,106360,2,0,P|176:166|161:193,1,64,8|8,0:3|0:3,0:0:0:0:
109,285,106821,69,10,0:0:0:0:
179,298,107052,1,2,0:0:0:0:
248,311,107283,2,0,P|279:307|303:287,1,64,10|8,0:3|0:3,0:0:0:0:
332,192,107744,5,2,0:0:0:0:
301,128,107975,1,8,0:0:0:0:
360,89,108206,1,10,0:3:0:0:
256,72,108437,1,10,0:3:0:0:
152,89,108667,1,2,0:0:0:0:
211,128,108898,1,8,0:0:0:0:
180,192,109129,1,2,0:0:0:0:
256,232,109360,5,8,0:3:0:0:
256,4,109821,1,12,0:0:0:0:
256,232,110283,1,8,0:3:0:0:
371,248,110513,5,0,0:3:0:0:
485,227,110744,1,2,0:0:0:0:
371,248,110975,1,0,0:3:0:0:
277,134,111206,70,0,P|245:117|210:122,1,71.9999978027344,4|0,0:0|0:0,0:0:0:0:
267,209,111667,1,8,0:0:0:0:
201,195,111898,2,0,P|232:212|268:208,1,71.9999978027344,8|8,0:3|0:3,0:0:0:0:
382,174,112360,5,2,0:0:0:0:
370,96,112590,1,10,0:0:0:0:
356,17,112821,1,2,0:0:0:0:
242,35,113052,6,0,L|235:114,1,71.9999978027344,8|0,0:3|0:0,0:0:0:0:
194,183,113513,1,8,0:0:0:0:
263,177,113744,2,0,P|229:189|194:183,1,71.9999978027344,8|8,0:3|0:3,0:0:0:0:
82,223,114206,5,2,0:0:0:0:
70,145,114437,1,10,0:0:0:0:
56,66,114667,2,0,P|80:43|126:40,1,71.9999978027344,2|8,0:0|0:3,0:0:0:0:
195,51,115129,1,2,0:0:0:0:
273,62,115360,1,8,0:0:0:0:
222,122,115590,1,10,0:3:0:0:
273,62,115821,1,10,0:3:0:0:
347,36,116052,1,2,0:0:0:0:
397,96,116283,1,8,0:0:0:0:
321,119,116513,1,2,0:0:0:0:
241,187,116744,70,0,P|210:205|175:201,1,71.9999978027344,8|0,0:3|0:0,0:0:0:0:
241,187,117206,1,8,0:0:0:0:
100,178,117437,2,0,L|112:248,1,71.9999978027344,8|8,0:3|0:3,0:0:0:0:
30,349,117898,5,2,0:0:0:0:
108,337,118129,1,10,0:0:0:0:
187,323,118360,1,2,0:0:0:0:
287,246,118590,6,0,P|286:210|266:181,1,71.9999978027344,8|0,0:3|0:0,0:0:0:0:
356,259,119052,1,10,0:0:0:0:
427,247,119283,2,0,L|356:259,1,71.9999978027344,8|8,0:3|0:3,0:0:0:0:
442,356,119744,5,2,0:0:0:0:
364,344,119975,1,10,0:0:0:0:
285,330,120206,1,2,0:0:0:0:
176,247,120437,70,0,P|159:189|216:122,1,143.999995605469,8|8,0:3|0:0,0:0:0:0:
371,45,121360,5,10,0:3:0:0:
449,31,121590,1,2,0:0:0:0:
463,109,121821,1,10,0:0:0:0:
384,123,122052,1,2,0:0:0:0:
264,232,122283,6,0,P|296:246|331:242,1,71.9999978027344,4|0,0:0|0:0,0:0:0:0:
435,203,122744,1,10,0:0:0:0:
461,303,122975,1,8,0:3:0:0:
457,322,123090,1,8,0:3:0:0:
454,342,123206,1,8,0:3:0:0:
333,360,123437,1,8,0:0:0:0:
331,350,123552,1,8,0:3:0:0:
329,340,123667,1,8,0:3:0:0:
226,320,123898,1,8,0:3:0:0:
225,324,124013,1,8,0:3:0:0:
224,329,124129,6,0,P|185:331|147:305,1,80,4|0,0:0|0:0,0:0:0:0:
24,237,124590,2,0,P|60:251|79:285,1,80,10|8,0:0|0:3,0:0:0:0:
151,310,125052,1,10,0:3:0:0:
65,364,125283,2,0,L|80:277,1,80,2|8,0:0|0:0,0:0:0:0:
156,208,125744,70,0,P|188:186|228:187,1,80,2|8,0:0|0:3,0:0:0:0:
84,190,126206,2,0,P|123:187|156:208,1,80,2|8,0:0|0:0,0:0:0:0:
150,87,126667,2,0,P|118:109|78:108,1,80,10|8,0:3|0:3,0:0:0:0:
222,105,127129,2,0,P|183:108|150:87,1,80,2|8,0:0|0:0,0:0:0:0:
246,9,127590,6,0,P|285:7|318:29,1,80,2|8,0:0|0:3,0:0:0:0:
346,113,128052,1,2,0:0:0:0:
430,138,128283,1,8,0:0:0:0:
493,77,128513,1,8,0:3:0:0:
409,52,128744,1,8,0:3:0:0:
409,52,129206,5,8,0:0:0:0:
430,138,129437,2,0,P|440:176|426:212,1,80,2|8,0:0|0:3,0:0:0:0:
330,194,129898,1,2,0:0:0:0:
243,210,130129,1,8,0:0:0:0:
178,270,130360,1,8,0:3:0:0:
144,188,130590,1,10,0:3:0:0:
114,104,130821,1,2,0:0:0:0:
57,172,131052,1,8,0:0:0:0:
114,104,131283,1,2,0:0:0:0:
87,250,131513,1,8,0:3:0:0:
313,336,131975,6,0,P|273:333|238:352,1,80,10|8,0:0|0:3,0:0:0:0:
94,351,132437,1,10,0:3:0:0:
168,335,132667,2,0,P|128:332|93:351,1,80,2|8,0:0|0:0,0:0:0:0:
48,269,133129,70,0,L|41:189,1,80,2|8,0:0|0:3,0:0:0:0:
120,183,133590,2,0,L|40:189,1,80,2|8,0:0|0:0,0:0:0:0:
106,13,134052,2,0,L|112:96,1,83.9999974365235,10|8,0:3|0:3,0:0:0:0:
200,90,134513,2,0,L|112:97,1,88.000002685547,2|8,0:0|0:0,0:0:0:0:
260,26,134975,1,2,0:0:0:0:
221,168,135206,6,0,L|224:207,3,40,4|0|0|0,0:0|0:0|0:0|0:0,0:0:0:0:
284,238,135667,1,8,0:0:0:0:
197,330,135898,1,8,0:3:0:0:
383,306,136129,1,8,0:0:0:0:
386,294,136244,1,8,0:0:0:0:
389,282,136360,1,8,0:3:0:0:
266,306,136590,5,10,0:0:0:0:
266,306,137052,69,4,0:0:0:0:
143,282,137283,1,0,0:0:0:0:
234,205,137513,2,0,P|275:183|322:188,1,95.9999970703126,10|8,0:0|0:3,0:0:0:0:
428,238,137975,1,8,0:3:0:0:
323,189,138206,2,0,P|282:164|263:121,1,95.9999970703126,2|8,0:0|0:0,0:0:0:0:
263,121,138667,2,0,P|262:168|234:205,1,95.9999970703126,2|8,0:3|0:3,0:0:0:0:
234,206,139129,2,0,P|262:169|263:122,1,95.9999970703126,2|8,0:3|0:0,0:0:0:0:
240,7,139590,1,8,0:3:0:0:
263,121,139821,2,0,P|282:164|323:189,1,95.9999970703126,10|8,0:3|0:3,0:0:0:0:
323,189,140283,2,0,P|282:164|263:121,1,95.9999970703126,10|8,0:0|0:3,0:0:0:0:
123,143,140744,70,0,P|76:150|35:127,1,95.9999970703126,10|0,0:3|0:3,0:0:0:0:
5,40,141206,2,0,P|51:33|92:56,1,95.9999970703126,10|8,0:0|0:3,0:0:0:0:
65,237,141667,1,8,0:3:0:0:
93,56,141898,2,0,P|52:33|6:40,1,95.9999970703126,2|8,0:0|0:0,0:0:0:0:
35,127,142360,2,0,P|76:150|123:143,2,95.9999970703126,2|8|0,0:0|0:3|0:0,0:0:0:0:
206,74,143052,5,8,0:0:0:0:
224,176,143283,1,10,0:3:0:0:
206,74,143513,1,10,0:3:0:0:
284,104,143744,1,2,0:0:0:0:
286,113,143860,1,2,0:0:0:0:
288,123,143975,1,8,0:0:0:0:
176,333,144437,5,10,0:3:0:0:
69,349,144667,1,2,0:0:0:0:
93,180,144898,1,8,0:0:0:0:
188,226,145129,1,10,0:3:0:0:
19,256,145360,1,10,0:3:0:0:
19,256,145821,6,0,P|11:233|17:210,1,47.9999985351563,6|0,0:0|0:0,0:0:0:0:
93,180,146052,2,0,P|111:165|135:164,1,47.9999985351563,2|0,0:0|0:0,0:0:0:0:
176,333,146283,2,0,P|169:355|151:370,1,47.9999985351563,10|0,0:3|0:0,0:0:0:0:
69,349,146513,2,0,P|45:349|25:336,1,47.9999985351563,10|0,0:3|0:0,0:0:0:0:
188,226,146744,1,8,0:0:0:0:
188,226,147206,69,10,0:3:0:0:
69,349,147437,1,2,0:0:0:0:
176,333,147667,1,10,0:0:0:0:
19,256,147898,2,0,L|35:162,1,95.9999970703126,2|8,0:0|0:3,0:0:0:0:
6,56,148360,1,2,0:0:0:0:
129,125,148590,6,0,B|193:113|193:113|219:96,1,95.9999970703126,8|8,0:0|0:3,0:0:0:0:
147,20,149052,1,10,0:3:0:0:
313,92,149283,2,0,B|249:103|249:103|218:96,1,95.9999970703126,2|8,0:0|0:0,0:0:0:0:
257,0,149744,1,2,0:0:0:0:
96,224,150206,5,10,0:3:0:0:
416,224,150667,1,10,0:3:0:0:
96,224,151129,1,10,0:3:0:0:
256,224,151360,1,12,0:0:0:0:
376,296,151590,1,8,0:0:0:0:
357,301,151706,1,8,0:0:0:0:
338,307,151821,1,4,0:0:0:0:
256,361,152052,5,0,0:0:0:0:
256,224,152283,2,0,P|242:179|205:150,1,95.9999970703126,10|8,0:0|0:3,0:0:0:0:
191,65,152744,1,8,0:3:0:0:
166,231,152975,2,0,P|213:242|257:224,1,95.9999970703126,2|8,0:0|0:0,0:0:0:0:
204,150,153437,2,0,P|172:184|166:231,1,95.9999970703126,2|8,0:0|0:3,0:0:0:0:
166,231,153898,2,0,P|213:242|257:224,1,95.9999970703126,2|8,0:0|0:0,0:0:0:0:
334,243,154360,1,8,0:3:0:0:
204,150,154590,2,0,P|172:184|166:231,1,95.9999970703126,10|0,0:3|0:3,0:0:0:0:
256,224,155052,2,0,P|242:179|205:150,1,95.9999970703126,10|8,0:0|0:3,0:0:0:0:
36,131,155513,69,2,0:0:0:0:
64,29,155744,1,2,0:0:0:0:
154,82,155975,1,8,0:0:0:0:
242,139,156206,1,10,0:3:0:0:
288,43,156437,1,8,0:3:0:0:
378,96,156667,2,0,P|406:133|408:180,1,95.9999970703126,10|8,0:3|0:0,0:0:0:0:
355,272,157129,1,2,0:0:0:0:
203,320,157360,5,10,0:3:0:0:
183,317,157475,1,0,0:0:0:0:
164,313,157590,1,2,0:0:0:0:
64,349,157821,1,8,0:0:0:0:
164,313,158052,1,10,0:3:0:0:
256,366,158283,1,8,0:3:0:0:
311,318,158513,2,0,L|359:310,1,47.9999985351563
448,349,158744,1,10,0:0:0:0:
311,318,158975,1,0,0:0:0:0:
432,264,159206,5,10,0:3:0:0:
482,171,159437,1,2,0:0:0:0:
313,141,159667,1,8,0:0:0:0:
325,248,159898,1,10,0:3:0:0:
408,95,160129,1,10,0:3:0:0:
408,95,160590,6,0,P|389:81|365:81,1,47.9999985351563,6|0,0:0|0:0,0:0:0:0:
482,171,160821,2,0,P|488:148|481:126,1,47.9999985351563,2|0,0:0|0:0,0:0:0:0:
325,248,161052,2,0,P|332:270|351:283,1,47.9999985351563,10|0,0:3|0:0,0:0:0:0:
313,141,161283,2,0,P|294:154|287:177,1,47.9999985351563,10|0,0:3|0:0,0:0:0:0:
432,264,161513,1,8,0:0:0:0:
432,264,161975,70,0,L|411:150,1,103.999995239258,8|0,0:0|0:0,0:0:0:0:
313,141,162437,2,0,L|291:27,1,111.999996582031,8|0,0:0|0:0,0:0:0:0:
137,13,162898,5,6,0:0:0:0:
165,211,163129,1,2,0:0:0:0:
27,67,163360,1,8,0:0:0:0:
224,101,163590,1,10,0:3:0:0:
42,189,163821,1,10,0:3:0:0:
42,189,164283,6,0,P|57:211|83:220,1,55.9999982910157,6|0,0:0|0:0,0:0:0:0:
224,101,164513,2,0,P|224:73|208:50,1,55.9999982910157,2|0,0:0|0:0,0:0:0:0:
27,67,164744,2,0,P|10:89|9:116,1,55.9999982910157,10|0,0:3|0:0,0:0:0:0:
165,211,164975,2,0,P|191:202|208:181,1,55.9999982910157,10|0,0:3|0:0,0:0:0:0:
120,25,165206,1,8,0:0:0:0:
74,125,165437,5,8,0:0:0:0:
75,133,165552,1,8,0:0:0:0:
94,161,165667,69,8,0:3:0:0:
89,180,165783,1,0,0:0:0:0:
87,200,165898,1,8,0:3:0:0:
83,220,166013,1,0,0:0:0:0:
100,247,166129,5,8,0:3:0:0:
105,266,166244,1,8,0:3:0:0:
107,286,166360,1,0,0:0:0:0:
111,306,166475,1,0,0:0:0:0:
83,331,166590,69,12,0:0:0:0:
243,344,166937,5,10,0:3:0:0:
246,347,167052,2,0,P|252:308|235:272,2,80,10|8|8,0:0|0:3|0:3,0:0:0:0:
370,319,167744,70,0,P|428:315|473:353,1,120,2|0,0:0|0:0,0:0:0:0:
473,353,168206,2,0,P|426:317|415:260,1,120,2|0,0:0|0:0,0:0:0:0:
480,176,168667,6,0,L|482:136,1,40,8|0,0:3|0:0,0:0:0:0:
415,130,168898,2,0,L|412:169,1,40,8|0,0:0|0:0,0:0:0:0:
481,136,169129,1,8,0:3:0:0:
466,31,169360,1,2,0:0:0:0:
446,34,169475,1,2,0:0:0:0:
426,37,169590,1,2,0:0:0:0:
315,66,169821,6,0,P|296:60|282:46,1,40,10|0,0:0|0:0,0:0:0:0:
282,46,170052,2,0,P|296:60|315:66,1,40,2|0,0:0|0:0,0:0:0:0:
295,141,170283,5,8,0:3:0:0:
298,144,170398,2,0,L|302:199,1,40,2|0,0:0|0:0,0:0:0:0:
225,155,170629,2,0,L|221:115,1,40,2|8,0:0|0:0,0:0:0:0:
149,131,170860,2,0,L|145:91,1,40,2|0,0:0|0:0,0:0:0:0:
71,71,171090,2,0,L|75:110,1,40,2|0,0:0|0:0,0:0:0:0:
146,128,171321,1,8,0:3:0:0:
149,131,171437,2,0,L|145:91,1,40,2|0,0:0|0:0,0:0:0:0:
221,115,171667,2,0,L|225:155,1,40,10|0,0:0|0:0,0:0:0:0:
170,215,171898,69,2,0:0:0:0:
166,214,171975,1,2,0:0:0:0:
161,213,172052,1,2,0:0:0:0:
156,212,172129,2,0,L|96:218,1,40,10|0,0:3|0:0,0:0:0:0:
63,262,172360,2,0,L|3:268,1,40,2|0,0:0|0:0,0:0:0:0:
61,167,172590,5,8,0:0:0:0:
57,147,172706,1,0,0:0:0:0:
81,116,172821,5,10,0:3:0:0:
84,96,172937,1,2,0:0:0:0:
59,70,173052,6,0,L|51:30,1,40,10|0,0:3|0:0,0:0:0:0:
140,41,173283,2,0,L|132:1,1,40,2|0,0:0|0:0,0:0:0:0:
228,66,173513,2,0,P|244:102|239:141,1,80,8|0,0:0|0:0,0:0:0:0:
201,246,173975,69,10,0:3:0:0:
204,249,174090,2,0,P|223:251|242:245,1,40,2|0,0:0|0:0,0:0:0:0:
315,232,174321,1,10,0:3:0:0:
301,195,174437,1,10,0:0:0:0:
329,173,174552,1,0,0:0:0:0:
359,192,174667,1,8,0:3:0:0:
350,227,174783,1,0,0:0:0:0:
315,232,174898,5,10,0:3:0:0:
309,263,175013,1,0,0:0:0:0:
303,295,175129,1,0,0:0:0:0:
298,326,175244,1,8,0:3:0:0:
293,358,175360,2,0,L|233:367,1,40,10|0,0:0|0:0,0:0:0:0:
192,329,175590,2,0,L|152:335,1,40,2|0,0:0|0:0,0:0:0:0:
49,353,175821,5,8,0:3:0:0:
52,356,175937,2,0,L|48:316,1,40,2|0,0:0|0:0,0:0:0:0:
88,259,176167,2,0,L|81:199,1,40,2|8,0:0|0:0,0:0:0:0:
124,161,176398,1,8,0:3:0:0:
127,164,176513,2,0,L|120:104,1,40,10|0,0:3|0:0,0:0:0:0:
166,69,176744,5,10,0:3:0:0:
32,85,176975,1,2,0:0:0:0:
122,124,177206,1,8,0:0:0:0:
210,11,177437,1,8,0:3:0:0:
259,148,177667,69,10,0:3:0:0:
260,144,177744,1,2,0:0:0:0:
261,139,177821,1,2,0:0:0:0:
262,134,177898,2,0,L|255:74,1,40,2|0,0:0|0:0,0:0:0:0:
326,61,178129,2,0,L|330:100,1,40,8|0,0:0|0:0,0:0:0:0:
413,151,178360,2,0,P|432:146|448:134,1,40,10|0,0:3|0:0,0:0:0:0:
440,52,178590,5,8,0:3:0:0:
494,209,178821,2,0,P|512:243|505:282,1,80,2|8,0:0|0:0,0:0:0:0:
364,358,179283,2,0,P|345:323|352:284,1,80,2|8,0:0|0:3,0:0:0:0:
394,168,179744,5,10,0:0:0:0:
374,171,179860,1,8,0:3:0:0:
354,174,179975,1,10,0:0:0:0:
228,125,180206,1,2,0:0:0:0:
236,127,180321,1,2,0:0:0:0:
259,151,180437,5,8,0:0:0:0:
264,170,180552,1,8,0:3:0:0:
266,190,180667,1,8,0:3:0:0:
270,210,180783,1,8,0:3:0:0:
253,237,180898,69,8,0:0:0:0:
248,256,181013,1,8,0:3:0:0:
242,276,181129,2,0,L|248:315,1,40,2|0,0:3|0:0,0:0:0:0:
321,374,181360,1,4,0:0:0:0:
160,323,181590,6,0,B|134:330|134:330|120:327,1,40,2|0,0:0|0:0,0:0:0:0:
121,328,181821,2,0,B|147:321|147:321|159:323,1,40,10|0,0:0|0:0,0:0:0:0:
49,340,182052,1,8,0:3:0:0:
33,207,182283,6,0,B|13:154|13:154|19:131,1,80,10|0,0:3|0:0,0:0:0:0:
19,131,182629,2,0,B|38:183|38:183|33:207,1,80,2|0,0:0|0:0,0:0:0:0:
24,278,182975,1,8,0:3:0:0:
19,131,183206,6,0,L|32:52,1,80,10|0,0:3|0:0,0:0:0:0:
93,19,183552,1,8,0:3:0:0:
96,22,183667,2,0,B|109:19|109:19|135:26,1,40,10|0,0:0|0:0,0:0:0:0:
32,52,183898,1,8,0:3:0:0:
155,128,184129,2,0,B|273:107|273:107|230:74,1,160,10|8,0:3|0:0,0:0:0:0:
241,83,184821,69,2,0:0:0:0:
257,96,184937,1,2,0:0:0:0:
273,108,185052,2,0,L|154:128,1,120,10|0,0:3|0:0,0:0:0:0:
115,205,185513,2,0,L|153:215,1,40,8|0,0:0|0:0,0:0:0:0:
243,195,185744,5,10,0:3:0:0:
230,201,185860,1,2,0:0:0:0:
218,208,185975,2,0,B|166:219|166:219|114:205|114:205|62:216,1,160,10|8,0:3|0:0,0:0:0:0:
21,355,186667,5,2,0:0:0:0:
157,298,186898,1,10,0:3:0:0:
228,316,187129,1,2,0:0:0:0:
299,336,187360,1,8,0:0:0:0:
228,316,187821,5,8,0:3:0:0:
157,298,188283,69,8,0:0:0:0:
228,316,188513,6,0,L|283:306,1,40,2|0,0:0|0:0,0:0:0:0:
326,347,188744,1,10,0:3:0:0:
449,304,188975,6,0,B|470:232|470:232|456:189,1,120,2|0,0:0|0:0,0:0:0:0:
378,114,189437,2,0,L|385:154,1,40,10|0,0:3|0:0,0:0:0:0:
385,154,189667,2,0,B|379:114|379:114|403:34,1,120,10|0,0:3|0:0,0:0:0:0:
461,114,190129,6,0,B|487:111|487:111|499:104,1,40,10|0,0:0|0:0,0:0:0:0:
498,104,190360,2,0,B|471:106|471:106|460:115,1,40,2|0,0:0|0:0,0:0:0:0:
385,154,190590,2,0,B|321:165|321:165|265:154,1,120,10|0,0:3|0:0,0:0:0:0:
224,76,191052,70,0,L|217:36,1,40,8|0,0:0|0:0,0:0:0:0:
150,49,191283,2,0,L|156:88,1,40,8|0,0:3|0:0,0:0:0:0:
91,153,191513,6,0,B|79:156|79:156|53:149,1,40,2|0,0:0|0:0,0:0:0:0:
53,149,191744,2,0,B|66:145|66:145|92:153,1,40,2|0,0:0|0:0,0:0:0:0:
162,194,191975,6,0,B|174:196|174:196|200:189,1,40,10|0,0:0|0:0,0:0:0:0:
201,189,192206,2,0,B|189:187|189:187|163:194,1,40,2|0,0:0|0:0,0:0:0:0:
42,240,192437,6,0,L|59:362,1,120,4|0,0:0|0:0,0:0:0:0:
126,377,192898,1,8,0:0:0:0:
183,267,193129,1,10,0:3:0:0:
297,315,193360,2,0,B|352:305|352:305|369:289,1,80,10|0,0:3|0:0,0:0:0:0:
434,309,193706,69,2,0:0:0:0:
437,312,193821,2,0,L|443:351,1,40,10|0,0:0|0:0,0:0:0:0:
496,272,194052,2,0,L|489:232,1,40,10|0,0:3|0:0,0:0:0:0:
435,160,194283,5,4,0:0:0:0:
312,207,194513,1,8,0:0:0:0:
321,208,194629,1,8,0:3:0:0:
331,210,194744,1,10,0:3:0:0:
198,160,194975,1,10,0:3:0:0:
207,159,195090,1,8,0:3:0:0:
217,157,195206,1,8,0:0:0:0:
107,209,195437,5,2,0:0:0:0:
217,157,195667,1,10,0:3:0:0:
331,210,195898,1,10,0:3:0:0:
280,75,196129,1,4,0:0:0:0:
280,75,196590,6,0,P|253:34|266:-9,2,80,8|8|8,0:0|0:3|0:3,0:0:0:0:
360,39,197283,2,0,B|373:53|397:45|397:45|377:29|360:39,1,80,2|8,0:0|0:0,0:0:0:0:
280,75,197744,1,2,0:0:0:0:
150,33,197975,69,8,0:3:0:0:
66,6,198206,1,2,0:0:0:0:
35,88,198437,1,8,0:0:0:0:
118,113,198667,1,10,0:3:0:0:
150,33,198898,1,10,0:3:0:0:
118,113,199129,2,0,P|110:151|125:188,1,80,2|8,0:0|0:0,0:0:0:0:
235,246,199590,2,0,P|242:207|227:170,1,80,2|8,0:0|0:3,0:0:0:0:
376,348,200283,5,8,0:0:0:0:
449,334,200513,2,0,P|415:354|376:348,1,80,8|8,0:3|0:3,0:0:0:0:
470,255,200975,2,0,B|479:237|463:218|463:218|455:241|470:255,1,80,2|8,0:0|0:0,0:0:0:0:
449,334,201437,1,2,0:0:0:0:
360,245,201667,5,8,0:3:0:0:
273,260,201898,1,2,0:0:0:0:
343,158,202129,1,8,0:0:0:0:
256,173,202360,1,10,0:3:0:0:
273,260,202590,1,10,0:3:0:0:
256,173,202821,2,0,L|240:86,1,80,2|8,0:0|0:0,0:0:0:0:
134,27,203283,2,0,L|147:105,1,80,2|8,0:0|0:3,0:0:0:0:
76,297,203975,6,0,P|30:269|-8:283,2,80,8|8|8,0:0|0:3|0:3,0:0:0:0:
144,346,204667,2,0,B|158:359|150:383|150:383|134:363|144:346,1,80,2|8,0:0|0:0,0:0:0:0:
76,297,205129,1,2,0:0:0:0:
212,258,205360,69,8,0:3:0:0:
288,298,205590,1,2,0:0:0:0:
375,285,205821,1,8,0:0:0:0:
288,298,206052,1,10,0:3:0:0:
375,285,206283,1,10,0:3:0:0:
212,258,206513,2,0,P|177:239|137:241,1,80,2|8,0:0|0:0,0:0:0:0:
288,298,206975,1,2,0:0:0:0:
277,183,207206,6,0,B|266:94|349:64|349:64|344:79|344:79|421:67|472:126|472:126|477:111|477:111|522:187|456:252,1,480,4|8,0:0|0:0,0:0:0:0:
367,223,208821,1,8,0:0:0:0:
362,224,208898,1,8,0:3:0:0:
357,226,208975,1,8,0:3:0:0:
353,227,209052,1,8,0:3:0:0:
399,4,209513,5,4,0:0:0:0:
256,192,209629,12,8,210667,0:3:0:0:
256,192,210898,5,4,0:0:0:0:
256,192,211129,1,4,0:0:0:0:
256,192,211360,1,2,0:0:0:0:
256,192,211821,69,2,0:0:0:0:
256,192,212052,1,2,0:0:0:0:
256,192,212513,5,10,0:0:0:0:
256,197,212590,1,8,0:3:0:0:
256,202,212667,1,8,0:3:0:0:
256,207,212744,1,8,0:3:0:0:
256,192,212975,1,10,0:0:0:0:
256,192,213437,5,10,0:0:0:0:
256,192,213667,1,2,0:0:0:0:
256,268,213898,1,8,0:0:0:0:
256,192,214129,1,10,0:0:0:0:
256,268,214360,69,8,0:0:0:0:
256,288,214475,1,8,0:0:0:0:
256,307,214590,2,0,P|300:326|347:319,1,95.9999970703126,6|0,0:0|0:0,0:0:0:0:
402,265,215052,2,0,P|448:257|492:276,1,95.9999970703126,10|8,0:0|0:3,0:0:0:0:
447,371,215513,1,8,0:3:0:0:
492,276,215744,2,0,P|448:257|402:265,1,95.9999970703126,2|8,0:0|0:0,0:0:0:0:
256,307,216206,2,0,P|300:326|347:319,2,95.9999970703126,8|8|8,0:3|0:3|0:3,0:0:0:0:
109,348,216898,69,8,0:0:0:0:
86,244,217129,1,10,0:3:0:0:
60,141,217360,1,10,0:3:0:0:
86,244,217590,1,2,0:0:0:0:
84,253,217706,1,0,0:0:0:0:
82,263,217821,1,8,0:0:0:0:
60,141,218052,1,8,0:3:0:0:
200,205,218283,5,10,0:3:0:0:
306,208,218513,1,2,0:0:0:0:
342,108,218744,1,8,0:0:0:0:
258,44,218975,1,10,0:3:0:0:
171,102,219206,1,10,0:3:0:0:
171,102,219667,6,0,P|166:78|176:57,1,47.9999985351563,6|0,0:0|0:0,0:0:0:0:
258,44,219898,2,0,P|279:32|302:34,1,47.9999985351563,2|0,0:0|0:0,0:0:0:0:
304,209,220129,2,0,P|295:230|274:242,1,47.9999985351563,10|0,0:3|0:0,0:0:0:0:
200,205,220360,2,0,P|177:202|160:186,1,47.9999985351563,10|0,0:3|0:0,0:0:0:0:
342,108,220590,1,8,0:0:0:0:
342,108,221052,5,10,0:3:0:0:
200,205,221283,1,2,0:0:0:0:
306,208,221513,1,10,0:0:0:0:
257,43,221744,2,0,P|212:27|165:37,1,95.9999970703126,2|8,0:0|0:3,0:0:0:0:
60,12,222206,1,2,0:0:0:0:
13,131,222437,70,0,B|30:232,1,95.9999970703126,8|8,0:0|0:3,0:0:0:0:
45,320,222898,1,10,0:3:0:0:
29,225,223129,2,0,B|46:326,1,95.9999970703126,2|8,0:0|0:0,0:0:0:0:
131,354,223590,5,8,0:0:0:0:
126,353,223667,1,8,0:3:0:0:
121,352,223744,1,8,0:3:0:0:
116,351,223821,1,8,0:0:0:0:
256,316,224052,5,4,0:0:0:0:
256,68,224513,1,10,0:3:0:0:
256,316,224975,1,4,0:0:0:0:
382,80,225437,1,8,0:0:0:0:
386,99,225552,1,8,0:0:0:0:
389,119,225667,1,4,0:0:0:0:
313,191,225898,5,0,0:0:0:0:
405,191,226129,2,0,P|359:203|313:191,1,95.9999970703126,10|8,0:0|0:3,0:0:0:0:
405,191,226590,1,8,0:3:0:0:
313,191,226821,2,0,P|359:203|405:191,1,95.9999970703126,2|8,0:0|0:0,0:0:0:0:
405,190,227283,2,0,P|359:178|313:191,1,95.9999970703126,2|8,0:0|0:3,0:0:0:0:
313,191,227744,2,0,P|359:178|405:190,1,95.9999970703126,2|8,0:0|0:0,0:0:0:0:
313,191,228206,1,8,0:3:0:0:
405,190,228437,2,0,P|359:203|313:191,1,95.9999970703126,10|8,0:3|0:3,0:0:0:0:
313,191,228898,2,0,P|359:178|405:190,1,95.9999970703126,10|8,0:0|0:3,0:0:0:0:
460,355,229360,69,10,0:3:0:0:
493,255,229590,1,2,0:0:0:0:
460,355,229821,1,8,0:0:0:0:
356,333,230052,1,10,0:3:0:0:
252,310,230283,1,8,0:3:0:0:
149,284,230513,2,0,P|102:289|68:322,1,95.9999970703126,10|8,0:3|0:0,0:0:0:0:
252,310,230975,1,2,0:0:0:0:
204,183,231206,5,10,0:3:0:0:
104,147,231437,1,2,0:0:0:0:
95,149,231552,1,0,0:0:0:0:
85,151,231667,1,8,0:0:0:0:
183,82,231898,1,10,0:3:0:0:
204,183,232129,1,8,0:3:0:0:
202,174,232244,1,0,0:0:0:0:
200,164,232360,1,0,0:0:0:0:
85,151,232590,1,10,0:0:0:0:
393,268,233052,5,10,0:3:0:0:
278,140,233283,1,2,0:0:0:0:
446,176,233513,1,8,0:0:0:0:
286,248,233744,1,10,0:3:0:0:
374,98,233975,1,10,0:3:0:0:
374,98,234437,6,0,P|355:83|331:82,1,47.9999985351563,6|0,0:0|0:0,0:0:0:0:
286,248,234667,2,0,P|293:270|311:286,1,47.9999985351563,2|0,0:0|0:0,0:0:0:0:
446,176,234898,2,0,P|453:154|446:132,1,47.9999985351563,10|0,0:3|0:0,0:0:0:0:
278,140,235129,2,0,P|258:151|251:173,1,47.9999985351563,10|0,0:3|0:0,0:0:0:0:
393,268,235360,1,8,0:0:0:0:
393,268,235821,70,0,P|444:270|489:247,1,103.999995239258,8|0,0:0|0:0,0:0:0:0:
393,268,236283,2,0,P|339:282|286:267,1,111.999996582031,8|0,0:0|0:0,0:0:0:0:
54,230,236744,5,6,0:0:0:0:
254,197,236975,1,2,0:0:0:0:
143,141,237206,1,8,0:0:0:0:
234,320,237437,1,10,0:3:0:0:
112,338,237667,1,10,0:3:0:0:
112,338,238129,6,0,P|104:365|81:382,1,55.9999982910157,6|0,0:0|0:0,0:0:0:0:
143,141,238360,2,0,P|133:114|141:87,1,55.9999982910157,2|0,0:0|0:0,0:0:0:0:
234,320,238590,2,0,P|257:335|266:362,1,55.9999982910157,10|0,0:3|0:0,0:0:0:0:
54,230,238821,2,0,P|25:231|2:215,1,55.9999982910157,10|0,0:3|0:0,0:0:0:0:
254,197,239052,1,8,0:0:0:0:
177,253,239283,5,8,0:0:0:0:
158,249,239398,1,8,0:3:0:0:
138,246,239513,1,8,0:0:0:0:
308,286,239744,1,8,0:0:0:0:
318,284,239860,1,8,0:0:0:0:
328,282,239975,1,8,0:3:0:0:
468,257,240206,1,8,0:3:0:0:
464,256,240321,1,8,0:3:0:0:
459,256,240437,6,0,P|420:212|416:154,1,120,4|0,0:0|0:0,0:0:0:0:
470,62,240898,2,0,L|467:101,1,40,10|0,0:0|0:0,0:0:0:0:
416,153,241129,1,8,0:3:0:0:
347,37,241360,1,8,0:3:0:0:
338,181,241590,1,2,0:0:0:0:
416,153,241821,1,8,0:0:0:0:
259,21,242052,6,0,P|255:60|271:96,1,80,2|8,0:0|0:3,0:0:0:0:
202,194,242513,2,0,P|205:154|189:118,1,80,2|8,0:0|0:0,0:0:0:0:
271,96,242975,1,10,0:3:0:0:
174,10,243206,2,0,L|135:13,1,40,10|0,0:3|0:0,0:0:0:0:
30,57,243437,2,0,L|70:53,1,40,2|0,0:0|0:0,0:0:0:0:
174,10,243667,2,0,L|135:13,1,40,10|0,0:0|0:0,0:0:0:0:
30,57,243898,2,0,L|70:53,1,40,10|0,0:3|0:0,0:0:0:0:
101,140,244129,1,8,0:3:0:0:
232,244,244590,6,0,L|228:204,1,40,10|0,0:0|0:0,0:0:0:0:
180,295,244821,1,8,0:3:0:0:
336,270,245052,1,8,0:3:0:0:
232,244,245283,1,2,0:0:0:0:
297,373,245513,1,8,0:0:0:0:
430,295,245744,6,0,P|450:261|444:223,1,80,2|8,0:0|0:3,0:0:0:0:
387,125,246206,2,0,L|395:172,1,40,2|0,0:0|0:0,0:0:0:0:
444,223,246437,1,8,0:0:0:0:
502,97,246667,1,10,0:3:0:0:
387,125,246898,70,0,P|347:124|313:103,1,80,2|0,0:0|0:0,0:0:0:0:
293,187,247244,1,10,0:3:0:0:
296,190,247360,2,0,P|335:190|369:211,1,80,8|8,0:0|0:3,0:0:0:0:
224,125,247821,1,8,0:3:0:0:
49,263,248283,6,0,L|53:303,1,40,10|0,0:0|0:0,0:0:0:0:
98,359,248513,1,8,0:3:0:0:
140,237,248744,1,8,0:3:0:0:
98,359,248975,1,2,0:0:0:0:
285,335,249206,1,8,0:0:0:0:
184,381,249437,6,0,P|173:342|183:304,1,80,2|8,0:0|0:3,0:0:0:0:
140,237,249898,2,0,P|150:198|178:170,1,80,2|8,0:0|0:0,0:0:0:0:
183,304,250360,1,10,0:3:0:0:
290,273,250590,6,0,L|330:269,1,40,10|0,0:3|0:0,0:0:0:0:
427,214,250821,2,0,L|387:218,1,40,10|0,0:3|0:0,0:0:0:0:
290,273,251052,2,0,L|330:269,1,40,10|0,0:0|0:0,0:0:0:0:
427,214,251283,2,0,L|387:218,1,40,10|0,0:3|0:0,0:0:0:0:
360,338,251513,1,8,0:3:0:0:
478,127,251975,70,0,L|482:87,1,40,10|0,0:0|0:0,0:0:0:0:
446,24,252206,1,8,0:3:0:0:
498,194,252437,1,8,0:3:0:0:
375,166,252667,2,0,L|370:126,2,40,8|8|8,0:3|0:3|0:0,0:0:0:0:
469,282,253129,1,2,0:0:0:0:
469,282,253360,6,0,B|361:347|345:224|237:302|237:302|208:243|150:253,1,352.000010742188,4|0,0:0|0:0,0:0:0:0:
386,175,254744,1,8,0:3:0:0:
140,92,255206,6,0,B|248:148|264:52|371:111|371:111|334:189|376:217|409:219|409:219|435:162|385:139|356:167|399:182,1,480.000018310548,4|2,0:0|0:0,0:0:0:0:
