osu file format v14

[General]
AudioFilename: audio.mp3
AudioLeadIn: 0
PreviewTime: 57600
Countdown: 1
SampleSet: None
StackLeniency: 0.7
Mode: 3
LetterboxInBreaks: 0
SpecialStyle: 1
WidescreenStoryboard: 0

[Editor]
DistanceSpacing: 1
BeatDivisor: 4
GridSize: 16
TimelineZoom: 1

[Metadata]
Title:Renai Circulation
TitleUnicode:Renai Circulation
Artist:Hanazawa Kana
ArtistUnicode:Hanazawa Kana
Creator:Mysticalia
Version:9k Circulation
Source:
Tags:
BeatmapID:2074241
BeatmapSetID:991838

[Difficulty]
HPDrainRate:7
CircleSize:9
OverallDifficulty:6
ApproachRate:5
SliderMultiplier:1.4
SliderTickRate:1

[Events]
//Background and Video events
0,0,"renai circulation.jpg",0,0
//Break Periods
//Storyboard Layer 0 (Background)
//Storyboard Layer 1 (Fail)
//Storyboard Layer 2 (Pass)
//Storyboard Layer 3 (Foreground)
//Storyboard Sound Samples

[TimingPoints]
1600,500,4,1,0,0,1,0

[HitObjects]
199,192,600,128,0,1100:0:0:0:0:
312,192,1100,1,0,0:0:0:0:
483,192,1350,1,0,0:0:0:0:
312,192,1475,1,0,0:0:0:0:
426,192,1600,128,0,1850:0:0:0:0:
142,192,1600,128,0,2350:0:0:0:0:
199,192,1850,1,0,0:0:0:0:
256,192,1850,1,0,0:0:0:0:
426,192,1975,128,0,2225:0:0:0:0:
312,192,1975,1,0,0:0:0:0:
369,192,2225,128,0,2350:0:0:0:0:
312,192,2225,1,0,0:0:0:0:
199,192,2350,1,0,0:0:0:0:
256,192,2350,1,0,0:0:0:0:
483,192,2600,128,0,2850:0:0:0:0:
199,192,2600,1,0,0:0:0:0:
85,192,2600,128,0,2850:0:0:0:0:
312,192,2850,1,0,0:0:0:0:
256,192,2850,1,0,0:0:0:0:
483,192,2975,128,0,3100:0:0:0:0:
199,192,2975,1,0,0:0:0:0:
85,192,2975,128,0,3100:0:0:0:0:
312,192,3225,1,0,0:0:0:0:
369,192,3350,128,0,3600:0:0:0:0:
256,192,3350,1,0,0:0:0:0:
426,192,3600,128,0,3850:0:0:0:0:
28,192,3600,128,0,4350:0:0:0:0:
199,192,3850,1,0,0:0:0:0:
256,192,3850,1,0,0:0:0:0:
426,192,3975,128,0,4225:0:0:0:0:
312,192,3975,1,0,0:0:0:0:
369,192,4225,128,0,4350:0:0:0:0:
312,192,4225,1,0,0:0:0:0:
199,192,4350,1,0,0:0:0:0:
256,192,4350,1,0,0:0:0:0:
426,192,4600,128,0,4850:0:0:0:0:
142,192,4600,128,0,4850:0:0:0:0:
312,192,4600,1,0,0:0:0:0:
483,192,4850,128,0,4975:0:0:0:0:
256,192,4850,1,0,0:0:0:0:
142,192,4975,128,0,5100:0:0:0:0:
199,192,4975,1,0,0:0:0:0:
312,192,5100,1,0,0:0:0:0:
199,192,5225,1,0,0:0:0:0:
256,192,5350,1,0,0:0:0:0:
483,192,5350,128,0,5475:0:0:0:0:
369,192,5475,128,0,5600:0:0:0:0:
28,192,5600,128,0,6350:0:0:0:0:
426,192,5600,128,0,5725:0:0:0:0:
256,192,5850,1,0,0:0:0:0:
426,192,5850,128,0,5975:0:0:0:0:
199,192,5975,1,0,0:0:0:0:
426,192,6100,128,0,6225:0:0:0:0:
312,192,6225,1,0,0:0:0:0:
369,192,6225,128,0,6350:0:0:0:0:
256,192,6350,1,0,0:0:0:0:
85,192,6600,128,0,6850:0:0:0:0:
199,192,6600,1,0,0:0:0:0:
426,192,6600,128,0,6725:0:0:0:0:
256,192,6850,1,0,0:0:0:0:
312,192,6850,1,0,0:0:0:0:
426,192,6850,128,0,6975:0:0:0:0:
85,192,6975,128,0,7100:0:0:0:0:
199,192,7100,1,0,0:0:0:0:
426,192,7100,128,0,7225:0:0:0:0:
312,192,7225,1,0,0:0:0:0:
483,192,7225,128,0,7350:0:0:0:0:
256,192,7350,1,0,0:0:0:0:
85,192,7600,128,0,8350:0:0:0:0:
426,192,7600,128,0,7725:0:0:0:0:
426,192,7850,128,0,7975:0:0:0:0:
199,192,7850,1,0,0:0:0:0:
312,192,7975,1,0,0:0:0:0:
426,192,8100,128,0,8225:0:0:0:0:
369,192,8225,128,0,8350:0:0:0:0:
312,192,8225,1,0,0:0:0:0:
199,192,8350,1,0,0:0:0:0:
483,192,8600,128,0,8850:0:0:0:0:
256,192,8600,1,0,0:0:0:0:
28,192,8600,128,0,8850:0:0:0:0:
256,192,8850,1,0,0:0:0:0:
199,192,9100,1,0,0:0:0:0:
256,192,9100,1,0,0:0:0:0:
312,192,9100,1,0,0:0:0:0:
312,192,9600,128,0,9850:0:0:0:0:
142,192,9600,1,0,0:0:0:0:
199,192,9600,1,0,0:0:0:0:
256,192,9600,1,0,0:0:0:0:
85,192,9600,128,0,9725:0:0:0:0:
312,192,9975,128,0,10100:0:0:0:0:
199,192,10100,1,0,0:0:0:0:
256,192,10100,1,0,0:0:0:0:
28,192,10100,128,0,10225:0:0:0:0:
369,192,10225,128,0,10350:0:0:0:0:
426,192,10350,128,0,10475:0:0:0:0:
483,192,10600,128,0,10850:0:0:0:0:
256,192,10600,1,0,0:0:0:0:
142,192,10600,128,0,10725:0:0:0:0:
312,192,10850,128,0,10975:0:0:0:0:
256,192,10850,1,0,0:0:0:0:
199,192,11100,1,0,0:0:0:0:
256,192,11100,1,0,0:0:0:0:
85,192,11100,128,0,11225:0:0:0:0:
256,192,11350,128,0,11475:0:0:0:0:
312,192,11475,128,0,11600:0:0:0:0:
369,192,11600,128,0,11850:0:0:0:0:
199,192,11600,1,0,0:0:0:0:
28,192,11600,128,0,11725:0:0:0:0:
312,192,11850,128,0,11975:0:0:0:0:
369,192,11975,128,0,12100:0:0:0:0:
142,192,12100,1,0,0:0:0:0:
256,192,12100,1,0,0:0:0:0:
85,192,12100,128,0,12225:0:0:0:0:
312,192,12225,128,0,12350:0:0:0:0:
426,192,12350,128,0,12475:0:0:0:0:
199,192,12350,1,0,0:0:0:0:
483,192,12600,128,0,12850:0:0:0:0:
256,192,12600,1,0,0:0:0:0:
142,192,12600,128,0,12725:0:0:0:0:
312,192,12850,128,0,12975:0:0:0:0:
256,192,12850,1,0,0:0:0:0:
28,192,13100,1,0,0:0:0:0:
256,192,13100,1,0,0:0:0:0:
85,192,13100,128,0,13225:0:0:0:0:
199,192,13225,1,0,0:0:0:0:
256,192,13350,128,0,13475:0:0:0:0:
369,192,13600,128,0,13850:0:0:0:0:
199,192,13600,1,0,0:0:0:0:
142,192,13600,128,0,13725:0:0:0:0:
256,192,13850,128,0,13975:0:0:0:0:
483,192,13850,1,0,0:0:0:0:
369,192,13975,128,0,14100:0:0:0:0:
426,192,13975,1,0,0:0:0:0:
199,192,14100,1,0,0:0:0:0:
312,192,14100,1,0,0:0:0:0:
28,192,14100,128,0,14225:0:0:0:0:
426,192,14225,1,0,0:0:0:0:
256,192,14350,128,0,14475:0:0:0:0:
483,192,14350,1,0,0:0:0:0:
369,192,14600,128,0,14850:0:0:0:0:
312,192,14600,1,0,0:0:0:0:
142,192,14600,128,0,14725:0:0:0:0:
256,192,14850,128,0,14975:0:0:0:0:
369,192,14975,128,0,15100:0:0:0:0:
312,192,15100,1,0,0:0:0:0:
199,192,15100,1,0,0:0:0:0:
85,192,15100,128,0,15225:0:0:0:0:
256,192,15225,1,0,0:0:0:0:
369,192,15350,128,0,15475:0:0:0:0:
199,192,15350,1,0,0:0:0:0:
142,192,15600,1,0,0:0:0:0:
483,192,15600,128,0,15725:0:0:0:0:
28,192,15600,128,0,15725:0:0:0:0:
426,192,15725,128,0,15850:0:0:0:0:
142,192,15850,1,0,0:0:0:0:
312,192,15975,128,0,16350:0:0:0:0:
199,192,15975,1,0,0:0:0:0:
256,192,16100,1,0,0:0:0:0:
483,192,16100,1,0,0:0:0:0:
85,192,16100,128,0,16225:0:0:0:0:
256,192,16350,128,0,16475:0:0:0:0:
199,192,16350,1,0,0:0:0:0:
369,192,16600,128,0,17100:0:0:0:0:
312,192,16600,1,0,0:0:0:0:
142,192,16600,128,0,16725:0:0:0:0:
312,192,16850,1,0,0:0:0:0:
199,192,16850,1,0,0:0:0:0:
199,192,17100,1,0,0:0:0:0:
312,192,17100,1,0,0:0:0:0:
85,192,17100,128,0,17225:0:0:0:0:
199,192,17600,128,0,17850:0:0:0:0:
369,192,17600,1,0,0:0:0:0:
312,192,17600,1,0,0:0:0:0:
256,192,17600,1,0,0:0:0:0:
426,192,17600,128,0,17725:0:0:0:0:
199,192,17975,128,0,18100:0:0:0:0:
312,192,18100,1,0,0:0:0:0:
256,192,18100,1,0,0:0:0:0:
483,192,18100,128,0,18225:0:0:0:0:
142,192,18225,128,0,18350:0:0:0:0:
85,192,18350,128,0,18475:0:0:0:0:
28,192,18600,128,0,18850:0:0:0:0:
312,192,18600,1,0,0:0:0:0:
256,192,18600,1,0,0:0:0:0:
369,192,18600,128,0,18725:0:0:0:0:
199,192,18850,128,0,18975:0:0:0:0:
256,192,18850,1,0,0:0:0:0:
312,192,19100,1,0,0:0:0:0:
256,192,19100,1,0,0:0:0:0:
426,192,19100,128,0,19225:0:0:0:0:
256,192,19350,128,0,19475:0:0:0:0:
199,192,19475,128,0,19600:0:0:0:0:
142,192,19600,128,0,19850:0:0:0:0:
312,192,19600,1,0,0:0:0:0:
483,192,19600,128,0,19725:0:0:0:0:
199,192,19850,128,0,19975:0:0:0:0:
142,192,19975,128,0,20100:0:0:0:0:
369,192,20100,1,0,0:0:0:0:
256,192,20100,1,0,0:0:0:0:
426,192,20100,128,0,20225:0:0:0:0:
199,192,20225,128,0,20350:0:0:0:0:
85,192,20350,128,0,20475:0:0:0:0:
312,192,20350,1,0,0:0:0:0:
28,192,20600,128,0,20850:0:0:0:0:
256,192,20600,1,0,0:0:0:0:
369,192,20600,128,0,20725:0:0:0:0:
199,192,20850,128,0,20975:0:0:0:0:
256,192,20850,1,0,0:0:0:0:
483,192,21100,1,0,0:0:0:0:
256,192,21100,1,0,0:0:0:0:
426,192,21100,128,0,21225:0:0:0:0:
312,192,21225,1,0,0:0:0:0:
256,192,21350,128,0,21475:0:0:0:0:
142,192,21600,128,0,21850:0:0:0:0:
312,192,21600,1,0,0:0:0:0:
369,192,21600,128,0,21725:0:0:0:0:
256,192,21850,128,0,21975:0:0:0:0:
28,192,21850,1,0,0:0:0:0:
142,192,21975,128,0,22100:0:0:0:0:
85,192,21975,1,0,0:0:0:0:
312,192,22100,1,0,0:0:0:0:
199,192,22100,1,0,0:0:0:0:
483,192,22100,128,0,22225:0:0:0:0:
85,192,22225,1,0,0:0:0:0:
256,192,22350,128,0,22475:0:0:0:0:
28,192,22350,1,0,0:0:0:0:
142,192,22600,128,0,22850:0:0:0:0:
199,192,22600,1,0,0:0:0:0:
369,192,22600,128,0,22725:0:0:0:0:
256,192,22850,128,0,22975:0:0:0:0:
142,192,22975,128,0,23100:0:0:0:0:
199,192,23100,1,0,0:0:0:0:
312,192,23100,1,0,0:0:0:0:
426,192,23100,128,0,23225:0:0:0:0:
256,192,23225,1,0,0:0:0:0:
142,192,23350,128,0,23475:0:0:0:0:
312,192,23350,1,0,0:0:0:0:
369,192,23600,1,0,0:0:0:0:
28,192,23600,128,0,23725:0:0:0:0:
483,192,23600,128,0,23725:0:0:0:0:
85,192,23725,128,0,23850:0:0:0:0:
256,192,23850,1,0,0:0:0:0:
199,192,23975,128,0,24350:0:0:0:0:
312,192,23975,1,0,0:0:0:0:
369,192,24100,1,0,0:0:0:0:
483,192,24100,1,0,0:0:0:0:
426,192,24100,128,0,24225:0:0:0:0:
312,192,24225,1,0,0:0:0:0:
142,192,24350,128,0,24475:0:0:0:0:
256,192,24350,1,0,0:0:0:0:
312,192,24600,1,0,0:0:0:0:
199,192,24600,128,0,25100:0:0:0:0:
369,192,24600,128,0,24725:0:0:0:0:
85,192,24850,1,0,0:0:0:0:
28,192,24850,1,0,0:0:0:0:
256,192,25100,1,0,0:0:0:0:
312,192,25100,1,0,0:0:0:0:
28,192,25600,1,0,0:0:0:0:
85,192,25600,1,0,0:0:0:0:
142,192,25600,1,0,0:0:0:0:
312,192,25600,128,0,26600:0:0:0:0:
199,192,25600,128,0,25725:0:0:0:0:
28,192,25850,1,0,0:0:0:0:
85,192,25975,1,0,0:0:0:0:
142,192,26100,128,0,26225:0:0:0:0:
483,192,26100,1,0,0:0:0:0:
256,192,26100,1,0,0:0:0:0:
85,192,26225,1,0,0:0:0:0:
28,192,26350,1,0,0:0:0:0:
369,192,26600,128,0,27600:0:0:0:0:
256,192,26600,1,0,0:0:0:0:
85,192,26600,128,0,26725:0:0:0:0:
426,192,26850,128,0,27100:0:0:0:0:
256,192,26850,1,0,0:0:0:0:
483,192,27100,128,0,27225:0:0:0:0:
28,192,27100,1,0,0:0:0:0:
256,192,27100,128,0,27225:0:0:0:0:
142,192,27100,1,0,0:0:0:0:
142,192,27350,1,0,0:0:0:0:
426,192,27600,128,0,28600:0:0:0:0:
28,192,27600,128,0,27725:0:0:0:0:
85,192,27600,1,0,0:0:0:0:
312,192,27850,1,0,0:0:0:0:
256,192,27975,1,0,0:0:0:0:
142,192,28100,128,0,28225:0:0:0:0:
199,192,28100,1,0,0:0:0:0:
28,192,28100,1,0,0:0:0:0:
256,192,28225,1,0,0:0:0:0:
312,192,28350,1,0,0:0:0:0:
312,192,28600,128,0,29350:0:0:0:0:
85,192,28600,128,0,28725:0:0:0:0:
256,192,28600,1,0,0:0:0:0:
199,192,28850,128,0,28975:0:0:0:0:
256,192,28850,1,0,0:0:0:0:
369,192,28850,128,0,29100:0:0:0:0:
256,192,29100,1,0,0:0:0:0:
142,192,29100,1,0,0:0:0:0:
426,192,29100,128,0,29225:0:0:0:0:
85,192,29350,1,0,0:0:0:0:
312,192,29600,128,0,30600:0:0:0:0:
28,192,29600,1,0,0:0:0:0:
256,192,29600,128,0,29725:0:0:0:0:
28,192,29850,1,0,0:0:0:0:
85,192,29975,1,0,0:0:0:0:
142,192,30100,128,0,30225:0:0:0:0:
483,192,30100,1,0,0:0:0:0:
256,192,30100,1,0,0:0:0:0:
85,192,30225,1,0,0:0:0:0:
28,192,30350,1,0,0:0:0:0:
369,192,30600,128,0,31600:0:0:0:0:
28,192,30600,128,0,30725:0:0:0:0:
85,192,30600,1,0,0:0:0:0:
256,192,30850,128,0,31100:0:0:0:0:
85,192,30850,1,0,0:0:0:0:
199,192,31100,128,0,31225:0:0:0:0:
312,192,31100,128,0,31225:0:0:0:0:
142,192,31100,1,0,0:0:0:0:
28,192,31100,1,0,0:0:0:0:
85,192,31350,1,0,0:0:0:0:
426,192,31600,128,0,32600:0:0:0:0:
28,192,31600,128,0,31725:0:0:0:0:
256,192,31600,1,0,0:0:0:0:
312,192,31850,1,0,0:0:0:0:
256,192,31975,1,0,0:0:0:0:
142,192,32100,128,0,32225:0:0:0:0:
199,192,32100,1,0,0:0:0:0:
28,192,32100,1,0,0:0:0:0:
256,192,32225,1,0,0:0:0:0:
312,192,32350,1,0,0:0:0:0:
199,192,32475,1,0,0:0:0:0:
312,192,32600,128,0,33350:0:0:0:0:
256,192,32600,128,0,32725:0:0:0:0:
85,192,32600,1,0,0:0:0:0:
483,192,32850,128,0,33100:0:0:0:0:
85,192,32850,1,0,0:0:0:0:
85,192,33100,128,0,33225:0:0:0:0:
256,192,33100,1,0,0:0:0:0:
426,192,33100,128,0,33225:0:0:0:0:
142,192,33100,1,0,0:0:0:0:
369,192,33600,1,0,0:0:0:0:
199,192,33600,128,0,34600:0:0:0:0:
312,192,33600,128,0,33725:0:0:0:0:
426,192,33725,1,0,0:0:0:0:
483,192,33850,1,0,0:0:0:0:
426,192,33975,1,0,0:0:0:0:
369,192,34100,128,0,34225:0:0:0:0:
28,192,34100,1,0,0:0:0:0:
256,192,34100,1,0,0:0:0:0:
426,192,34225,1,0,0:0:0:0:
483,192,34350,1,0,0:0:0:0:
142,192,34600,128,0,35600:0:0:0:0:
256,192,34600,1,0,0:0:0:0:
426,192,34600,128,0,34725:0:0:0:0:
85,192,34850,128,0,35100:0:0:0:0:
256,192,34850,1,0,0:0:0:0:
28,192,35100,128,0,35225:0:0:0:0:
483,192,35100,1,0,0:0:0:0:
256,192,35100,128,0,35225:0:0:0:0:
369,192,35100,1,0,0:0:0:0:
369,192,35350,1,0,0:0:0:0:
85,192,35600,128,0,36600:0:0:0:0:
483,192,35600,128,0,35725:0:0:0:0:
426,192,35600,1,0,0:0:0:0:
199,192,35850,1,0,0:0:0:0:
256,192,35975,1,0,0:0:0:0:
369,192,36100,128,0,36225:0:0:0:0:
312,192,36100,1,0,0:0:0:0:
483,192,36100,1,0,0:0:0:0:
256,192,36225,1,0,0:0:0:0:
199,192,36350,1,0,0:0:0:0:
199,192,36600,128,0,37350:0:0:0:0:
426,192,36600,128,0,36725:0:0:0:0:
256,192,36600,1,0,0:0:0:0:
312,192,36850,128,0,36975:0:0:0:0:
256,192,36850,1,0,0:0:0:0:
142,192,36850,128,0,37100:0:0:0:0:
256,192,37100,1,0,0:0:0:0:
369,192,37100,1,0,0:0:0:0:
85,192,37100,128,0,37225:0:0:0:0:
426,192,37350,1,0,0:0:0:0:
199,192,37600,128,0,38600:0:0:0:0:
483,192,37600,1,0,0:0:0:0:
256,192,37600,128,0,37725:0:0:0:0:
483,192,37850,1,0,0:0:0:0:
426,192,37975,1,0,0:0:0:0:
369,192,38100,128,0,38225:0:0:0:0:
28,192,38100,1,0,0:0:0:0:
256,192,38100,1,0,0:0:0:0:
426,192,38225,1,0,0:0:0:0:
483,192,38350,1,0,0:0:0:0:
142,192,38600,128,0,39600:0:0:0:0:
483,192,38600,128,0,38725:0:0:0:0:
426,192,38600,1,0,0:0:0:0:
256,192,38850,128,0,39100:0:0:0:0:
426,192,38850,1,0,0:0:0:0:
312,192,39100,128,0,39225:0:0:0:0:
199,192,39100,128,0,39225:0:0:0:0:
369,192,39100,1,0,0:0:0:0:
483,192,39100,1,0,0:0:0:0:
426,192,39350,1,0,0:0:0:0:
85,192,39600,128,0,40600:0:0:0:0:
483,192,39600,128,0,39725:0:0:0:0:
256,192,39600,1,0,0:0:0:0:
199,192,39850,1,0,0:0:0:0:
256,192,39975,1,0,0:0:0:0:
369,192,40100,128,0,40225:0:0:0:0:
312,192,40100,1,0,0:0:0:0:
483,192,40100,1,0,0:0:0:0:
256,192,40225,1,0,0:0:0:0:
199,192,40350,1,0,0:0:0:0:
312,192,40475,1,0,0:0:0:0:
199,192,40600,128,0,41350:0:0:0:0:
256,192,40600,128,0,40725:0:0:0:0:
426,192,40600,1,0,0:0:0:0:
28,192,40850,128,0,41100:0:0:0:0:
426,192,40850,1,0,0:0:0:0:
426,192,41100,128,0,41225:0:0:0:0:
256,192,41100,1,0,0:0:0:0:
85,192,41100,128,0,41225:0:0:0:0:
369,192,41100,1,0,0:0:0:0:
312,192,41600,128,0,41850:0:0:0:0:
85,192,41600,1,0,0:0:0:0:
28,192,41600,1,0,0:0:0:0:
256,192,41600,1,0,0:0:0:0:
142,192,41600,128,0,41725:0:0:0:0:
369,192,41850,128,0,42100:0:0:0:0:
199,192,41850,1,0,0:0:0:0:
256,192,41975,1,0,0:0:0:0:
312,192,42100,128,0,42350:0:0:0:0:
85,192,42100,128,0,42225:0:0:0:0:
142,192,42100,1,0,0:0:0:0:
28,192,42100,1,0,0:0:0:0:
199,192,42225,1,0,0:0:0:0:
369,192,42350,128,0,42600:0:0:0:0:
256,192,42350,1,0,0:0:0:0:
426,192,42600,128,0,42850:0:0:0:0:
199,192,42600,128,0,42725:0:0:0:0:
256,192,42600,1,0,0:0:0:0:
256,192,42850,1,0,0:0:0:0:
28,192,43100,128,0,43225:0:0:0:0:
483,192,43100,1,0,0:0:0:0:
142,192,43100,1,0,0:0:0:0:
312,192,43100,128,0,43350:0:0:0:0:
199,192,43225,1,0,0:0:0:0:
369,192,43350,128,0,43600:0:0:0:0:
256,192,43350,1,0,0:0:0:0:
312,192,43600,128,0,43850:0:0:0:0:
85,192,43600,128,0,43725:0:0:0:0:
142,192,43600,1,0,0:0:0:0:
369,192,43850,128,0,44100:0:0:0:0:
256,192,43850,1,0,0:0:0:0:
199,192,43975,1,0,0:0:0:0:
426,192,44100,128,0,44350:0:0:0:0:
28,192,44100,128,0,44225:0:0:0:0:
483,192,44100,1,0,0:0:0:0:
142,192,44100,1,0,0:0:0:0:
199,192,44225,1,0,0:0:0:0:
256,192,44350,1,0,0:0:0:0:
426,192,44600,128,0,44850:0:0:0:0:
199,192,44600,128,0,44725:0:0:0:0:
85,192,44600,1,0,0:0:0:0:
369,192,44850,128,0,45100:0:0:0:0:
85,192,44850,1,0,0:0:0:0:
312,192,45100,128,0,45350:0:0:0:0:
142,192,45100,128,0,45225:0:0:0:0:
256,192,45100,1,0,0:0:0:0:
28,192,45100,1,0,0:0:0:0:
199,192,45225,1,0,0:0:0:0:
426,192,45350,128,0,45600:0:0:0:0:
256,192,45350,1,0,0:0:0:0:
369,192,45600,128,0,45725:0:0:0:0:
483,192,45600,128,0,45725:0:0:0:0:
142,192,45600,1,0,0:0:0:0:
312,192,45725,128,0,45850:0:0:0:0:
142,192,45850,1,0,0:0:0:0:
312,192,45975,128,0,46100:0:0:0:0:
28,192,46100,128,0,46225:0:0:0:0:
85,192,46100,1,0,0:0:0:0:
483,192,46100,1,0,0:0:0:0:
312,192,46225,128,0,46350:0:0:0:0:
256,192,46350,128,0,46475:0:0:0:0:
85,192,46350,1,0,0:0:0:0:
142,192,46600,128,0,46725:0:0:0:0:
426,192,46600,128,0,46725:0:0:0:0:
28,192,46600,1,0,0:0:0:0:
199,192,46725,128,0,46850:0:0:0:0:
28,192,46850,1,0,0:0:0:0:
199,192,46975,128,0,47100:0:0:0:0:
85,192,47100,128,0,47225:0:0:0:0:
483,192,47100,1,0,0:0:0:0:
28,192,47100,1,0,0:0:0:0:
199,192,47225,128,0,47350:0:0:0:0:
426,192,47225,1,0,0:0:0:0:
256,192,47350,128,0,47475:0:0:0:0:
369,192,47350,1,0,0:0:0:0:
312,192,47600,128,0,47850:0:0:0:0:
28,192,47600,128,0,47725:0:0:0:0:
142,192,47600,1,0,0:0:0:0:
369,192,47850,1,0,0:0:0:0:
312,192,47975,128,0,48100:0:0:0:0:
142,192,48100,128,0,48225:0:0:0:0:
483,192,48100,1,0,0:0:0:0:
28,192,48100,1,0,0:0:0:0:
312,192,48225,128,0,48350:0:0:0:0:
256,192,48350,128,0,48475:0:0:0:0:
426,192,48350,1,0,0:0:0:0:
369,192,48600,128,0,48850:0:0:0:0:
199,192,48600,128,0,48725:0:0:0:0:
312,192,48600,1,0,0:0:0:0:
28,192,48850,1,0,0:0:0:0:
483,192,48850,1,0,0:0:0:0:
85,192,49100,128,0,49225:0:0:0:0:
28,192,49100,1,0,0:0:0:0:
256,192,49100,1,0,0:0:0:0:
312,192,49100,128,0,49350:0:0:0:0:
199,192,49600,128,0,49850:0:0:0:0:
426,192,49600,1,0,0:0:0:0:
483,192,49600,1,0,0:0:0:0:
256,192,49600,1,0,0:0:0:0:
369,192,49600,128,0,49725:0:0:0:0:
142,192,49850,128,0,50100:0:0:0:0:
312,192,49850,1,0,0:0:0:0:
256,192,49975,1,0,0:0:0:0:
199,192,50100,128,0,50350:0:0:0:0:
426,192,50100,128,0,50225:0:0:0:0:
369,192,50100,1,0,0:0:0:0:
483,192,50100,1,0,0:0:0:0:
312,192,50225,1,0,0:0:0:0:
142,192,50350,128,0,50600:0:0:0:0:
256,192,50350,1,0,0:0:0:0:
85,192,50600,128,0,50850:0:0:0:0:
312,192,50600,128,0,50725:0:0:0:0:
256,192,50600,1,0,0:0:0:0:
256,192,50850,1,0,0:0:0:0:
483,192,51100,128,0,51225:0:0:0:0:
28,192,51100,1,0,0:0:0:0:
369,192,51100,1,0,0:0:0:0:
199,192,51100,128,0,51350:0:0:0:0:
312,192,51225,1,0,0:0:0:0:
142,192,51350,128,0,51600:0:0:0:0:
256,192,51350,1,0,0:0:0:0:
199,192,51600,128,0,51850:0:0:0:0:
426,192,51600,128,0,51725:0:0:0:0:
369,192,51600,1,0,0:0:0:0:
28,192,51600,128,0,52350:0:0:0:0:
142,192,51850,128,0,52100:0:0:0:0:
256,192,51850,1,0,0:0:0:0:
312,192,51975,1,0,0:0:0:0:
85,192,52100,128,0,52350:0:0:0:0:
483,192,52100,128,0,52225:0:0:0:0:
426,192,52100,1,0,0:0:0:0:
369,192,52100,1,0,0:0:0:0:
312,192,52225,1,0,0:0:0:0:
256,192,52350,1,0,0:0:0:0:
85,192,52600,128,0,52850:0:0:0:0:
312,192,52600,128,0,52725:0:0:0:0:
28,192,52600,1,0,0:0:0:0:
426,192,52600,128,0,53100:0:0:0:0:
142,192,52850,128,0,53100:0:0:0:0:
28,192,52850,1,0,0:0:0:0:
199,192,53100,128,0,53350:0:0:0:0:
369,192,53100,128,0,53225:0:0:0:0:
256,192,53100,1,0,0:0:0:0:
483,192,53100,128,0,53600:0:0:0:0:
28,192,53100,1,0,0:0:0:0:
312,192,53225,1,0,0:0:0:0:
85,192,53350,128,0,53600:0:0:0:0:
256,192,53350,1,0,0:0:0:0:
142,192,53600,128,0,53725:0:0:0:0:
28,192,53600,128,0,53725:0:0:0:0:
369,192,53600,1,0,0:0:0:0:
312,192,53600,128,0,54350:0:0:0:0:
199,192,53725,128,0,53850:0:0:0:0:
369,192,53850,1,0,0:0:0:0:
199,192,53975,128,0,54100:0:0:0:0:
426,192,54100,1,0,0:0:0:0:
28,192,54100,1,0,0:0:0:0:
85,192,54100,128,0,54225:0:0:0:0:
199,192,54225,128,0,54350:0:0:0:0:
256,192,54350,128,0,54475:0:0:0:0:
426,192,54350,1,0,0:0:0:0:
369,192,54600,128,0,54725:0:0:0:0:
426,192,54600,128,0,55600:0:0:0:0:
142,192,54600,128,0,54725:0:0:0:0:
85,192,54600,1,0,0:0:0:0:
312,192,54725,128,0,54850:0:0:0:0:
85,192,54850,1,0,0:0:0:0:
312,192,54975,128,0,55100:0:0:0:0:
28,192,55100,1,0,0:0:0:0:
199,192,55100,128,0,55225:0:0:0:0:
483,192,55100,1,0,0:0:0:0:
312,192,55225,128,0,55350:0:0:0:0:
256,192,55350,128,0,55475:0:0:0:0:
28,192,55350,1,0,0:0:0:0:
85,192,55600,1,0,0:0:0:0:
369,192,55600,128,0,56600:0:0:0:0:
256,192,55600,1,0,0:0:0:0:
142,192,55600,128,0,55725:0:0:0:0:
256,192,55725,128,0,55850:0:0:0:0:
28,192,55850,1,0,0:0:0:0:
85,192,55975,1,0,0:0:0:0:
256,192,55975,128,0,56225:0:0:0:0:
142,192,56100,1,0,0:0:0:0:
426,192,56100,128,0,56225:0:0:0:0:
483,192,56100,1,0,0:0:0:0:
199,192,56225,128,0,56350:0:0:0:0:
85,192,56225,1,0,0:0:0:0:
312,192,56350,128,0,56600:0:0:0:0:
28,192,56350,1,0,0:0:0:0:
85,192,56600,128,0,56975:0:0:0:0:
483,192,56600,128,0,56725:0:0:0:0:
142,192,56600,1,0,0:0:0:0:
256,192,56600,128,0,56725:0:0:0:0:
199,192,56725,128,0,57100:0:0:0:0:
312,192,56850,128,0,57225:0:0:0:0:
142,192,56850,1,0,0:0:0:0:
369,192,56850,1,0,0:0:0:0:
426,192,56975,128,0,57350:0:0:0:0:
483,192,57100,1,0,0:0:0:0:
28,192,57100,1,0,0:0:0:0:
256,192,57100,1,0,0:0:0:0:
85,192,57100,128,0,57600:0:0:0:0:
199,192,57225,128,0,57600:0:0:0:0:
312,192,57350,128,0,57600:0:0:0:0:
426,192,57475,128,0,57600:0:0:0:0:
142,192,57600,128,0,57850:0:0:0:0:
256,192,57600,1,0,0:0:0:0:
369,192,57600,1,0,0:0:0:0:
483,192,57600,128,0,58100:0:0:0:0:
28,192,57600,128,0,57725:0:0:0:0:
256,192,57850,1,0,0:0:0:0:
142,192,57975,128,0,58100:0:0:0:0:
426,192,58100,128,0,58600:0:0:0:0:
28,192,58100,128,0,58225:0:0:0:0:
369,192,58100,1,0,0:0:0:0:
85,192,58100,1,0,0:0:0:0:
199,192,58225,128,0,58350:0:0:0:0:
256,192,58350,128,0,58475:0:0:0:0:
85,192,58350,1,0,0:0:0:0:
28,192,58600,128,0,58725:0:0:0:0:
369,192,58600,128,0,59100:0:0:0:0:
312,192,58600,128,0,58850:0:0:0:0:
142,192,58600,1,0,0:0:0:0:
199,192,58850,128,0,59100:0:0:0:0:
142,192,58850,1,0,0:0:0:0:
426,192,59100,128,0,59225:0:0:0:0:
28,192,59100,128,0,59225:0:0:0:0:
256,192,59100,1,0,0:0:0:0:
142,192,59100,1,0,0:0:0:0:
312,192,59225,1,0,0:0:0:0:
426,192,59350,128,0,59600:0:0:0:0:
85,192,59350,128,0,59475:0:0:0:0:
369,192,59350,1,0,0:0:0:0:
142,192,59475,128,0,59600:0:0:0:0:
312,192,59475,1,0,0:0:0:0:
369,192,59600,128,0,59850:0:0:0:0:
483,192,59600,128,0,59725:0:0:0:0:
199,192,59600,128,0,59850:0:0:0:0:
256,192,59600,1,0,0:0:0:0:
85,192,59850,1,0,0:0:0:0:
312,192,59850,128,0,60100:0:0:0:0:
199,192,59975,128,0,60100:0:0:0:0:
28,192,60100,1,0,0:0:0:0:
483,192,60100,128,0,60225:0:0:0:0:
369,192,60100,128,0,60350:0:0:0:0:
256,192,60100,1,0,0:0:0:0:
199,192,60225,128,0,60350:0:0:0:0:
426,192,60350,128,0,61100:0:0:0:0:
256,192,60350,128,0,60475:0:0:0:0:
483,192,60600,128,0,60725:0:0:0:0:
85,192,60600,1,0,0:0:0:0:
312,192,60600,128,0,60850:0:0:0:0:
85,192,60850,1,0,0:0:0:0:
199,192,60850,128,0,61100:0:0:0:0:
483,192,61100,128,0,61225:0:0:0:0:
28,192,61100,1,0,0:0:0:0:
369,192,61100,1,0,0:0:0:0:
142,192,61100,1,0,0:0:0:0:
312,192,61225,1,0,0:0:0:0:
426,192,61350,128,0,61600:0:0:0:0:
142,192,61350,128,0,61600:0:0:0:0:
256,192,61350,1,0,0:0:0:0:
312,192,61475,1,0,0:0:0:0:
483,192,61600,128,0,62100:0:0:0:0:
199,192,61600,128,0,61850:0:0:0:0:
28,192,61600,128,0,61725:0:0:0:0:
256,192,61600,1,0,0:0:0:0:
369,192,61600,1,0,0:0:0:0:
142,192,61850,128,0,61975:0:0:0:0:
85,192,61850,1,0,0:0:0:0:
369,192,61850,1,0,0:0:0:0:
199,192,61975,128,0,62100:0:0:0:0:
312,192,61975,1,0,0:0:0:0:
426,192,62100,128,0,62600:0:0:0:0:
256,192,62100,1,0,0:0:0:0:
369,192,62100,1,0,0:0:0:0:
28,192,62100,128,0,62225:0:0:0:0:
312,192,62225,1,0,0:0:0:0:
142,192,62350,128,0,62600:0:0:0:0:
256,192,62350,1,0,0:0:0:0:
369,192,62600,128,0,63100:0:0:0:0:
28,192,62600,128,0,62725:0:0:0:0:
199,192,62600,128,0,62850:0:0:0:0:
312,192,62600,1,0,0:0:0:0:
142,192,62850,128,0,62975:0:0:0:0:
426,192,62850,1,0,0:0:0:0:
199,192,62975,128,0,63100:0:0:0:0:
312,192,63100,128,0,63225:0:0:0:0:
256,192,63100,1,0,0:0:0:0:
483,192,63100,1,0,0:0:0:0:
28,192,63100,128,0,63225:0:0:0:0:
142,192,63225,128,0,63350:0:0:0:0:
312,192,63350,128,0,63475:0:0:0:0:
199,192,63350,128,0,63475:0:0:0:0:
312,192,63600,128,0,63850:0:0:0:0:
256,192,63600,128,0,63725:0:0:0:0:
85,192,63600,1,0,0:0:0:0:
199,192,63725,128,0,63975:0:0:0:0:
369,192,63850,128,0,64100:0:0:0:0:
28,192,63850,1,0,0:0:0:0:
142,192,63975,128,0,64350:0:0:0:0:
85,192,63975,1,0,0:0:0:0:
426,192,64100,128,0,64350:0:0:0:0:
256,192,64100,128,0,64225:0:0:0:0:
28,192,64100,1,0,0:0:0:0:
483,192,64100,1,0,0:0:0:0:
369,192,64350,128,0,65100:0:0:0:0:
85,192,64350,128,0,64600:0:0:0:0:
312,192,64350,1,0,0:0:0:0:
199,192,64475,1,0,0:0:0:0:
28,192,64600,128,0,65100:0:0:0:0:
426,192,64600,128,0,64725:0:0:0:0:
312,192,64600,1,0,0:0:0:0:
256,192,64600,128,0,64725:0:0:0:0:
142,192,64850,1,0,0:0:0:0:
483,192,64850,1,0,0:0:0:0:
199,192,64850,128,0,65100:0:0:0:0:
142,192,65100,1,0,0:0:0:0:
483,192,65100,1,0,0:0:0:0:
256,192,65100,128,0,65225:0:0:0:0:
312,192,65100,128,0,65600:0:0:0:0:
426,192,65350,1,0,0:0:0:0:
142,192,65600,128,0,65850:0:0:0:0:
483,192,65600,128,0,66100:0:0:0:0:
28,192,65600,128,0,65725:0:0:0:0:
369,192,65600,1,0,0:0:0:0:
256,192,65850,1,0,0:0:0:0:
142,192,65975,128,0,66100:0:0:0:0:
369,192,66100,1,0,0:0:0:0:
85,192,66100,1,0,0:0:0:0:
426,192,66100,128,0,66600:0:0:0:0:
28,192,66100,128,0,66225:0:0:0:0:
199,192,66225,128,0,66350:0:0:0:0:
85,192,66350,1,0,0:0:0:0:
256,192,66350,128,0,66475:0:0:0:0:
312,192,66600,128,0,66850:0:0:0:0:
142,192,66600,1,0,0:0:0:0:
28,192,66600,128,0,66725:0:0:0:0:
369,192,66600,128,0,67100:0:0:0:0:
142,192,66850,1,0,0:0:0:0:
199,192,66850,128,0,67100:0:0:0:0:
256,192,67100,1,0,0:0:0:0:
142,192,67100,1,0,0:0:0:0:
426,192,67100,128,0,67225:0:0:0:0:
28,192,67100,128,0,67225:0:0:0:0:
85,192,67350,128,0,67475:0:0:0:0:
426,192,67350,128,0,67600:0:0:0:0:
142,192,67475,128,0,67600:0:0:0:0:
199,192,67600,128,0,67850:0:0:0:0:
369,192,67600,128,0,67850:0:0:0:0:
483,192,67600,128,0,67725:0:0:0:0:
28,192,67600,1,0,0:0:0:0:
312,192,67850,128,0,68100:0:0:0:0:
142,192,67850,1,0,0:0:0:0:
199,192,67975,128,0,68100:0:0:0:0:
85,192,67975,1,0,0:0:0:0:
369,192,68100,128,0,68350:0:0:0:0:
28,192,68100,1,0,0:0:0:0:
483,192,68100,128,0,68225:0:0:0:0:
142,192,68100,1,0,0:0:0:0:
199,192,68225,128,0,68350:0:0:0:0:
85,192,68225,1,0,0:0:0:0:
256,192,68350,128,0,68475:0:0:0:0:
426,192,68350,128,0,69100:0:0:0:0:
142,192,68350,1,0,0:0:0:0:
28,192,68475,1,0,0:0:0:0:
312,192,68600,128,0,68850:0:0:0:0:
85,192,68600,1,0,0:0:0:0:
483,192,68600,128,0,68725:0:0:0:0:
199,192,68850,128,0,69100:0:0:0:0:
85,192,68850,1,0,0:0:0:0:
369,192,69100,1,0,0:0:0:0:
483,192,69100,128,0,69225:0:0:0:0:
28,192,69100,1,0,0:0:0:0:
256,192,69225,1,0,0:0:0:0:
142,192,69350,128,0,69600:0:0:0:0:
426,192,69350,128,0,69600:0:0:0:0:
312,192,69350,1,0,0:0:0:0:
256,192,69600,1,0,0:0:0:0:
369,192,69600,1,0,0:0:0:0:
28,192,69600,128,0,69725:0:0:0:0:
483,192,69600,128,0,70100:0:0:0:0:
199,192,69600,128,0,69850:0:0:0:0:
142,192,69850,128,0,69975:0:0:0:0:
312,192,69850,1,0,0:0:0:0:
199,192,69975,128,0,70100:0:0:0:0:
369,192,69975,1,0,0:0:0:0:
28,192,70100,128,0,70225:0:0:0:0:
426,192,70100,128,0,70600:0:0:0:0:
256,192,70100,1,0,0:0:0:0:
312,192,70100,1,0,0:0:0:0:
369,192,70225,1,0,0:0:0:0:
312,192,70350,1,0,0:0:0:0:
142,192,70350,128,0,70600:0:0:0:0:
28,192,70600,128,0,70725:0:0:0:0:
199,192,70600,128,0,70850:0:0:0:0:
369,192,70600,128,0,71100:0:0:0:0:
256,192,70600,1,0,0:0:0:0:
142,192,70850,128,0,70975:0:0:0:0:
256,192,70850,1,0,0:0:0:0:
199,192,70975,128,0,71100:0:0:0:0:
483,192,71100,1,0,0:0:0:0:
28,192,71100,128,0,71225:0:0:0:0:
256,192,71100,1,0,0:0:0:0:
426,192,71100,128,0,71600:0:0:0:0:
142,192,71225,128,0,71350:0:0:0:0:
199,192,71350,128,0,71475:0:0:0:0:
256,192,71600,128,0,71725:0:0:0:0:
369,192,71600,128,0,72600:0:0:0:0:
28,192,71600,128,0,71725:0:0:0:0:
312,192,71600,1,0,0:0:0:0:
199,192,71725,128,0,71975:0:0:0:0:
312,192,71850,1,0,0:0:0:0:
142,192,71975,128,0,72350:0:0:0:0:
256,192,72100,1,0,0:0:0:0:
483,192,72100,1,0,0:0:0:0:
85,192,72100,128,0,72225:0:0:0:0:
199,192,72350,128,0,72600:0:0:0:0:
312,192,72350,1,0,0:0:0:0:
142,192,72600,128,0,73100:0:0:0:0:
483,192,72600,128,0,72725:0:0:0:0:
256,192,72600,1,0,0:0:0:0:
426,192,72600,1,0,0:0:0:0:
256,192,72850,1,0,0:0:0:0:
256,192,73100,1,0,0:0:0:0:
369,192,73100,1,0,0:0:0:0:
483,192,73100,1,0,0:0:0:0:
28,192,73100,128,0,73225:0:0:0:0:
312,192,73350,1,0,0:0:0:0:
199,192,73475,1,0,0:0:0:0:
426,192,73600,128,0,73850:0:0:0:0:
142,192,73600,128,0,74350:0:0:0:0:
256,192,73600,1,0,0:0:0:0:
85,192,73600,1,0,0:0:0:0:
28,192,73600,1,0,0:0:0:0:
199,192,73850,1,0,0:0:0:0:
426,192,73975,128,0,74225:0:0:0:0:
256,192,73975,1,0,0:0:0:0:
28,192,74100,1,0,0:0:0:0:
312,192,74100,1,0,0:0:0:0:
369,192,74225,128,0,74350:0:0:0:0:
256,192,74225,1,0,0:0:0:0:
199,192,74350,1,0,0:0:0:0:
483,192,74600,128,0,74850:0:0:0:0:
199,192,74600,1,0,0:0:0:0:
85,192,74600,128,0,74850:0:0:0:0:
312,192,74850,1,0,0:0:0:0:
256,192,74850,1,0,0:0:0:0:
483,192,74975,128,0,75100:0:0:0:0:
199,192,74975,1,0,0:0:0:0:
85,192,74975,128,0,75100:0:0:0:0:
256,192,75100,1,0,0:0:0:0:
312,192,75100,1,0,0:0:0:0:
199,192,75225,1,0,0:0:0:0:
369,192,75350,128,0,75600:0:0:0:0:
256,192,75350,1,0,0:0:0:0:
426,192,75600,128,0,75850:0:0:0:0:
28,192,75600,128,0,76350:0:0:0:0:
199,192,75600,1,0,0:0:0:0:
312,192,75850,1,0,0:0:0:0:
426,192,75975,128,0,76225:0:0:0:0:
256,192,75975,1,0,0:0:0:0:
85,192,76100,1,0,0:0:0:0:
199,192,76100,1,0,0:0:0:0:
369,192,76225,128,0,76350:0:0:0:0:
256,192,76225,1,0,0:0:0:0:
312,192,76350,1,0,0:0:0:0:
426,192,76600,128,0,76850:0:0:0:0:
142,192,76600,128,0,76850:0:0:0:0:
312,192,76600,1,0,0:0:0:0:
483,192,76850,128,0,76975:0:0:0:0:
256,192,76850,1,0,0:0:0:0:
199,192,76850,1,0,0:0:0:0:
142,192,76975,128,0,77100:0:0:0:0:
312,192,76975,1,0,0:0:0:0:
256,192,77100,1,0,0:0:0:0:
199,192,77100,1,0,0:0:0:0:
312,192,77225,1,0,0:0:0:0:
256,192,77350,1,0,0:0:0:0:
483,192,77350,128,0,77475:0:0:0:0:
369,192,77475,128,0,77600:0:0:0:0:
28,192,77600,128,0,78350:0:0:0:0:
426,192,77600,128,0,77725:0:0:0:0:
199,192,77600,1,0,0:0:0:0:
256,192,77850,1,0,0:0:0:0:
426,192,77850,128,0,77975:0:0:0:0:
199,192,77975,1,0,0:0:0:0:
426,192,78100,128,0,78225:0:0:0:0:
256,192,78100,1,0,0:0:0:0:
142,192,78100,1,0,0:0:0:0:
312,192,78225,1,0,0:0:0:0:
369,192,78225,128,0,78350:0:0:0:0:
256,192,78350,1,0,0:0:0:0:
85,192,78600,128,0,78850:0:0:0:0:
199,192,78600,1,0,0:0:0:0:
426,192,78600,128,0,78725:0:0:0:0:
426,192,78850,128,0,78975:0:0:0:0:
85,192,78975,128,0,79100:0:0:0:0:
199,192,79100,1,0,0:0:0:0:
426,192,79100,128,0,79225:0:0:0:0:
369,192,79100,1,0,0:0:0:0:
312,192,79225,1,0,0:0:0:0:
483,192,79225,128,0,79350:0:0:0:0:
256,192,79350,1,0,0:0:0:0:
85,192,79600,128,0,80350:0:0:0:0:
426,192,79600,128,0,79725:0:0:0:0:
312,192,79600,1,0,0:0:0:0:
426,192,79850,128,0,79975:0:0:0:0:
199,192,79850,1,0,0:0:0:0:
312,192,79975,1,0,0:0:0:0:
426,192,80100,128,0,80225:0:0:0:0:
256,192,80100,1,0,0:0:0:0:
142,192,80100,1,0,0:0:0:0:
369,192,80225,128,0,80350:0:0:0:0:
312,192,80225,1,0,0:0:0:0:
199,192,80350,1,0,0:0:0:0:
483,192,80600,128,0,80850:0:0:0:0:
256,192,80600,1,0,0:0:0:0:
28,192,80600,128,0,80725:0:0:0:0:
256,192,80850,1,0,0:0:0:0:
312,192,80850,1,0,0:0:0:0:
256,192,81100,1,0,0:0:0:0:
426,192,81100,128,0,81350:0:0:0:0:
369,192,81100,1,0,0:0:0:0:
142,192,81100,1,0,0:0:0:0:
256,192,81350,128,0,81600:0:0:0:0:
85,192,81600,128,0,81850:0:0:0:0:
369,192,81600,128,0,82350:0:0:0:0:
426,192,81600,1,0,0:0:0:0:
483,192,81600,1,0,0:0:0:0:
312,192,81850,1,0,0:0:0:0:
85,192,81975,128,0,82225:0:0:0:0:
256,192,81975,1,0,0:0:0:0:
483,192,82100,1,0,0:0:0:0:
199,192,82100,1,0,0:0:0:0:
142,192,82225,128,0,82350:0:0:0:0:
256,192,82225,1,0,0:0:0:0:
312,192,82350,1,0,0:0:0:0:
28,192,82600,128,0,82850:0:0:0:0:
312,192,82600,1,0,0:0:0:0:
426,192,82600,128,0,82850:0:0:0:0:
199,192,82850,1,0,0:0:0:0:
256,192,82850,1,0,0:0:0:0:
28,192,82975,128,0,83100:0:0:0:0:
312,192,82975,1,0,0:0:0:0:
426,192,82975,128,0,83100:0:0:0:0:
256,192,83100,1,0,0:0:0:0:
199,192,83100,1,0,0:0:0:0:
312,192,83225,1,0,0:0:0:0:
142,192,83350,128,0,83600:0:0:0:0:
256,192,83350,1,0,0:0:0:0:
85,192,83600,128,0,83850:0:0:0:0:
483,192,83600,128,0,84350:0:0:0:0:
312,192,83600,1,0,0:0:0:0:
199,192,83850,1,0,0:0:0:0:
85,192,83975,128,0,84225:0:0:0:0:
256,192,83975,1,0,0:0:0:0:
426,192,84100,1,0,0:0:0:0:
312,192,84100,1,0,0:0:0:0:
142,192,84225,128,0,84350:0:0:0:0:
256,192,84225,1,0,0:0:0:0:
199,192,84350,1,0,0:0:0:0:
85,192,84600,128,0,84850:0:0:0:0:
369,192,84600,128,0,84850:0:0:0:0:
199,192,84600,1,0,0:0:0:0:
28,192,84850,128,0,84975:0:0:0:0:
256,192,84850,1,0,0:0:0:0:
312,192,84850,1,0,0:0:0:0:
369,192,84975,128,0,85100:0:0:0:0:
199,192,84975,1,0,0:0:0:0:
256,192,85100,1,0,0:0:0:0:
312,192,85100,1,0,0:0:0:0:
199,192,85225,1,0,0:0:0:0:
256,192,85350,1,0,0:0:0:0:
28,192,85350,128,0,85475:0:0:0:0:
142,192,85475,128,0,85600:0:0:0:0:
483,192,85600,128,0,86350:0:0:0:0:
312,192,85600,1,0,0:0:0:0:
85,192,85600,128,0,85850:0:0:0:0:
256,192,85850,1,0,0:0:0:0:
312,192,85975,1,0,0:0:0:0:
85,192,85975,128,0,86100:0:0:0:0:
256,192,86100,1,0,0:0:0:0:
369,192,86100,1,0,0:0:0:0:
199,192,86225,1,0,0:0:0:0:
85,192,86225,128,0,86350:0:0:0:0:
256,192,86350,1,0,0:0:0:0:
28,192,86350,128,0,86600:0:0:0:0:
426,192,86600,128,0,86850:0:0:0:0:
312,192,86600,1,0,0:0:0:0:
85,192,86600,128,0,86850:0:0:0:0:
256,192,86850,1,0,0:0:0:0:
426,192,86975,128,0,87100:0:0:0:0:
85,192,86975,128,0,87100:0:0:0:0:
199,192,86975,1,0,0:0:0:0:
312,192,87100,1,0,0:0:0:0:
142,192,87100,1,0,0:0:0:0:
199,192,87225,1,0,0:0:0:0:
85,192,87225,128,0,87350:0:0:0:0:
256,192,87350,1,0,0:0:0:0:
28,192,87350,128,0,87600:0:0:0:0:
426,192,87600,128,0,88350:0:0:0:0:
85,192,87600,128,0,87725:0:0:0:0:
199,192,87600,1,0,0:0:0:0:
85,192,87850,128,0,87975:0:0:0:0:
312,192,87850,1,0,0:0:0:0:
199,192,87975,1,0,0:0:0:0:
85,192,88100,128,0,88225:0:0:0:0:
256,192,88100,1,0,0:0:0:0:
369,192,88100,1,0,0:0:0:0:
312,192,88225,1,0,0:0:0:0:
142,192,88225,128,0,88350:0:0:0:0:
256,192,88350,1,0,0:0:0:0:
199,192,88350,128,0,88600:0:0:0:0:
28,192,88600,128,0,88850:0:0:0:0:
256,192,88600,1,0,0:0:0:0:
483,192,88600,128,0,88725:0:0:0:0:
256,192,88850,1,0,0:0:0:0:
199,192,88850,1,0,0:0:0:0:
142,192,89100,1,0,0:0:0:0:
85,192,89100,1,0,0:0:0:0:
312,192,89100,128,0,89350:0:0:0:0:
28,192,89350,1,0,0:0:0:0:
312,192,89600,128,0,89850:0:0:0:0:
142,192,89600,1,0,0:0:0:0:
199,192,89600,1,0,0:0:0:0:
256,192,89600,1,0,0:0:0:0:
85,192,89600,128,0,89725:0:0:0:0:
312,192,89975,128,0,90100:0:0:0:0:
256,192,90100,1,0,0:0:0:0:
28,192,90100,128,0,90225:0:0:0:0:
142,192,90100,1,0,0:0:0:0:
369,192,90225,128,0,90350:0:0:0:0:
426,192,90350,128,0,90475:0:0:0:0:
199,192,90350,1,0,0:0:0:0:
483,192,90600,128,0,90850:0:0:0:0:
256,192,90600,1,0,0:0:0:0:
142,192,90600,128,0,90725:0:0:0:0:
312,192,90850,128,0,90975:0:0:0:0:
256,192,90850,1,0,0:0:0:0:
199,192,91100,1,0,0:0:0:0:
256,192,91100,1,0,0:0:0:0:
85,192,91100,128,0,91225:0:0:0:0:
256,192,91350,128,0,91475:0:0:0:0:
312,192,91475,128,0,91600:0:0:0:0:
369,192,91600,128,0,91850:0:0:0:0:
199,192,91600,1,0,0:0:0:0:
28,192,91600,128,0,91725:0:0:0:0:
312,192,91850,128,0,91975:0:0:0:0:
199,192,91850,1,0,0:0:0:0:
369,192,91975,128,0,92100:0:0:0:0:
142,192,92100,1,0,0:0:0:0:
256,192,92100,1,0,0:0:0:0:
85,192,92100,128,0,92225:0:0:0:0:
312,192,92225,128,0,92350:0:0:0:0:
426,192,92350,128,0,92475:0:0:0:0:
199,192,92350,1,0,0:0:0:0:
483,192,92600,128,0,92850:0:0:0:0:
256,192,92600,1,0,0:0:0:0:
142,192,92600,128,0,92725:0:0:0:0:
312,192,92850,128,0,92975:0:0:0:0:
256,192,92850,1,0,0:0:0:0:
28,192,93100,1,0,0:0:0:0:
256,192,93100,1,0,0:0:0:0:
85,192,93100,128,0,93225:0:0:0:0:
199,192,93225,1,0,0:0:0:0:
256,192,93350,128,0,93475:0:0:0:0:
369,192,93600,128,0,93850:0:0:0:0:
199,192,93600,1,0,0:0:0:0:
142,192,93600,128,0,93725:0:0:0:0:
256,192,93850,128,0,93975:0:0:0:0:
483,192,93850,1,0,0:0:0:0:
369,192,93975,128,0,94100:0:0:0:0:
426,192,93975,1,0,0:0:0:0:
199,192,94100,1,0,0:0:0:0:
312,192,94100,1,0,0:0:0:0:
28,192,94100,128,0,94225:0:0:0:0:
426,192,94225,1,0,0:0:0:0:
256,192,94350,128,0,94475:0:0:0:0:
483,192,94350,1,0,0:0:0:0:
369,192,94600,128,0,94850:0:0:0:0:
312,192,94600,1,0,0:0:0:0:
142,192,94600,128,0,94725:0:0:0:0:
256,192,94850,128,0,94975:0:0:0:0:
369,192,94975,128,0,95100:0:0:0:0:
312,192,95100,1,0,0:0:0:0:
199,192,95100,1,0,0:0:0:0:
85,192,95100,128,0,95225:0:0:0:0:
256,192,95225,1,0,0:0:0:0:
369,192,95350,128,0,95475:0:0:0:0:
199,192,95350,1,0,0:0:0:0:
142,192,95600,1,0,0:0:0:0:
483,192,95600,128,0,95725:0:0:0:0:
28,192,95600,128,0,95725:0:0:0:0:
426,192,95725,128,0,95850:0:0:0:0:
142,192,95850,1,0,0:0:0:0:
312,192,95975,128,0,96350:0:0:0:0:
199,192,95975,1,0,0:0:0:0:
256,192,96100,1,0,0:0:0:0:
483,192,96100,1,0,0:0:0:0:
85,192,96100,128,0,96225:0:0:0:0:
256,192,96350,128,0,96475:0:0:0:0:
199,192,96350,1,0,0:0:0:0:
369,192,96600,128,0,97100:0:0:0:0:
312,192,96600,1,0,0:0:0:0:
142,192,96600,128,0,96725:0:0:0:0:
312,192,96850,1,0,0:0:0:0:
199,192,96850,1,0,0:0:0:0:
199,192,97100,1,0,0:0:0:0:
312,192,97100,1,0,0:0:0:0:
85,192,97100,128,0,97225:0:0:0:0:
199,192,97600,128,0,97850:0:0:0:0:
369,192,97600,1,0,0:0:0:0:
312,192,97600,1,0,0:0:0:0:
256,192,97600,1,0,0:0:0:0:
426,192,97600,128,0,97725:0:0:0:0:
199,192,97975,128,0,98100:0:0:0:0:
312,192,98100,1,0,0:0:0:0:
256,192,98100,1,0,0:0:0:0:
483,192,98100,128,0,98225:0:0:0:0:
142,192,98225,128,0,98350:0:0:0:0:
85,192,98350,128,0,98475:0:0:0:0:
28,192,98600,128,0,98850:0:0:0:0:
312,192,98600,1,0,0:0:0:0:
256,192,98600,1,0,0:0:0:0:
369,192,98600,128,0,98725:0:0:0:0:
199,192,98850,128,0,98975:0:0:0:0:
256,192,98850,1,0,0:0:0:0:
312,192,99100,1,0,0:0:0:0:
256,192,99100,1,0,0:0:0:0:
426,192,99100,128,0,99225:0:0:0:0:
256,192,99350,128,0,99475:0:0:0:0:
199,192,99475,128,0,99600:0:0:0:0:
142,192,99600,128,0,99850:0:0:0:0:
312,192,99600,1,0,0:0:0:0:
483,192,99600,128,0,99725:0:0:0:0:
199,192,99850,128,0,99975:0:0:0:0:
312,192,99850,1,0,0:0:0:0:
142,192,99975,128,0,100100:0:0:0:0:
369,192,100100,1,0,0:0:0:0:
256,192,100100,1,0,0:0:0:0:
426,192,100100,128,0,100225:0:0:0:0:
199,192,100225,128,0,100350:0:0:0:0:
85,192,100350,128,0,100475:0:0:0:0:
312,192,100350,1,0,0:0:0:0:
28,192,100600,128,0,100850:0:0:0:0:
256,192,100600,1,0,0:0:0:0:
369,192,100600,128,0,100725:0:0:0:0:
199,192,100850,128,0,100975:0:0:0:0:
256,192,100850,1,0,0:0:0:0:
483,192,101100,1,0,0:0:0:0:
256,192,101100,1,0,0:0:0:0:
426,192,101100,128,0,101225:0:0:0:0:
312,192,101225,1,0,0:0:0:0:
256,192,101350,128,0,101475:0:0:0:0:
142,192,101600,128,0,101850:0:0:0:0:
312,192,101600,1,0,0:0:0:0:
369,192,101600,128,0,101725:0:0:0:0:
256,192,101850,128,0,101975:0:0:0:0:
28,192,101850,1,0,0:0:0:0:
142,192,101975,128,0,102100:0:0:0:0:
85,192,101975,1,0,0:0:0:0:
312,192,102100,1,0,0:0:0:0:
199,192,102100,1,0,0:0:0:0:
483,192,102100,128,0,102225:0:0:0:0:
85,192,102225,1,0,0:0:0:0:
256,192,102350,128,0,102475:0:0:0:0:
28,192,102350,1,0,0:0:0:0:
142,192,102600,128,0,102850:0:0:0:0:
199,192,102600,1,0,0:0:0:0:
369,192,102600,128,0,102725:0:0:0:0:
256,192,102850,128,0,102975:0:0:0:0:
142,192,102975,128,0,103100:0:0:0:0:
199,192,103100,1,0,0:0:0:0:
312,192,103100,1,0,0:0:0:0:
426,192,103100,128,0,103225:0:0:0:0:
256,192,103225,1,0,0:0:0:0:
142,192,103350,128,0,103475:0:0:0:0:
312,192,103350,1,0,0:0:0:0:
369,192,103600,1,0,0:0:0:0:
28,192,103600,128,0,103725:0:0:0:0:
483,192,103600,128,0,103725:0:0:0:0:
85,192,103725,128,0,103850:0:0:0:0:
256,192,103850,1,0,0:0:0:0:
199,192,103975,128,0,104350:0:0:0:0:
312,192,103975,1,0,0:0:0:0:
369,192,104100,1,0,0:0:0:0:
483,192,104100,1,0,0:0:0:0:
426,192,104100,128,0,104225:0:0:0:0:
312,192,104225,1,0,0:0:0:0:
142,192,104350,128,0,104475:0:0:0:0:
256,192,104350,1,0,0:0:0:0:
312,192,104600,1,0,0:0:0:0:
199,192,104600,128,0,105100:0:0:0:0:
369,192,104600,128,0,104725:0:0:0:0:
85,192,104850,1,0,0:0:0:0:
28,192,104850,1,0,0:0:0:0:
256,192,105100,1,0,0:0:0:0:
312,192,105100,1,0,0:0:0:0:
312,192,105600,128,0,106600:0:0:0:0:
142,192,105600,128,0,105725:0:0:0:0:
28,192,106100,128,0,106225:0:0:0:0:
369,192,106600,128,0,107600:0:0:0:0:
199,192,106600,128,0,106725:0:0:0:0:
85,192,107100,1,0,0:0:0:0:
256,192,107100,1,0,0:0:0:0:
142,192,107100,128,0,107225:0:0:0:0:
312,192,107350,1,0,0:0:0:0:
426,192,107600,128,0,108600:0:0:0:0:
28,192,107600,1,0,0:0:0:0:
199,192,107600,128,0,107725:0:0:0:0:
142,192,107850,1,0,0:0:0:0:
85,192,107975,1,0,0:0:0:0:
199,192,108100,1,0,0:0:0:0:
28,192,108100,1,0,0:0:0:0:
256,192,108100,128,0,108225:0:0:0:0:
85,192,108225,1,0,0:0:0:0:
142,192,108350,1,0,0:0:0:0:
312,192,108600,128,0,109350:0:0:0:0:
28,192,108600,1,0,0:0:0:0:
85,192,108600,128,0,108725:0:0:0:0:
426,192,108850,128,0,109100:0:0:0:0:
199,192,108850,1,0,0:0:0:0:
483,192,109100,128,0,109225:0:0:0:0:
256,192,109100,1,0,0:0:0:0:
28,192,109100,1,0,0:0:0:0:
142,192,109100,128,0,109225:0:0:0:0:
369,192,109350,1,0,0:0:0:0:
312,192,109600,128,0,110600:0:0:0:0:
483,192,109600,1,0,0:0:0:0:
199,192,109600,128,0,109725:0:0:0:0:
369,192,109850,1,0,0:0:0:0:
426,192,109975,1,0,0:0:0:0:
256,192,110100,1,0,0:0:0:0:
483,192,110100,1,0,0:0:0:0:
28,192,110100,128,0,110225:0:0:0:0:
85,192,110225,1,0,0:0:0:0:
199,192,110350,1,0,0:0:0:0:
369,192,110600,128,0,111600:0:0:0:0:
483,192,110600,1,0,0:0:0:0:
142,192,110600,128,0,110725:0:0:0:0:
426,192,110850,1,0,0:0:0:0:
256,192,110850,128,0,110975:0:0:0:0:
312,192,111100,128,0,111225:0:0:0:0:
483,192,111100,1,0,0:0:0:0:
142,192,111100,1,0,0:0:0:0:
85,192,111100,128,0,111225:0:0:0:0:
199,192,111350,1,0,0:0:0:0:
426,192,111600,128,0,112600:0:0:0:0:
256,192,111600,1,0,0:0:0:0:
28,192,111600,128,0,111725:0:0:0:0:
199,192,111850,1,0,0:0:0:0:
312,192,111975,1,0,0:0:0:0:
256,192,112100,1,0,0:0:0:0:
85,192,112100,1,0,0:0:0:0:
142,192,112100,128,0,112225:0:0:0:0:
312,192,112225,1,0,0:0:0:0:
199,192,112350,1,0,0:0:0:0:
312,192,112600,128,0,113350:0:0:0:0:
256,192,112600,1,0,0:0:0:0:
199,192,112600,128,0,112725:0:0:0:0:
85,192,112850,1,0,0:0:0:0:
483,192,112850,128,0,113100:0:0:0:0:
426,192,113100,128,0,113225:0:0:0:0:
256,192,113100,1,0,0:0:0:0:
28,192,113100,1,0,0:0:0:0:
199,192,113600,128,0,114600:0:0:0:0:
256,192,113600,1,0,0:0:0:0:
369,192,113600,128,0,113725:0:0:0:0:
142,192,113850,1,0,0:0:0:0:
85,192,113975,1,0,0:0:0:0:
28,192,114100,1,0,0:0:0:0:
256,192,114100,1,0,0:0:0:0:
483,192,114100,128,0,114225:0:0:0:0:
85,192,114225,1,0,0:0:0:0:
142,192,114350,1,0,0:0:0:0:
142,192,114600,128,0,115600:0:0:0:0:
256,192,114600,1,0,0:0:0:0:
312,192,114600,128,0,114725:0:0:0:0:
256,192,114850,1,0,0:0:0:0:
426,192,115100,1,0,0:0:0:0:
256,192,115100,1,0,0:0:0:0:
369,192,115100,128,0,115225:0:0:0:0:
199,192,115350,1,0,0:0:0:0:
85,192,115600,128,0,116600:0:0:0:0:
483,192,115600,1,0,0:0:0:0:
312,192,115600,128,0,115725:0:0:0:0:
369,192,115850,1,0,0:0:0:0:
426,192,115975,1,0,0:0:0:0:
312,192,116100,1,0,0:0:0:0:
483,192,116100,1,0,0:0:0:0:
256,192,116100,128,0,116225:0:0:0:0:
426,192,116225,1,0,0:0:0:0:
369,192,116350,1,0,0:0:0:0:
199,192,116600,128,0,117350:0:0:0:0:
483,192,116600,1,0,0:0:0:0:
426,192,116600,128,0,116725:0:0:0:0:
85,192,116850,128,0,117100:0:0:0:0:
312,192,116850,1,0,0:0:0:0:
28,192,117100,128,0,117225:0:0:0:0:
256,192,117100,1,0,0:0:0:0:
483,192,117100,1,0,0:0:0:0:
369,192,117100,128,0,117225:0:0:0:0:
142,192,117350,1,0,0:0:0:0:
199,192,117600,128,0,118600:0:0:0:0:
28,192,117600,1,0,0:0:0:0:
312,192,117600,128,0,117725:0:0:0:0:
142,192,117850,1,0,0:0:0:0:
85,192,117975,1,0,0:0:0:0:
256,192,118100,1,0,0:0:0:0:
28,192,118100,1,0,0:0:0:0:
483,192,118100,128,0,118225:0:0:0:0:
426,192,118225,1,0,0:0:0:0:
312,192,118350,1,0,0:0:0:0:
142,192,118600,128,0,119600:0:0:0:0:
28,192,118600,1,0,0:0:0:0:
369,192,118600,128,0,118725:0:0:0:0:
85,192,118850,1,0,0:0:0:0:
256,192,118850,128,0,119100:0:0:0:0:
199,192,119100,128,0,119225:0:0:0:0:
28,192,119100,1,0,0:0:0:0:
369,192,119100,1,0,0:0:0:0:
426,192,119100,128,0,119225:0:0:0:0:
312,192,119350,1,0,0:0:0:0:
85,192,119600,128,0,120600:0:0:0:0:
256,192,119600,1,0,0:0:0:0:
483,192,119600,128,0,119725:0:0:0:0:
312,192,119850,1,0,0:0:0:0:
199,192,119975,1,0,0:0:0:0:
256,192,120100,1,0,0:0:0:0:
426,192,120100,1,0,0:0:0:0:
369,192,120100,128,0,120225:0:0:0:0:
199,192,120225,1,0,0:0:0:0:
312,192,120350,1,0,0:0:0:0:
199,192,120600,128,0,121350:0:0:0:0:
256,192,120600,1,0,0:0:0:0:
312,192,120600,128,0,120725:0:0:0:0:
28,192,120850,128,0,121100:0:0:0:0:
426,192,120850,1,0,0:0:0:0:
85,192,121100,128,0,121225:0:0:0:0:
256,192,121100,1,0,0:0:0:0:
483,192,121100,1,0,0:0:0:0:
369,192,121350,1,0,0:0:0:0:
312,192,121600,128,0,121850:0:0:0:0:
85,192,121600,1,0,0:0:0:0:
28,192,121600,1,0,0:0:0:0:
256,192,121600,1,0,0:0:0:0:
142,192,121600,128,0,121725:0:0:0:0:
369,192,121850,128,0,122100:0:0:0:0:
199,192,121850,1,0,0:0:0:0:
256,192,121975,1,0,0:0:0:0:
312,192,122100,128,0,122350:0:0:0:0:
85,192,122100,128,0,122225:0:0:0:0:
142,192,122100,1,0,0:0:0:0:
28,192,122100,1,0,0:0:0:0:
199,192,122225,1,0,0:0:0:0:
369,192,122350,128,0,122600:0:0:0:0:
256,192,122350,1,0,0:0:0:0:
426,192,122600,128,0,122850:0:0:0:0:
199,192,122600,128,0,122725:0:0:0:0:
256,192,122600,1,0,0:0:0:0:
256,192,122850,1,0,0:0:0:0:
28,192,123100,128,0,123225:0:0:0:0:
483,192,123100,1,0,0:0:0:0:
142,192,123100,1,0,0:0:0:0:
312,192,123100,128,0,123350:0:0:0:0:
199,192,123225,1,0,0:0:0:0:
369,192,123350,128,0,123600:0:0:0:0:
256,192,123350,1,0,0:0:0:0:
312,192,123600,128,0,123850:0:0:0:0:
85,192,123600,128,0,123725:0:0:0:0:
142,192,123600,1,0,0:0:0:0:
369,192,123850,128,0,124100:0:0:0:0:
256,192,123850,1,0,0:0:0:0:
199,192,123975,1,0,0:0:0:0:
426,192,124100,128,0,124350:0:0:0:0:
28,192,124100,128,0,124225:0:0:0:0:
483,192,124100,1,0,0:0:0:0:
142,192,124100,1,0,0:0:0:0:
256,192,124350,1,0,0:0:0:0:
426,192,124600,128,0,124850:0:0:0:0:
199,192,124600,128,0,124725:0:0:0:0:
85,192,124600,1,0,0:0:0:0:
369,192,124850,128,0,125100:0:0:0:0:
85,192,124850,1,0,0:0:0:0:
312,192,125100,128,0,125350:0:0:0:0:
142,192,125100,128,0,125225:0:0:0:0:
256,192,125100,1,0,0:0:0:0:
28,192,125100,1,0,0:0:0:0:
199,192,125225,1,0,0:0:0:0:
426,192,125350,128,0,125600:0:0:0:0:
256,192,125350,1,0,0:0:0:0:
369,192,125600,128,0,125725:0:0:0:0:
483,192,125600,128,0,125725:0:0:0:0:
142,192,125600,1,0,0:0:0:0:
312,192,125725,128,0,125975:0:0:0:0:
142,192,125850,1,0,0:0:0:0:
369,192,125975,128,0,126100:0:0:0:0:
28,192,126100,128,0,126225:0:0:0:0:
85,192,126100,1,0,0:0:0:0:
199,192,126100,1,0,0:0:0:0:
369,192,126225,128,0,126350:0:0:0:0:
85,192,126350,1,0,0:0:0:0:
312,192,126350,128,0,126475:0:0:0:0:
142,192,126600,128,0,126725:0:0:0:0:
426,192,126600,128,0,126725:0:0:0:0:
28,192,126600,1,0,0:0:0:0:
199,192,126725,128,0,126975:0:0:0:0:
28,192,126850,1,0,0:0:0:0:
142,192,126975,128,0,127100:0:0:0:0:
85,192,127100,128,0,127225:0:0:0:0:
483,192,127100,1,0,0:0:0:0:
28,192,127100,1,0,0:0:0:0:
142,192,127225,128,0,127350:0:0:0:0:
369,192,127350,1,0,0:0:0:0:
199,192,127350,128,0,127475:0:0:0:0:
28,192,127600,128,0,127725:0:0:0:0:
142,192,127600,1,0,0:0:0:0:
312,192,127600,1,0,0:0:0:0:
312,192,127725,128,0,127850:0:0:0:0:
369,192,127850,1,0,0:0:0:0:
312,192,127975,128,0,128100:0:0:0:0:
426,192,127975,1,0,0:0:0:0:
142,192,128100,128,0,128225:0:0:0:0:
483,192,128100,1,0,0:0:0:0:
28,192,128100,1,0,0:0:0:0:
312,192,128225,128,0,128350:0:0:0:0:
369,192,128225,1,0,0:0:0:0:
256,192,128350,128,0,128475:0:0:0:0:
426,192,128350,1,0,0:0:0:0:
369,192,128600,128,0,128850:0:0:0:0:
199,192,128600,128,0,128725:0:0:0:0:
312,192,128600,1,0,0:0:0:0:
28,192,128850,1,0,0:0:0:0:
483,192,128850,1,0,0:0:0:0:
85,192,129100,128,0,129225:0:0:0:0:
28,192,129100,1,0,0:0:0:0:
256,192,129100,1,0,0:0:0:0:
312,192,129100,128,0,129350:0:0:0:0:
199,192,129600,128,0,129850:0:0:0:0:
426,192,129600,1,0,0:0:0:0:
483,192,129600,1,0,0:0:0:0:
256,192,129600,1,0,0:0:0:0:
369,192,129600,128,0,129725:0:0:0:0:
142,192,129850,128,0,130100:0:0:0:0:
312,192,129850,1,0,0:0:0:0:
256,192,129975,1,0,0:0:0:0:
199,192,130100,128,0,130350:0:0:0:0:
426,192,130100,128,0,130225:0:0:0:0:
369,192,130100,1,0,0:0:0:0:
483,192,130100,1,0,0:0:0:0:
312,192,130225,1,0,0:0:0:0:
142,192,130350,128,0,130600:0:0:0:0:
256,192,130350,1,0,0:0:0:0:
85,192,130600,128,0,130850:0:0:0:0:
312,192,130600,128,0,130725:0:0:0:0:
256,192,130600,1,0,0:0:0:0:
256,192,130850,1,0,0:0:0:0:
483,192,131100,128,0,131225:0:0:0:0:
28,192,131100,1,0,0:0:0:0:
369,192,131100,1,0,0:0:0:0:
199,192,131100,128,0,131350:0:0:0:0:
312,192,131225,1,0,0:0:0:0:
142,192,131350,128,0,131600:0:0:0:0:
256,192,131350,1,0,0:0:0:0:
199,192,131600,128,0,131850:0:0:0:0:
426,192,131600,128,0,131725:0:0:0:0:
369,192,131600,1,0,0:0:0:0:
28,192,131600,128,0,132350:0:0:0:0:
142,192,131850,128,0,132100:0:0:0:0:
312,192,131850,1,0,0:0:0:0:
85,192,132100,128,0,132350:0:0:0:0:
483,192,132100,128,0,132225:0:0:0:0:
426,192,132100,1,0,0:0:0:0:
369,192,132100,1,0,0:0:0:0:
256,192,132350,1,0,0:0:0:0:
85,192,132600,128,0,132850:0:0:0:0:
312,192,132600,128,0,132725:0:0:0:0:
28,192,132600,1,0,0:0:0:0:
426,192,132600,128,0,133100:0:0:0:0:
142,192,132850,128,0,133100:0:0:0:0:
28,192,132850,1,0,0:0:0:0:
199,192,133100,128,0,133350:0:0:0:0:
369,192,133100,128,0,133225:0:0:0:0:
256,192,133100,1,0,0:0:0:0:
483,192,133100,128,0,133600:0:0:0:0:
28,192,133100,1,0,0:0:0:0:
312,192,133225,1,0,0:0:0:0:
85,192,133350,128,0,133600:0:0:0:0:
256,192,133350,1,0,0:0:0:0:
142,192,133600,128,0,133725:0:0:0:0:
28,192,133600,128,0,133725:0:0:0:0:
369,192,133600,1,0,0:0:0:0:
312,192,133600,128,0,134350:0:0:0:0:
199,192,133725,128,0,133850:0:0:0:0:
369,192,133850,1,0,0:0:0:0:
199,192,133975,128,0,134100:0:0:0:0:
426,192,134100,1,0,0:0:0:0:
28,192,134100,1,0,0:0:0:0:
85,192,134100,128,0,134225:0:0:0:0:
199,192,134225,128,0,134350:0:0:0:0:
256,192,134350,128,0,134475:0:0:0:0:
426,192,134350,1,0,0:0:0:0:
142,192,134600,128,0,134725:0:0:0:0:
85,192,134600,1,0,0:0:0:0:
369,192,134600,128,0,134725:0:0:0:0:
426,192,134600,128,0,135350:0:0:0:0:
312,192,134725,128,0,134850:0:0:0:0:
85,192,134850,1,0,0:0:0:0:
312,192,134975,128,0,135100:0:0:0:0:
28,192,135100,1,0,0:0:0:0:
483,192,135100,1,0,0:0:0:0:
312,192,135225,128,0,135350:0:0:0:0:
28,192,135350,1,0,0:0:0:0:
369,192,135350,128,0,135600:0:0:0:0:
85,192,135600,1,0,0:0:0:0:
256,192,135600,1,0,0:0:0:0:
142,192,135600,128,0,135725:0:0:0:0:
426,192,135600,128,0,136600:0:0:0:0:
256,192,135725,128,0,135850:0:0:0:0:
28,192,135850,1,0,0:0:0:0:
85,192,135975,1,0,0:0:0:0:
256,192,135975,128,0,136225:0:0:0:0:
369,192,136100,128,0,136225:0:0:0:0:
483,192,136100,1,0,0:0:0:0:
142,192,136100,1,0,0:0:0:0:
199,192,136225,128,0,136350:0:0:0:0:
85,192,136225,1,0,0:0:0:0:
28,192,136350,1,0,0:0:0:0:
312,192,136350,128,0,136600:0:0:0:0:
483,192,136475,1,0,0:0:0:0:
85,192,136600,128,0,136975:0:0:0:0:
142,192,136600,1,0,0:0:0:0:
256,192,136600,128,0,136725:0:0:0:0:
369,192,136600,1,0,0:0:0:0:
199,192,136725,128,0,137100:0:0:0:0:
312,192,136850,128,0,137225:0:0:0:0:
142,192,136850,1,0,0:0:0:0:
369,192,136850,1,0,0:0:0:0:
426,192,136975,128,0,137350:0:0:0:0:
483,192,137100,1,0,0:0:0:0:
28,192,137100,1,0,0:0:0:0:
256,192,137100,1,0,0:0:0:0:
85,192,137100,128,0,137600:0:0:0:0:
199,192,137225,128,0,137600:0:0:0:0:
312,192,137350,128,0,137600:0:0:0:0:
426,192,137475,128,0,137600:0:0:0:0:
369,192,137600,1,0,0:0:0:0:
256,192,137600,1,0,0:0:0:0:
28,192,137600,128,0,137725:0:0:0:0:
483,192,137600,128,0,138100:0:0:0:0:
142,192,137600,128,0,137850:0:0:0:0:
142,192,137975,128,0,138100:0:0:0:0:
426,192,138100,128,0,138600:0:0:0:0:
28,192,138100,128,0,138225:0:0:0:0:
369,192,138100,1,0,0:0:0:0:
85,192,138100,1,0,0:0:0:0:
199,192,138225,128,0,138350:0:0:0:0:
256,192,138350,128,0,138475:0:0:0:0:
85,192,138350,1,0,0:0:0:0:
28,192,138600,128,0,138725:0:0:0:0:
369,192,138600,128,0,139100:0:0:0:0:
312,192,138600,128,0,138850:0:0:0:0:
142,192,138600,1,0,0:0:0:0:
199,192,138850,128,0,139100:0:0:0:0:
142,192,138850,1,0,0:0:0:0:
426,192,139100,128,0,139225:0:0:0:0:
28,192,139100,128,0,139225:0:0:0:0:
256,192,139100,1,0,0:0:0:0:
142,192,139100,1,0,0:0:0:0:
426,192,139350,128,0,139600:0:0:0:0:
85,192,139350,128,0,139475:0:0:0:0:
142,192,139475,128,0,139600:0:0:0:0:
369,192,139600,128,0,139850:0:0:0:0:
483,192,139600,128,0,139725:0:0:0:0:
199,192,139600,128,0,139850:0:0:0:0:
256,192,139600,1,0,0:0:0:0:
85,192,139850,1,0,0:0:0:0:
312,192,139850,128,0,140100:0:0:0:0:
199,192,139975,128,0,140100:0:0:0:0:
28,192,140100,1,0,0:0:0:0:
483,192,140100,128,0,140225:0:0:0:0:
369,192,140100,128,0,140350:0:0:0:0:
256,192,140100,1,0,0:0:0:0:
199,192,140225,128,0,140350:0:0:0:0:
426,192,140350,128,0,141100:0:0:0:0:
256,192,140350,128,0,140475:0:0:0:0:
483,192,140600,128,0,140725:0:0:0:0:
85,192,140600,1,0,0:0:0:0:
312,192,140600,128,0,140850:0:0:0:0:
85,192,140850,1,0,0:0:0:0:
199,192,140850,128,0,141100:0:0:0:0:
483,192,141100,128,0,141225:0:0:0:0:
28,192,141100,1,0,0:0:0:0:
369,192,141100,1,0,0:0:0:0:
142,192,141100,1,0,0:0:0:0:
426,192,141350,128,0,141600:0:0:0:0:
142,192,141350,128,0,141600:0:0:0:0:
312,192,141350,1,0,0:0:0:0:
483,192,141600,128,0,142100:0:0:0:0:
199,192,141600,128,0,141850:0:0:0:0:
28,192,141600,128,0,141725:0:0:0:0:
256,192,141600,1,0,0:0:0:0:
369,192,141600,1,0,0:0:0:0:
142,192,141850,128,0,141975:0:0:0:0:
85,192,141850,1,0,0:0:0:0:
199,192,141975,128,0,142100:0:0:0:0:
426,192,142100,128,0,142600:0:0:0:0:
256,192,142100,1,0,0:0:0:0:
369,192,142100,1,0,0:0:0:0:
28,192,142100,128,0,142225:0:0:0:0:
142,192,142350,128,0,142600:0:0:0:0:
312,192,142350,1,0,0:0:0:0:
369,192,142600,128,0,143100:0:0:0:0:
28,192,142600,128,0,142725:0:0:0:0:
199,192,142600,128,0,142850:0:0:0:0:
312,192,142600,1,0,0:0:0:0:
142,192,142850,128,0,142975:0:0:0:0:
426,192,142850,1,0,0:0:0:0:
199,192,142975,128,0,143100:0:0:0:0:
312,192,143100,128,0,143225:0:0:0:0:
256,192,143100,1,0,0:0:0:0:
483,192,143100,1,0,0:0:0:0:
28,192,143100,128,0,143225:0:0:0:0:
142,192,143225,128,0,143350:0:0:0:0:
312,192,143350,128,0,143475:0:0:0:0:
199,192,143350,128,0,143475:0:0:0:0:
312,192,143600,128,0,143850:0:0:0:0:
256,192,143600,128,0,143725:0:0:0:0:
85,192,143600,1,0,0:0:0:0:
199,192,143725,128,0,143975:0:0:0:0:
369,192,143850,128,0,144100:0:0:0:0:
28,192,143850,1,0,0:0:0:0:
142,192,143975,128,0,144350:0:0:0:0:
85,192,143975,1,0,0:0:0:0:
426,192,144100,128,0,144350:0:0:0:0:
256,192,144100,128,0,144225:0:0:0:0:
28,192,144100,1,0,0:0:0:0:
483,192,144100,1,0,0:0:0:0:
369,192,144350,128,0,145100:0:0:0:0:
85,192,144350,128,0,144600:0:0:0:0:
312,192,144350,1,0,0:0:0:0:
199,192,144475,1,0,0:0:0:0:
28,192,144600,128,0,145100:0:0:0:0:
426,192,144600,128,0,144725:0:0:0:0:
312,192,144600,1,0,0:0:0:0:
256,192,144600,128,0,144725:0:0:0:0:
142,192,144850,1,0,0:0:0:0:
483,192,144850,1,0,0:0:0:0:
199,192,144850,128,0,145100:0:0:0:0:
142,192,145100,1,0,0:0:0:0:
483,192,145100,1,0,0:0:0:0:
256,192,145100,128,0,145225:0:0:0:0:
312,192,145100,128,0,145600:0:0:0:0:
426,192,145350,1,0,0:0:0:0:
142,192,145600,128,0,145850:0:0:0:0:
483,192,145600,128,0,146100:0:0:0:0:
28,192,145600,128,0,145725:0:0:0:0:
256,192,145600,1,0,0:0:0:0:
256,192,145850,1,0,0:0:0:0:
142,192,145975,128,0,146100:0:0:0:0:
369,192,146100,1,0,0:0:0:0:
85,192,146100,1,0,0:0:0:0:
426,192,146100,128,0,146600:0:0:0:0:
28,192,146100,128,0,146225:0:0:0:0:
199,192,146225,128,0,146350:0:0:0:0:
85,192,146350,1,0,0:0:0:0:
256,192,146350,128,0,146475:0:0:0:0:
312,192,146600,128,0,146850:0:0:0:0:
142,192,146600,1,0,0:0:0:0:
28,192,146600,128,0,146725:0:0:0:0:
369,192,146600,128,0,147100:0:0:0:0:
142,192,146850,1,0,0:0:0:0:
199,192,146850,128,0,147100:0:0:0:0:
256,192,147100,1,0,0:0:0:0:
142,192,147100,1,0,0:0:0:0:
426,192,147100,128,0,147225:0:0:0:0:
28,192,147100,128,0,147225:0:0:0:0:
85,192,147350,128,0,147475:0:0:0:0:
426,192,147350,128,0,147600:0:0:0:0:
142,192,147475,128,0,147600:0:0:0:0:
199,192,147600,128,0,147850:0:0:0:0:
369,192,147600,128,0,147850:0:0:0:0:
483,192,147600,128,0,147725:0:0:0:0:
28,192,147600,1,0,0:0:0:0:
312,192,147850,128,0,148100:0:0:0:0:
85,192,147850,1,0,0:0:0:0:
199,192,147975,128,0,148100:0:0:0:0:
369,192,148100,128,0,148350:0:0:0:0:
28,192,148100,1,0,0:0:0:0:
483,192,148100,128,0,148225:0:0:0:0:
142,192,148100,1,0,0:0:0:0:
199,192,148225,128,0,148350:0:0:0:0:
256,192,148350,128,0,148475:0:0:0:0:
426,192,148350,128,0,149100:0:0:0:0:
28,192,148350,1,0,0:0:0:0:
142,192,148475,1,0,0:0:0:0:
312,192,148600,128,0,148850:0:0:0:0:
85,192,148600,1,0,0:0:0:0:
483,192,148600,128,0,148725:0:0:0:0:
199,192,148850,128,0,149100:0:0:0:0:
85,192,148850,1,0,0:0:0:0:
369,192,149100,1,0,0:0:0:0:
142,192,149100,1,0,0:0:0:0:
483,192,149100,128,0,149225:0:0:0:0:
28,192,149100,1,0,0:0:0:0:
142,192,149350,128,0,149600:0:0:0:0:
426,192,149350,128,0,149600:0:0:0:0:
256,192,149600,1,0,0:0:0:0:
369,192,149600,1,0,0:0:0:0:
28,192,149600,128,0,149725:0:0:0:0:
483,192,149600,128,0,150100:0:0:0:0:
199,192,149600,128,0,149850:0:0:0:0:
142,192,149850,128,0,149975:0:0:0:0:
312,192,149850,1,0,0:0:0:0:
199,192,149975,128,0,150100:0:0:0:0:
28,192,150100,128,0,150225:0:0:0:0:
369,192,150100,1,0,0:0:0:0:
426,192,150100,128,0,150600:0:0:0:0:
256,192,150100,1,0,0:0:0:0:
312,192,150350,1,0,0:0:0:0:
142,192,150350,128,0,150600:0:0:0:0:
28,192,150600,128,0,150725:0:0:0:0:
199,192,150600,128,0,150850:0:0:0:0:
369,192,150600,128,0,151100:0:0:0:0:
256,192,150600,1,0,0:0:0:0:
142,192,150850,128,0,150975:0:0:0:0:
256,192,150850,1,0,0:0:0:0:
199,192,150975,128,0,151100:0:0:0:0:
483,192,151100,1,0,0:0:0:0:
28,192,151100,128,0,151225:0:0:0:0:
256,192,151100,1,0,0:0:0:0:
426,192,151100,128,0,151600:0:0:0:0:
142,192,151225,128,0,151350:0:0:0:0:
199,192,151350,128,0,151475:0:0:0:0:
256,192,151600,128,0,151725:0:0:0:0:
369,192,151600,128,0,152600:0:0:0:0:
28,192,151600,128,0,151725:0:0:0:0:
312,192,151600,1,0,0:0:0:0:
199,192,151725,128,0,151975:0:0:0:0:
312,192,151850,1,0,0:0:0:0:
142,192,151975,128,0,152350:0:0:0:0:
256,192,152100,1,0,0:0:0:0:
483,192,152100,1,0,0:0:0:0:
85,192,152100,128,0,152225:0:0:0:0:
199,192,152350,128,0,152600:0:0:0:0:
312,192,152350,1,0,0:0:0:0:
142,192,152600,128,0,153100:0:0:0:0:
483,192,152600,128,0,152725:0:0:0:0:
256,192,152600,1,0,0:0:0:0:
426,192,152600,1,0,0:0:0:0:
256,192,152850,1,0,0:0:0:0:
256,192,153100,1,0,0:0:0:0:
369,192,153100,1,0,0:0:0:0:
483,192,153100,1,0,0:0:0:0:
28,192,153100,128,0,153225:0:0:0:0:
199,192,153350,1,0,0:0:0:0:
85,192,153600,1,0,0:0:0:0:
483,192,153600,128,0,155350:0:0:0:0:
142,192,153600,1,0,0:0:0:0:
28,192,153850,1,0,0:0:0:0:
28,192,154100,1,0,0:0:0:0:
85,192,154100,1,0,0:0:0:0:
142,192,154100,1,0,0:0:0:0:
28,192,154350,1,0,0:0:0:0:
85,192,154475,1,0,0:0:0:0:
142,192,154475,1,0,0:0:0:0:
199,192,154600,1,0,0:0:0:0:
28,192,154600,1,0,0:0:0:0:
199,192,154850,1,0,0:0:0:0:
28,192,154850,1,0,0:0:0:0:
85,192,155100,1,0,0:0:0:0:
199,192,155100,1,0,0:0:0:0:
28,192,155100,1,0,0:0:0:0:
142,192,155350,1,0,0:0:0:0:
28,192,155600,128,0,157100:0:0:0:0:
369,192,155600,1,0,0:0:0:0:
426,192,155600,1,0,0:0:0:0:
483,192,155850,1,0,0:0:0:0:
369,192,156100,1,0,0:0:0:0:
426,192,156100,1,0,0:0:0:0:
483,192,156100,1,0,0:0:0:0:
483,192,156350,1,0,0:0:0:0:
426,192,156475,1,0,0:0:0:0:
369,192,156475,1,0,0:0:0:0:
483,192,156600,1,0,0:0:0:0:
312,192,156600,1,0,0:0:0:0:
312,192,156850,1,0,0:0:0:0:
483,192,156850,1,0,0:0:0:0:
426,192,157100,1,0,0:0:0:0:
483,192,157100,1,0,0:0:0:0:
312,192,157100,1,0,0:0:0:0:
369,192,157350,1,0,0:0:0:0:
28,192,157600,1,0,0:0:0:0:
85,192,157600,1,0,0:0:0:0:
483,192,157600,128,0,159100:0:0:0:0:
142,192,157850,1,0,0:0:0:0:
85,192,158100,1,0,0:0:0:0:
199,192,158100,1,0,0:0:0:0:
28,192,158100,1,0,0:0:0:0:
142,192,158350,1,0,0:0:0:0:
199,192,158475,1,0,0:0:0:0:
85,192,158475,1,0,0:0:0:0:
28,192,158600,1,0,0:0:0:0:
142,192,158600,1,0,0:0:0:0:
85,192,158850,1,0,0:0:0:0:
28,192,158850,1,0,0:0:0:0:
199,192,159100,1,0,0:0:0:0:
142,192,159100,1,0,0:0:0:0:
28,192,159100,1,0,0:0:0:0:
85,192,159350,1,0,0:0:0:0:
142,192,159475,1,0,0:0:0:0:
28,192,159600,128,0,159850:0:0:0:0:
199,192,159600,1,0,0:0:0:0:
256,192,159600,1,0,0:0:0:0:
142,192,159850,1,0,0:0:0:0:
28,192,160100,128,0,160350:0:0:0:0:
256,192,160100,1,0,0:0:0:0:
199,192,160100,1,0,0:0:0:0:
85,192,160100,1,0,0:0:0:0:
256,192,160350,1,0,0:0:0:0:
142,192,160475,1,0,0:0:0:0:
199,192,160475,1,0,0:0:0:0:
28,192,160600,128,0,160725:0:0:0:0:
256,192,160600,1,0,0:0:0:0:
85,192,160600,1,0,0:0:0:0:
28,192,160850,128,0,160975:0:0:0:0:
256,192,160850,1,0,0:0:0:0:
85,192,160850,1,0,0:0:0:0:
28,192,161100,128,0,161225:0:0:0:0:
85,192,161100,1,0,0:0:0:0:
199,192,161100,1,0,0:0:0:0:
256,192,161100,1,0,0:0:0:0:
142,192,161350,1,0,0:0:0:0:
28,192,161350,128,0,161600:0:0:0:0:
85,192,161600,1,0,0:0:0:0:
483,192,161600,128,0,163350:0:0:0:0:
142,192,161600,1,0,0:0:0:0:
256,192,161600,128,0,161725:0:0:0:0:
28,192,161850,1,0,0:0:0:0:
28,192,162100,1,0,0:0:0:0:
85,192,162100,1,0,0:0:0:0:
142,192,162100,1,0,0:0:0:0:
369,192,162100,128,0,162225:0:0:0:0:
28,192,162350,1,0,0:0:0:0:
85,192,162475,1,0,0:0:0:0:
142,192,162475,1,0,0:0:0:0:
199,192,162600,1,0,0:0:0:0:
28,192,162600,1,0,0:0:0:0:
312,192,162600,128,0,162725:0:0:0:0:
199,192,162850,1,0,0:0:0:0:
28,192,162850,1,0,0:0:0:0:
85,192,163100,1,0,0:0:0:0:
199,192,163100,1,0,0:0:0:0:
28,192,163100,1,0,0:0:0:0:
426,192,163100,128,0,163225:0:0:0:0:
142,192,163350,1,0,0:0:0:0:
28,192,163600,128,0,165100:0:0:0:0:
369,192,163600,1,0,0:0:0:0:
426,192,163600,1,0,0:0:0:0:
256,192,163600,128,0,163725:0:0:0:0:
483,192,163850,1,0,0:0:0:0:
369,192,164100,1,0,0:0:0:0:
426,192,164100,1,0,0:0:0:0:
483,192,164100,1,0,0:0:0:0:
142,192,164100,128,0,164225:0:0:0:0:
483,192,164350,1,0,0:0:0:0:
426,192,164475,1,0,0:0:0:0:
369,192,164475,1,0,0:0:0:0:
483,192,164600,1,0,0:0:0:0:
312,192,164600,1,0,0:0:0:0:
199,192,164600,128,0,164725:0:0:0:0:
312,192,164850,1,0,0:0:0:0:
483,192,164850,1,0,0:0:0:0:
426,192,165100,1,0,0:0:0:0:
483,192,165100,1,0,0:0:0:0:
312,192,165100,1,0,0:0:0:0:
85,192,165100,128,0,165225:0:0:0:0:
369,192,165350,1,0,0:0:0:0:
28,192,165600,1,0,0:0:0:0:
85,192,165600,1,0,0:0:0:0:
483,192,165600,128,0,167100:0:0:0:0:
256,192,165600,128,0,165725:0:0:0:0:
142,192,165850,1,0,0:0:0:0:
85,192,166100,1,0,0:0:0:0:
199,192,166100,1,0,0:0:0:0:
28,192,166100,1,0,0:0:0:0:
369,192,166100,128,0,166225:0:0:0:0:
142,192,166350,1,0,0:0:0:0:
199,192,166475,1,0,0:0:0:0:
85,192,166475,1,0,0:0:0:0:
28,192,166600,1,0,0:0:0:0:
142,192,166600,1,0,0:0:0:0:
312,192,166600,128,0,166725:0:0:0:0:
85,192,166850,1,0,0:0:0:0:
28,192,166850,1,0,0:0:0:0:
199,192,167100,1,0,0:0:0:0:
142,192,167100,1,0,0:0:0:0:
28,192,167100,1,0,0:0:0:0:
426,192,167100,128,0,167225:0:0:0:0:
85,192,167350,1,0,0:0:0:0:
142,192,167475,1,0,0:0:0:0:
28,192,167600,128,0,167850:0:0:0:0:
199,192,167600,1,0,0:0:0:0:
256,192,167600,1,0,0:0:0:0:
483,192,167600,128,0,167725:0:0:0:0:
142,192,167850,1,0,0:0:0:0:
28,192,168100,128,0,168350:0:0:0:0:
256,192,168100,1,0,0:0:0:0:
199,192,168100,1,0,0:0:0:0:
85,192,168100,1,0,0:0:0:0:
369,192,168100,128,0,168225:0:0:0:0:
256,192,168350,1,0,0:0:0:0:
142,192,168475,1,0,0:0:0:0:
199,192,168475,1,0,0:0:0:0:
28,192,168600,128,0,168725:0:0:0:0:
256,192,168600,1,0,0:0:0:0:
85,192,168600,1,0,0:0:0:0:
426,192,168600,128,0,168725:0:0:0:0:
28,192,168850,128,0,168975:0:0:0:0:
256,192,168850,1,0,0:0:0:0:
85,192,168850,1,0,0:0:0:0:
28,192,169100,128,0,169225:0:0:0:0:
85,192,169100,1,0,0:0:0:0:
199,192,169100,1,0,0:0:0:0:
256,192,169100,1,0,0:0:0:0:
312,192,169100,128,0,169225:0:0:0:0:
142,192,169350,1,0,0:0:0:0:
28,192,169350,128,0,169600:0:0:0:0:
85,192,169600,1,0,0:0:0:0:
483,192,169600,128,0,171350:0:0:0:0:
142,192,169600,1,0,0:0:0:0:
256,192,169600,128,0,169725:0:0:0:0:
312,192,169600,128,0,169725:0:0:0:0:
369,192,169725,128,0,169850:0:0:0:0:
28,192,169850,1,0,0:0:0:0:
426,192,169850,1,0,0:0:0:0:
426,192,169975,1,0,0:0:0:0:
28,192,170100,1,0,0:0:0:0:
85,192,170100,1,0,0:0:0:0:
142,192,170100,1,0,0:0:0:0:
369,192,170100,128,0,170225:0:0:0:0:
426,192,170100,1,0,0:0:0:0:
28,192,170350,1,0,0:0:0:0:
312,192,170350,128,0,170475:0:0:0:0:
85,192,170475,1,0,0:0:0:0:
142,192,170475,1,0,0:0:0:0:
369,192,170475,128,0,170600:0:0:0:0:
199,192,170600,1,0,0:0:0:0:
28,192,170600,1,0,0:0:0:0:
312,192,170600,128,0,170725:0:0:0:0:
426,192,170600,1,0,0:0:0:0:
426,192,170725,1,0,0:0:0:0:
199,192,170850,1,0,0:0:0:0:
28,192,170850,1,0,0:0:0:0:
426,192,170850,1,0,0:0:0:0:
85,192,171100,1,0,0:0:0:0:
199,192,171100,1,0,0:0:0:0:
28,192,171100,1,0,0:0:0:0:
426,192,171100,128,0,171225:0:0:0:0:
142,192,171350,1,0,0:0:0:0:
28,192,171600,128,0,173100:0:0:0:0:
369,192,171600,1,0,0:0:0:0:
426,192,171600,1,0,0:0:0:0:
256,192,171600,128,0,171725:0:0:0:0:
483,192,171850,1,0,0:0:0:0:
369,192,172100,1,0,0:0:0:0:
426,192,172100,1,0,0:0:0:0:
483,192,172100,1,0,0:0:0:0:
142,192,172100,128,0,172225:0:0:0:0:
483,192,172350,1,0,0:0:0:0:
426,192,172475,1,0,0:0:0:0:
369,192,172475,1,0,0:0:0:0:
483,192,172600,1,0,0:0:0:0:
312,192,172600,1,0,0:0:0:0:
199,192,172600,128,0,172725:0:0:0:0:
312,192,172850,1,0,0:0:0:0:
483,192,172850,1,0,0:0:0:0:
426,192,173100,1,0,0:0:0:0:
483,192,173100,1,0,0:0:0:0:
312,192,173100,1,0,0:0:0:0:
85,192,173100,128,0,173225:0:0:0:0:
369,192,173350,1,0,0:0:0:0:
28,192,173600,1,0,0:0:0:0:
85,192,173600,1,0,0:0:0:0:
483,192,173600,128,0,175100:0:0:0:0:
256,192,173600,128,0,173725:0:0:0:0:
312,192,173600,128,0,173725:0:0:0:0:
369,192,173725,128,0,173850:0:0:0:0:
142,192,173850,1,0,0:0:0:0:
426,192,173850,1,0,0:0:0:0:
426,192,173975,1,0,0:0:0:0:
85,192,174100,1,0,0:0:0:0:
199,192,174100,1,0,0:0:0:0:
28,192,174100,1,0,0:0:0:0:
369,192,174100,128,0,174225:0:0:0:0:
426,192,174100,1,0,0:0:0:0:
142,192,174350,1,0,0:0:0:0:
312,192,174350,128,0,174475:0:0:0:0:
199,192,174475,1,0,0:0:0:0:
85,192,174475,1,0,0:0:0:0:
369,192,174475,128,0,174600:0:0:0:0:
28,192,174600,1,0,0:0:0:0:
142,192,174600,1,0,0:0:0:0:
312,192,174600,128,0,174725:0:0:0:0:
426,192,174600,1,0,0:0:0:0:
426,192,174725,1,0,0:0:0:0:
85,192,174850,1,0,0:0:0:0:
28,192,174850,1,0,0:0:0:0:
426,192,174850,1,0,0:0:0:0:
199,192,175100,1,0,0:0:0:0:
142,192,175100,1,0,0:0:0:0:
28,192,175100,1,0,0:0:0:0:
426,192,175100,128,0,175225:0:0:0:0:
85,192,175350,1,0,0:0:0:0:
142,192,175475,1,0,0:0:0:0:
28,192,175600,128,0,175850:0:0:0:0:
199,192,175600,1,0,0:0:0:0:
256,192,175600,1,0,0:0:0:0:
483,192,175600,128,0,175725:0:0:0:0:
142,192,175850,1,0,0:0:0:0:
28,192,176100,128,0,176350:0:0:0:0:
256,192,176100,1,0,0:0:0:0:
199,192,176100,1,0,0:0:0:0:
85,192,176100,1,0,0:0:0:0:
369,192,176100,128,0,176225:0:0:0:0:
256,192,176350,1,0,0:0:0:0:
142,192,176475,1,0,0:0:0:0:
199,192,176475,1,0,0:0:0:0:
28,192,176600,128,0,176725:0:0:0:0:
256,192,176600,1,0,0:0:0:0:
85,192,176600,1,0,0:0:0:0:
426,192,176600,128,0,176725:0:0:0:0:
28,192,176850,128,0,176975:0:0:0:0:
256,192,176850,1,0,0:0:0:0:
85,192,176850,1,0,0:0:0:0:
28,192,177100,128,0,177225:0:0:0:0:
85,192,177100,1,0,0:0:0:0:
199,192,177100,1,0,0:0:0:0:
256,192,177100,1,0,0:0:0:0:
312,192,177100,128,0,177225:0:0:0:0:
142,192,177350,1,0,0:0:0:0:
483,192,177350,128,0,177600:0:0:0:0:
426,192,177600,1,0,0:0:0:0:
28,192,177600,128,0,179350:0:0:0:0:
369,192,177600,1,0,0:0:0:0:
256,192,177600,128,0,177725:0:0:0:0:
199,192,177600,128,0,177725:0:0:0:0:
142,192,177725,128,0,177850:0:0:0:0:
483,192,177850,1,0,0:0:0:0:
85,192,177850,1,0,0:0:0:0:
85,192,177975,1,0,0:0:0:0:
483,192,178100,1,0,0:0:0:0:
426,192,178100,1,0,0:0:0:0:
369,192,178100,1,0,0:0:0:0:
142,192,178100,128,0,178225:0:0:0:0:
85,192,178100,1,0,0:0:0:0:
483,192,178350,1,0,0:0:0:0:
199,192,178350,128,0,178475:0:0:0:0:
426,192,178475,1,0,0:0:0:0:
369,192,178475,1,0,0:0:0:0:
142,192,178475,128,0,178600:0:0:0:0:
312,192,178600,1,0,0:0:0:0:
483,192,178600,1,0,0:0:0:0:
199,192,178600,128,0,178725:0:0:0:0:
85,192,178600,1,0,0:0:0:0:
85,192,178725,1,0,0:0:0:0:
312,192,178850,1,0,0:0:0:0:
483,192,178850,1,0,0:0:0:0:
85,192,178850,1,0,0:0:0:0:
426,192,179100,1,0,0:0:0:0:
312,192,179100,1,0,0:0:0:0:
483,192,179100,1,0,0:0:0:0:
85,192,179100,128,0,179225:0:0:0:0:
369,192,179350,1,0,0:0:0:0:
483,192,179600,128,0,181100:0:0:0:0:
142,192,179600,1,0,0:0:0:0:
85,192,179600,1,0,0:0:0:0:
256,192,179600,128,0,179725:0:0:0:0:
28,192,179850,1,0,0:0:0:0:
142,192,180100,1,0,0:0:0:0:
85,192,180100,1,0,0:0:0:0:
28,192,180100,1,0,0:0:0:0:
369,192,180100,128,0,180225:0:0:0:0:
28,192,180350,1,0,0:0:0:0:
85,192,180475,1,0,0:0:0:0:
142,192,180475,1,0,0:0:0:0:
28,192,180600,1,0,0:0:0:0:
199,192,180600,1,0,0:0:0:0:
312,192,180600,128,0,180725:0:0:0:0:
199,192,180850,1,0,0:0:0:0:
28,192,180850,1,0,0:0:0:0:
85,192,181100,1,0,0:0:0:0:
28,192,181100,1,0,0:0:0:0:
199,192,181100,1,0,0:0:0:0:
426,192,181100,128,0,181225:0:0:0:0:
142,192,181350,1,0,0:0:0:0:
483,192,181600,1,0,0:0:0:0:
426,192,181600,1,0,0:0:0:0:
28,192,181600,128,0,183100:0:0:0:0:
256,192,181600,128,0,181725:0:0:0:0:
199,192,181600,128,0,181725:0:0:0:0:
142,192,181725,128,0,181850:0:0:0:0:
369,192,181850,1,0,0:0:0:0:
85,192,181850,1,0,0:0:0:0:
85,192,181975,1,0,0:0:0:0:
426,192,182100,1,0,0:0:0:0:
312,192,182100,1,0,0:0:0:0:
483,192,182100,1,0,0:0:0:0:
142,192,182100,128,0,182225:0:0:0:0:
85,192,182100,1,0,0:0:0:0:
369,192,182350,1,0,0:0:0:0:
199,192,182350,128,0,182475:0:0:0:0:
312,192,182475,1,0,0:0:0:0:
426,192,182475,1,0,0:0:0:0:
142,192,182475,128,0,182600:0:0:0:0:
483,192,182600,1,0,0:0:0:0:
369,192,182600,1,0,0:0:0:0:
199,192,182600,128,0,182725:0:0:0:0:
85,192,182600,1,0,0:0:0:0:
85,192,182725,1,0,0:0:0:0:
426,192,182850,1,0,0:0:0:0:
483,192,182850,1,0,0:0:0:0:
85,192,182850,1,0,0:0:0:0:
312,192,183100,1,0,0:0:0:0:
369,192,183100,1,0,0:0:0:0:
483,192,183100,1,0,0:0:0:0:
85,192,183100,128,0,183225:0:0:0:0:
426,192,183350,1,0,0:0:0:0:
369,192,183475,1,0,0:0:0:0:
483,192,183600,128,0,183850:0:0:0:0:
312,192,183600,1,0,0:0:0:0:
256,192,183600,1,0,0:0:0:0:
28,192,183600,128,0,183725:0:0:0:0:
369,192,183850,1,0,0:0:0:0:
483,192,184100,128,0,184350:0:0:0:0:
256,192,184100,1,0,0:0:0:0:
312,192,184100,1,0,0:0:0:0:
426,192,184100,1,0,0:0:0:0:
142,192,184100,128,0,184225:0:0:0:0:
256,192,184350,1,0,0:0:0:0:
369,192,184475,1,0,0:0:0:0:
312,192,184475,1,0,0:0:0:0:
483,192,184600,128,0,184725:0:0:0:0:
256,192,184600,1,0,0:0:0:0:
426,192,184600,1,0,0:0:0:0:
85,192,184600,128,0,184725:0:0:0:0:
483,192,184850,128,0,184975:0:0:0:0:
256,192,184850,1,0,0:0:0:0:
426,192,184850,1,0,0:0:0:0:
483,192,185100,128,0,185225:0:0:0:0:
426,192,185100,1,0,0:0:0:0:
312,192,185100,1,0,0:0:0:0:
256,192,185100,1,0,0:0:0:0:
199,192,185100,128,0,185225:0:0:0:0:
483,192,185350,128,0,185600:0:0:0:0:
369,192,185350,1,0,0:0:0:0:
28,192,185600,128,0,186850:0:0:0:0:
85,192,185850,128,0,186975:0:0:0:0:
256,192,186100,128,0,187100:0:0:0:0:
426,192,186350,128,0,187225:0:0:0:0:
483,192,186600,128,0,187350:0:0:0:0:
199,192,187600,128,0,188600:0:0:0:0:
256,192,187600,128,0,188600:0:0:0:0:
312,192,188600,128,0,189600:0:0:0:0:
426,192,188600,128,0,189600:0:0:0:0:
85,192,189600,128,0,190600:0:0:0:0:
142,192,189600,128,0,190600:0:0:0:0:
426,192,190600,128,0,191600:0:0:0:0:
483,192,190600,128,0,191600:0:0:0:0:
28,192,191600,128,0,192600:0:0:0:0:
142,192,191600,128,0,192600:0:0:0:0:
85,192,192600,128,0,193600:0:0:0:0:
312,192,192600,128,0,193600:0:0:0:0:
199,192,193600,128,0,194600:0:0:0:0:
426,192,193600,128,0,194600:0:0:0:0:
142,192,194600,128,0,195600:0:0:0:0:
369,192,194600,128,0,195600:0:0:0:0:
199,192,195600,128,0,196600:0:0:0:0:
256,192,195600,128,0,196600:0:0:0:0:
312,192,196600,128,0,197600:0:0:0:0:
426,192,196600,128,0,197600:0:0:0:0:
85,192,197600,128,0,198600:0:0:0:0:
142,192,197600,128,0,198600:0:0:0:0:
426,192,198600,128,0,199600:0:0:0:0:
483,192,198600,128,0,199600:0:0:0:0:
28,192,199600,128,0,200600:0:0:0:0:
142,192,199600,128,0,200600:0:0:0:0:
85,192,200600,128,0,201600:0:0:0:0:
312,192,200600,128,0,201600:0:0:0:0:
199,192,201600,128,0,202600:0:0:0:0:
426,192,201600,128,0,202600:0:0:0:0:
28,192,203100,1,0,0:0:0:0:
85,192,203100,1,0,0:0:0:0:
483,192,203100,1,0,0:0:0:0:
142,192,203225,1,0,0:0:0:0:
199,192,203350,1,0,0:0:0:0:
256,192,203412,1,0,0:0:0:0:
312,192,203475,1,0,0:0:0:0:
369,192,203537,1,0,0:0:0:0:
142,192,203600,128,0,203850:0:0:0:0:
256,192,203600,1,0,0:0:0:0:
426,192,203600,1,0,0:0:0:0:
483,192,203600,128,0,204100:0:0:0:0:
28,192,203600,128,0,203725:0:0:0:0:
256,192,203850,1,0,0:0:0:0:
142,192,203975,128,0,204100:0:0:0:0:
426,192,204100,128,0,204600:0:0:0:0:
28,192,204100,128,0,204225:0:0:0:0:
369,192,204100,1,0,0:0:0:0:
85,192,204100,1,0,0:0:0:0:
199,192,204225,128,0,204350:0:0:0:0:
256,192,204350,128,0,204475:0:0:0:0:
85,192,204350,1,0,0:0:0:0:
28,192,204600,128,0,204725:0:0:0:0:
369,192,204600,128,0,205100:0:0:0:0:
312,192,204600,128,0,204850:0:0:0:0:
142,192,204600,1,0,0:0:0:0:
199,192,204850,128,0,205100:0:0:0:0:
142,192,204850,1,0,0:0:0:0:
426,192,205100,128,0,205225:0:0:0:0:
28,192,205100,128,0,205225:0:0:0:0:
256,192,205100,1,0,0:0:0:0:
142,192,205100,1,0,0:0:0:0:
426,192,205350,128,0,205600:0:0:0:0:
85,192,205350,128,0,205475:0:0:0:0:
142,192,205475,128,0,205600:0:0:0:0:
369,192,205600,128,0,205850:0:0:0:0:
483,192,205600,128,0,205725:0:0:0:0:
199,192,205600,128,0,205850:0:0:0:0:
256,192,205600,1,0,0:0:0:0:
85,192,205850,1,0,0:0:0:0:
312,192,205850,128,0,206100:0:0:0:0:
199,192,205975,128,0,206100:0:0:0:0:
28,192,206100,1,0,0:0:0:0:
483,192,206100,128,0,206225:0:0:0:0:
369,192,206100,128,0,206350:0:0:0:0:
256,192,206100,1,0,0:0:0:0:
199,192,206225,128,0,206350:0:0:0:0:
426,192,206350,128,0,207100:0:0:0:0:
256,192,206350,128,0,206475:0:0:0:0:
483,192,206600,128,0,206725:0:0:0:0:
85,192,206600,1,0,0:0:0:0:
312,192,206600,128,0,206850:0:0:0:0:
85,192,206850,1,0,0:0:0:0:
199,192,206850,128,0,207100:0:0:0:0:
483,192,207100,128,0,207225:0:0:0:0:
28,192,207100,1,0,0:0:0:0:
369,192,207100,1,0,0:0:0:0:
142,192,207100,1,0,0:0:0:0:
426,192,207350,128,0,207600:0:0:0:0:
142,192,207350,128,0,207600:0:0:0:0:
312,192,207350,1,0,0:0:0:0:
483,192,207600,128,0,208100:0:0:0:0:
199,192,207600,128,0,207850:0:0:0:0:
28,192,207600,128,0,207725:0:0:0:0:
256,192,207600,1,0,0:0:0:0:
369,192,207600,1,0,0:0:0:0:
142,192,207850,128,0,207975:0:0:0:0:
85,192,207850,1,0,0:0:0:0:
369,192,207850,1,0,0:0:0:0:
199,192,207975,128,0,208100:0:0:0:0:
312,192,207975,1,0,0:0:0:0:
426,192,208100,128,0,208600:0:0:0:0:
256,192,208100,1,0,0:0:0:0:
369,192,208100,1,0,0:0:0:0:
28,192,208100,128,0,208225:0:0:0:0:
312,192,208225,1,0,0:0:0:0:
142,192,208350,128,0,208600:0:0:0:0:
256,192,208350,1,0,0:0:0:0:
369,192,208600,128,0,209100:0:0:0:0:
28,192,208600,128,0,208725:0:0:0:0:
199,192,208600,128,0,208850:0:0:0:0:
312,192,208600,1,0,0:0:0:0:
142,192,208850,128,0,208975:0:0:0:0:
426,192,208850,1,0,0:0:0:0:
199,192,208975,128,0,209100:0:0:0:0:
312,192,209100,128,0,209225:0:0:0:0:
256,192,209100,1,0,0:0:0:0:
483,192,209100,1,0,0:0:0:0:
28,192,209100,128,0,209225:0:0:0:0:
142,192,209225,128,0,209350:0:0:0:0:
312,192,209350,128,0,209475:0:0:0:0:
199,192,209350,128,0,209475:0:0:0:0:
312,192,209600,128,0,209850:0:0:0:0:
256,192,209600,128,0,209725:0:0:0:0:
85,192,209600,1,0,0:0:0:0:
199,192,209725,128,0,209975:0:0:0:0:
369,192,209850,128,0,210100:0:0:0:0:
28,192,209850,1,0,0:0:0:0:
142,192,209975,128,0,210350:0:0:0:0:
85,192,209975,1,0,0:0:0:0:
426,192,210100,128,0,210350:0:0:0:0:
256,192,210100,128,0,210225:0:0:0:0:
28,192,210100,1,0,0:0:0:0:
483,192,210100,1,0,0:0:0:0:
369,192,210350,128,0,211100:0:0:0:0:
85,192,210350,128,0,210600:0:0:0:0:
312,192,210350,1,0,0:0:0:0:
199,192,210475,1,0,0:0:0:0:
28,192,210600,128,0,211100:0:0:0:0:
426,192,210600,128,0,210725:0:0:0:0:
312,192,210600,1,0,0:0:0:0:
256,192,210600,128,0,210725:0:0:0:0:
142,192,210850,1,0,0:0:0:0:
483,192,210850,1,0,0:0:0:0:
199,192,210850,128,0,211100:0:0:0:0:
142,192,211100,1,0,0:0:0:0:
483,192,211100,1,0,0:0:0:0:
256,192,211100,128,0,211225:0:0:0:0:
312,192,211100,128,0,211600:0:0:0:0:
426,192,211350,1,0,0:0:0:0:
142,192,211600,128,0,211850:0:0:0:0:
483,192,211600,128,0,212100:0:0:0:0:
28,192,211600,128,0,211725:0:0:0:0:
256,192,211600,1,0,0:0:0:0:
256,192,211850,1,0,0:0:0:0:
142,192,211975,128,0,212100:0:0:0:0:
369,192,212100,1,0,0:0:0:0:
85,192,212100,1,0,0:0:0:0:
426,192,212100,128,0,212600:0:0:0:0:
28,192,212100,128,0,212225:0:0:0:0:
199,192,212225,128,0,212350:0:0:0:0:
85,192,212350,1,0,0:0:0:0:
256,192,212350,128,0,212475:0:0:0:0:
312,192,212600,128,0,212850:0:0:0:0:
142,192,212600,1,0,0:0:0:0:
28,192,212600,128,0,212725:0:0:0:0:
369,192,212600,128,0,213100:0:0:0:0:
142,192,212850,1,0,0:0:0:0:
199,192,212850,128,0,213100:0:0:0:0:
256,192,213100,1,0,0:0:0:0:
142,192,213100,1,0,0:0:0:0:
426,192,213100,128,0,213225:0:0:0:0:
28,192,213100,128,0,213225:0:0:0:0:
85,192,213350,128,0,213475:0:0:0:0:
426,192,213350,128,0,213600:0:0:0:0:
142,192,213475,128,0,213600:0:0:0:0:
199,192,213600,128,0,213850:0:0:0:0:
369,192,213600,128,0,213850:0:0:0:0:
483,192,213600,128,0,213725:0:0:0:0:
28,192,213600,1,0,0:0:0:0:
312,192,213850,128,0,214100:0:0:0:0:
142,192,213850,1,0,0:0:0:0:
199,192,213975,128,0,214100:0:0:0:0:
85,192,213975,1,0,0:0:0:0:
369,192,214100,128,0,214350:0:0:0:0:
28,192,214100,1,0,0:0:0:0:
483,192,214100,128,0,214225:0:0:0:0:
142,192,214100,1,0,0:0:0:0:
199,192,214225,128,0,214350:0:0:0:0:
85,192,214225,1,0,0:0:0:0:
256,192,214350,128,0,214475:0:0:0:0:
426,192,214350,128,0,215100:0:0:0:0:
142,192,214350,1,0,0:0:0:0:
28,192,214475,1,0,0:0:0:0:
312,192,214600,128,0,214850:0:0:0:0:
85,192,214600,1,0,0:0:0:0:
483,192,214600,128,0,214725:0:0:0:0:
199,192,214850,128,0,215100:0:0:0:0:
85,192,214850,1,0,0:0:0:0:
369,192,215100,1,0,0:0:0:0:
483,192,215100,128,0,215225:0:0:0:0:
28,192,215100,1,0,0:0:0:0:
256,192,215225,1,0,0:0:0:0:
142,192,215350,128,0,215600:0:0:0:0:
426,192,215350,128,0,215600:0:0:0:0:
312,192,215350,1,0,0:0:0:0:
256,192,215600,1,0,0:0:0:0:
369,192,215600,1,0,0:0:0:0:
28,192,215600,128,0,215725:0:0:0:0:
483,192,215600,128,0,216100:0:0:0:0:
199,192,215600,128,0,215850:0:0:0:0:
142,192,215850,128,0,215975:0:0:0:0:
312,192,215850,1,0,0:0:0:0:
199,192,215975,128,0,216100:0:0:0:0:
369,192,215975,1,0,0:0:0:0:
28,192,216100,128,0,216225:0:0:0:0:
426,192,216100,128,0,216600:0:0:0:0:
256,192,216100,1,0,0:0:0:0:
312,192,216100,1,0,0:0:0:0:
369,192,216225,1,0,0:0:0:0:
312,192,216350,1,0,0:0:0:0:
142,192,216350,128,0,216600:0:0:0:0:
28,192,216600,128,0,216725:0:0:0:0:
199,192,216600,128,0,216850:0:0:0:0:
369,192,216600,128,0,217100:0:0:0:0:
256,192,216600,1,0,0:0:0:0:
142,192,216850,128,0,216975:0:0:0:0:
256,192,216850,1,0,0:0:0:0:
199,192,216975,128,0,217100:0:0:0:0:
483,192,217100,1,0,0:0:0:0:
28,192,217100,128,0,217225:0:0:0:0:
256,192,217100,1,0,0:0:0:0:
426,192,217100,128,0,217600:0:0:0:0:
142,192,217225,128,0,217350:0:0:0:0:
199,192,217350,128,0,217475:0:0:0:0:
256,192,217600,128,0,217725:0:0:0:0:
369,192,217600,128,0,218600:0:0:0:0:
28,192,217600,128,0,217725:0:0:0:0:
312,192,217600,1,0,0:0:0:0:
199,192,217725,128,0,217975:0:0:0:0:
312,192,217850,1,0,0:0:0:0:
142,192,217975,128,0,218350:0:0:0:0:
256,192,218100,1,0,0:0:0:0:
483,192,218100,1,0,0:0:0:0:
85,192,218100,128,0,218225:0:0:0:0:
199,192,218350,128,0,218600:0:0:0:0:
312,192,218350,1,0,0:0:0:0:
142,192,218600,128,0,219100:0:0:0:0:
483,192,218600,128,0,218725:0:0:0:0:
256,192,218600,1,0,0:0:0:0:
426,192,218600,1,0,0:0:0:0:
256,192,218850,1,0,0:0:0:0:
256,192,219100,1,0,0:0:0:0:
369,192,219100,1,0,0:0:0:0:
483,192,219100,1,0,0:0:0:0:
28,192,219100,128,0,219225:0:0:0:0:
312,192,219600,128,0,219850:0:0:0:0:
142,192,219600,1,0,0:0:0:0:
199,192,219600,1,0,0:0:0:0:
256,192,219600,1,0,0:0:0:0:
85,192,219600,128,0,219725:0:0:0:0:
312,192,219975,128,0,220100:0:0:0:0:
199,192,220100,1,0,0:0:0:0:
256,192,220100,1,0,0:0:0:0:
28,192,220100,128,0,220225:0:0:0:0:
369,192,220225,128,0,220350:0:0:0:0:
426,192,220350,128,0,220475:0:0:0:0:
483,192,220600,128,0,220850:0:0:0:0:
256,192,220600,1,0,0:0:0:0:
142,192,220600,128,0,220725:0:0:0:0:
312,192,220850,128,0,220975:0:0:0:0:
256,192,220850,1,0,0:0:0:0:
199,192,221100,1,0,0:0:0:0:
256,192,221100,1,0,0:0:0:0:
85,192,221100,128,0,221225:0:0:0:0:
256,192,221350,128,0,221475:0:0:0:0:
312,192,221475,128,0,221600:0:0:0:0:
369,192,221600,128,0,221850:0:0:0:0:
199,192,221600,1,0,0:0:0:0:
28,192,221600,128,0,221725:0:0:0:0:
312,192,221850,128,0,221975:0:0:0:0:
369,192,221975,128,0,222100:0:0:0:0:
142,192,222100,1,0,0:0:0:0:
256,192,222100,1,0,0:0:0:0:
85,192,222100,128,0,222225:0:0:0:0:
312,192,222225,128,0,222350:0:0:0:0:
426,192,222350,128,0,222475:0:0:0:0:
199,192,222350,1,0,0:0:0:0:
483,192,222600,128,0,222850:0:0:0:0:
256,192,222600,1,0,0:0:0:0:
142,192,222600,128,0,222725:0:0:0:0:
312,192,222850,128,0,222975:0:0:0:0:
256,192,222850,1,0,0:0:0:0:
28,192,223100,1,0,0:0:0:0:
256,192,223100,1,0,0:0:0:0:
85,192,223100,128,0,223225:0:0:0:0:
199,192,223225,1,0,0:0:0:0:
256,192,223350,128,0,223475:0:0:0:0:
369,192,223600,128,0,223850:0:0:0:0:
199,192,223600,1,0,0:0:0:0:
142,192,223600,128,0,223725:0:0:0:0:
256,192,223850,128,0,223975:0:0:0:0:
483,192,223850,1,0,0:0:0:0:
369,192,223975,128,0,224100:0:0:0:0:
426,192,223975,1,0,0:0:0:0:
199,192,224100,1,0,0:0:0:0:
312,192,224100,1,0,0:0:0:0:
28,192,224100,128,0,224225:0:0:0:0:
426,192,224225,1,0,0:0:0:0:
256,192,224350,128,0,224475:0:0:0:0:
483,192,224350,1,0,0:0:0:0:
369,192,224600,128,0,224850:0:0:0:0:
312,192,224600,1,0,0:0:0:0:
142,192,224600,128,0,224725:0:0:0:0:
256,192,224850,128,0,224975:0:0:0:0:
369,192,224975,128,0,225100:0:0:0:0:
312,192,225100,1,0,0:0:0:0:
199,192,225100,1,0,0:0:0:0:
85,192,225100,128,0,225225:0:0:0:0:
256,192,225225,1,0,0:0:0:0:
369,192,225350,128,0,225475:0:0:0:0:
199,192,225350,1,0,0:0:0:0:
142,192,225600,1,0,0:0:0:0:
483,192,225600,128,0,225725:0:0:0:0:
28,192,225600,128,0,225725:0:0:0:0:
426,192,225725,128,0,225850:0:0:0:0:
142,192,225850,1,0,0:0:0:0:
369,192,225975,128,0,226350:0:0:0:0:
199,192,225975,1,0,0:0:0:0:
256,192,226100,1,0,0:0:0:0:
483,192,226100,1,0,0:0:0:0:
85,192,226100,128,0,226225:0:0:0:0:
312,192,226350,128,0,226475:0:0:0:0:
199,192,226350,1,0,0:0:0:0:
199,192,226600,1,0,0:0:0:0:
312,192,226600,128,0,226725:0:0:0:0:
142,192,226600,128,0,226725:0:0:0:0:
256,192,226725,128,0,226850:0:0:0:0:
369,192,226850,1,0,0:0:0:0:
483,192,226850,128,0,227600:0:0:0:0:
426,192,226850,1,0,0:0:0:0:
256,192,226975,128,0,227350:0:0:0:0:
28,192,227100,128,0,227600:0:0:0:0:
85,192,227100,128,0,227225:0:0:0:0:
369,192,227100,1,0,0:0:0:0:
426,192,227100,1,0,0:0:0:0:
426,192,227600,128,0,227725:0:0:0:0:
199,192,227600,128,0,227850:0:0:0:0:
312,192,227600,1,0,0:0:0:0:
369,192,227850,1,0,0:0:0:0:
199,192,227975,128,0,228100:0:0:0:0:
312,192,228100,1,0,0:0:0:0:
256,192,228100,1,0,0:0:0:0:
483,192,228100,128,0,228225:0:0:0:0:
142,192,228225,128,0,228350:0:0:0:0:
85,192,228350,128,0,228475:0:0:0:0:
426,192,228350,1,0,0:0:0:0:
28,192,228600,128,0,228850:0:0:0:0:
312,192,228600,1,0,0:0:0:0:
256,192,228600,1,0,0:0:0:0:
369,192,228600,128,0,228725:0:0:0:0:
199,192,228850,128,0,228975:0:0:0:0:
256,192,228850,1,0,0:0:0:0:
312,192,229100,1,0,0:0:0:0:
256,192,229100,1,0,0:0:0:0:
426,192,229100,128,0,229225:0:0:0:0:
256,192,229350,128,0,229475:0:0:0:0:
199,192,229475,128,0,229600:0:0:0:0:
142,192,229600,128,0,229725:0:0:0:0:
312,192,229600,1,0,0:0:0:0:
483,192,229600,128,0,229725:0:0:0:0:
142,192,229850,128,0,230100:0:0:0:0:
369,192,230100,1,0,0:0:0:0:
256,192,230100,1,0,0:0:0:0:
426,192,230100,128,0,230225:0:0:0:0:
142,192,230225,128,0,230350:0:0:0:0:
312,192,230350,1,0,0:0:0:0:
85,192,230350,128,0,230475:0:0:0:0:
256,192,230600,1,0,0:0:0:0:
369,192,230600,128,0,230725:0:0:0:0:
28,192,230600,128,0,230850:0:0:0:0:
256,192,230850,1,0,0:0:0:0:
199,192,230975,128,0,231100:0:0:0:0:
483,192,231100,1,0,0:0:0:0:
256,192,231100,1,0,0:0:0:0:
426,192,231100,128,0,231225:0:0:0:0:
312,192,231225,1,0,0:0:0:0:
256,192,231350,128,0,231475:0:0:0:0:
142,192,231600,128,0,231850:0:0:0:0:
312,192,231600,1,0,0:0:0:0:
369,192,231600,128,0,231725:0:0:0:0:
256,192,231850,128,0,231975:0:0:0:0:
28,192,231850,1,0,0:0:0:0:
142,192,231975,128,0,232100:0:0:0:0:
85,192,231975,1,0,0:0:0:0:
312,192,232100,1,0,0:0:0:0:
199,192,232100,1,0,0:0:0:0:
483,192,232100,128,0,232225:0:0:0:0:
85,192,232225,1,0,0:0:0:0:
256,192,232350,128,0,232475:0:0:0:0:
28,192,232350,1,0,0:0:0:0:
142,192,232600,128,0,232850:0:0:0:0:
199,192,232600,1,0,0:0:0:0:
369,192,232600,128,0,232725:0:0:0:0:
256,192,232850,128,0,232975:0:0:0:0:
142,192,232975,128,0,233100:0:0:0:0:
199,192,233100,1,0,0:0:0:0:
312,192,233100,1,0,0:0:0:0:
426,192,233100,128,0,233225:0:0:0:0:
256,192,233225,128,0,233350:0:0:0:0:
142,192,233350,128,0,233475:0:0:0:0:
312,192,233350,1,0,0:0:0:0:
369,192,233600,1,0,0:0:0:0:
28,192,233600,128,0,233725:0:0:0:0:
483,192,233600,128,0,233725:0:0:0:0:
85,192,233725,128,0,233850:0:0:0:0:
256,192,233850,1,0,0:0:0:0:
199,192,233975,128,0,234350:0:0:0:0:
312,192,233975,1,0,0:0:0:0:
369,192,234100,1,0,0:0:0:0:
483,192,234100,1,0,0:0:0:0:
426,192,234100,128,0,234225:0:0:0:0:
312,192,234225,1,0,0:0:0:0:
142,192,234350,128,0,234475:0:0:0:0:
256,192,234350,1,0,0:0:0:0:
312,192,234600,1,0,0:0:0:0:
199,192,234600,128,0,235100:0:0:0:0:
369,192,234600,128,0,234725:0:0:0:0:
85,192,234850,1,0,0:0:0:0:
28,192,234850,1,0,0:0:0:0:
256,192,235100,1,0,0:0:0:0:
312,192,235100,1,0,0:0:0:0:
312,192,235350,1,0,0:0:0:0:
199,192,235475,1,0,0:0:0:0:
426,192,235600,128,0,235850:0:0:0:0:
142,192,235600,128,0,236350:0:0:0:0:
256,192,235600,1,0,0:0:0:0:
85,192,235600,1,0,0:0:0:0:
28,192,235600,1,0,0:0:0:0:
199,192,235850,1,0,0:0:0:0:
426,192,235975,128,0,236225:0:0:0:0:
256,192,235975,1,0,0:0:0:0:
28,192,236100,1,0,0:0:0:0:
312,192,236100,1,0,0:0:0:0:
369,192,236225,128,0,236350:0:0:0:0:
256,192,236225,1,0,0:0:0:0:
199,192,236350,1,0,0:0:0:0:
483,192,236600,128,0,236850:0:0:0:0:
199,192,236600,1,0,0:0:0:0:
85,192,236600,128,0,236850:0:0:0:0:
312,192,236850,1,0,0:0:0:0:
256,192,236850,1,0,0:0:0:0:
483,192,236975,128,0,237100:0:0:0:0:
199,192,236975,1,0,0:0:0:0:
85,192,236975,128,0,237100:0:0:0:0:
256,192,237100,1,0,0:0:0:0:
312,192,237100,1,0,0:0:0:0:
199,192,237225,1,0,0:0:0:0:
369,192,237350,128,0,237600:0:0:0:0:
256,192,237350,1,0,0:0:0:0:
426,192,237600,128,0,237850:0:0:0:0:
28,192,237600,128,0,238350:0:0:0:0:
199,192,237600,1,0,0:0:0:0:
312,192,237850,1,0,0:0:0:0:
426,192,237975,128,0,238225:0:0:0:0:
256,192,237975,1,0,0:0:0:0:
85,192,238100,1,0,0:0:0:0:
199,192,238100,1,0,0:0:0:0:
369,192,238225,128,0,238350:0:0:0:0:
256,192,238225,1,0,0:0:0:0:
312,192,238350,1,0,0:0:0:0:
426,192,238600,128,0,238850:0:0:0:0:
142,192,238600,128,0,238850:0:0:0:0:
312,192,238600,1,0,0:0:0:0:
483,192,238850,128,0,238975:0:0:0:0:
256,192,238850,1,0,0:0:0:0:
199,192,238850,1,0,0:0:0:0:
142,192,238975,128,0,239100:0:0:0:0:
312,192,238975,1,0,0:0:0:0:
256,192,239100,1,0,0:0:0:0:
199,192,239100,1,0,0:0:0:0:
312,192,239225,1,0,0:0:0:0:
256,192,239350,1,0,0:0:0:0:
483,192,239350,128,0,239475:0:0:0:0:
369,192,239475,128,0,239600:0:0:0:0:
28,192,239600,128,0,240350:0:0:0:0:
426,192,239600,128,0,239725:0:0:0:0:
199,192,239600,1,0,0:0:0:0:
256,192,239850,1,0,0:0:0:0:
426,192,239850,128,0,239975:0:0:0:0:
199,192,239975,1,0,0:0:0:0:
426,192,240100,128,0,240225:0:0:0:0:
256,192,240100,1,0,0:0:0:0:
142,192,240100,1,0,0:0:0:0:
312,192,240225,1,0,0:0:0:0:
369,192,240225,128,0,240350:0:0:0:0:
256,192,240350,1,0,0:0:0:0:
85,192,240600,128,0,240850:0:0:0:0:
199,192,240600,1,0,0:0:0:0:
426,192,240600,128,0,240725:0:0:0:0:
256,192,240850,1,0,0:0:0:0:
312,192,240850,1,0,0:0:0:0:
426,192,240850,128,0,240975:0:0:0:0:
85,192,240975,128,0,241100:0:0:0:0:
199,192,241100,1,0,0:0:0:0:
426,192,241100,128,0,241225:0:0:0:0:
369,192,241100,1,0,0:0:0:0:
312,192,241225,1,0,0:0:0:0:
483,192,241225,128,0,241350:0:0:0:0:
256,192,241350,1,0,0:0:0:0:
85,192,241600,128,0,242350:0:0:0:0:
426,192,241600,128,0,241725:0:0:0:0:
312,192,241600,1,0,0:0:0:0:
426,192,241850,128,0,241975:0:0:0:0:
199,192,241850,1,0,0:0:0:0:
312,192,241975,1,0,0:0:0:0:
426,192,242100,128,0,242225:0:0:0:0:
256,192,242100,1,0,0:0:0:0:
142,192,242100,1,0,0:0:0:0:
369,192,242225,128,0,242350:0:0:0:0:
312,192,242225,1,0,0:0:0:0:
199,192,242350,1,0,0:0:0:0:
483,192,242600,128,0,242850:0:0:0:0:
256,192,242600,1,0,0:0:0:0:
28,192,242600,128,0,242725:0:0:0:0:
256,192,242850,1,0,0:0:0:0:
312,192,242850,1,0,0:0:0:0:
256,192,243100,1,0,0:0:0:0:
426,192,243100,128,0,243350:0:0:0:0:
369,192,243100,1,0,0:0:0:0:
142,192,243100,1,0,0:0:0:0:
256,192,243350,128,0,243600:0:0:0:0:
85,192,243600,128,0,243850:0:0:0:0:
369,192,243600,128,0,244350:0:0:0:0:
426,192,243600,1,0,0:0:0:0:
483,192,243600,1,0,0:0:0:0:
312,192,243850,1,0,0:0:0:0:
85,192,243975,128,0,244225:0:0:0:0:
256,192,243975,1,0,0:0:0:0:
483,192,244100,1,0,0:0:0:0:
199,192,244100,1,0,0:0:0:0:
142,192,244225,128,0,244350:0:0:0:0:
256,192,244225,1,0,0:0:0:0:
312,192,244350,1,0,0:0:0:0:
28,192,244600,128,0,244850:0:0:0:0:
312,192,244600,1,0,0:0:0:0:
426,192,244600,128,0,244850:0:0:0:0:
199,192,244850,1,0,0:0:0:0:
256,192,244850,1,0,0:0:0:0:
28,192,244975,128,0,245100:0:0:0:0:
312,192,244975,1,0,0:0:0:0:
426,192,244975,128,0,245100:0:0:0:0:
256,192,245100,1,0,0:0:0:0:
199,192,245100,1,0,0:0:0:0:
312,192,245225,1,0,0:0:0:0:
142,192,245350,128,0,245600:0:0:0:0:
256,192,245350,1,0,0:0:0:0:
85,192,245600,128,0,245850:0:0:0:0:
483,192,245600,128,0,246350:0:0:0:0:
312,192,245600,1,0,0:0:0:0:
199,192,245850,1,0,0:0:0:0:
85,192,245975,128,0,246225:0:0:0:0:
256,192,245975,1,0,0:0:0:0:
426,192,246100,1,0,0:0:0:0:
312,192,246100,1,0,0:0:0:0:
142,192,246225,128,0,246350:0:0:0:0:
256,192,246225,1,0,0:0:0:0:
199,192,246350,1,0,0:0:0:0:
85,192,246600,128,0,246850:0:0:0:0:
369,192,246600,128,0,246850:0:0:0:0:
199,192,246600,1,0,0:0:0:0:
28,192,246850,128,0,246975:0:0:0:0:
256,192,246850,1,0,0:0:0:0:
312,192,246850,1,0,0:0:0:0:
369,192,246975,128,0,247100:0:0:0:0:
199,192,246975,1,0,0:0:0:0:
256,192,247100,1,0,0:0:0:0:
312,192,247100,1,0,0:0:0:0:
199,192,247225,1,0,0:0:0:0:
256,192,247350,1,0,0:0:0:0:
28,192,247350,128,0,247475:0:0:0:0:
142,192,247475,128,0,247600:0:0:0:0:
483,192,247600,128,0,248350:0:0:0:0:
312,192,247600,1,0,0:0:0:0:
85,192,247600,128,0,247850:0:0:0:0:
256,192,247850,1,0,0:0:0:0:
312,192,247975,1,0,0:0:0:0:
85,192,247975,128,0,248100:0:0:0:0:
256,192,248100,1,0,0:0:0:0:
369,192,248100,1,0,0:0:0:0:
199,192,248225,1,0,0:0:0:0:
85,192,248225,128,0,248350:0:0:0:0:
256,192,248350,1,0,0:0:0:0:
28,192,248350,128,0,248600:0:0:0:0:
426,192,248600,128,0,248850:0:0:0:0:
312,192,248600,1,0,0:0:0:0:
85,192,248600,128,0,248850:0:0:0:0:
256,192,248850,1,0,0:0:0:0:
426,192,248975,128,0,249100:0:0:0:0:
85,192,248975,128,0,249100:0:0:0:0:
199,192,248975,1,0,0:0:0:0:
312,192,249100,1,0,0:0:0:0:
142,192,249100,1,0,0:0:0:0:
199,192,249225,1,0,0:0:0:0:
85,192,249225,128,0,249350:0:0:0:0:
256,192,249350,1,0,0:0:0:0:
28,192,249350,128,0,249600:0:0:0:0:
426,192,249600,128,0,249725:0:0:0:0:
85,192,249600,1,0,0:0:0:0:
256,192,249600,128,0,249725:0:0:0:0:
256,192,249850,128,0,250100:0:0:0:0:
312,192,250225,128,0,250350:0:0:0:0:
369,192,250350,128,0,250475:0:0:0:0:
256,192,250600,1,0,0:0:0:0:
