osu file format v14

[General]
AudioFilename: Recover Decoration.mp3
AudioLeadIn: 0
PreviewTime: 49428
Countdown: 0
SampleSet: Soft
StackLeniency: 0.7
Mode: 3
LetterboxInBreaks: 0
SpecialStyle: 0
WidescreenStoryboard: 0

[Editor]
DistanceSpacing: 1.3
BeatDivisor: 12
GridSize: 4
TimelineZoom: 1.5

[Metadata]
Title:Recover Decoration (TV Size)
TitleUnicode:リカバーデコレーション
Artist:Hanazawa Kana
ArtistUnicode:花澤香菜
Creator:Muu-chan
Version:Hard
Source:Nisekoi
Tags:ニセコイ False Fake Love anime ending onodera kosaki
BeatmapID:777314
BeatmapSetID:352734

[Difficulty]
HPDrainRate:8
CircleSize:5
OverallDifficulty:7.5
ApproachRate:5
SliderMultiplier:1.4
SliderTickRate:1

[Events]
//Background and Video events
0,0,"jAQLoK8.jpg",0,0
//Break Periods
//Storyboard Layer 0 (Background)
//Storyboard Layer 1 (Fail)
//Storyboard Layer 2 (Pass)
//Storyboard Layer 3 (Foreground)
//Storyboard Sound Samples

[TimingPoints]
-1732,535.714285714286,4,2,1,30,1,0
49696,-100,4,2,1,30,0,1
66839,-100,4,2,1,30,0,0

[HitObjects]
256,192,143,5,2,0:0:0:0:
51,192,321,1,2,0:0:0:0:
153,192,410,128,2,946:0:0:0:0:
460,192,410,128,2,946:0:0:0:0:
256,192,946,128,2,1482:0:0:0:0:
51,192,1482,128,2,2018:0:0:0:0:
358,192,1482,128,2,2018:0:0:0:0:
256,192,2018,128,2,2553:0:0:0:0:
51,192,2464,1,2,0:0:0:0:
153,192,2509,1,2,0:0:0:0:
460,192,2553,128,2,2821:0:0:0:0:
358,192,2553,128,2,2821:0:0:0:0:
51,192,2821,128,2,3089:0:0:0:0:
153,192,3089,128,2,3357:0:0:0:0:
256,192,3357,128,2,3625:0:0:0:0:
358,192,3625,128,2,3893:0:0:0:0:
153,192,3893,1,4,0:0:0:0:
51,192,3893,128,2,4428:0:0:0:0:
460,192,3893,1,8,0:0:0:0:
256,192,4294,1,0,0:0:0:0:
358,192,4294,1,8,0:0:0:0:
153,192,4428,1,2,0:0:0:0:
460,192,4495,1,2,0:0:0:0:
358,192,4562,1,2,0:0:0:0:
256,192,4629,1,2,0:0:0:0:
153,192,4696,128,2,4964:0:0:0:0:
51,192,4696,1,0,0:0:0:0:
460,192,4696,1,4,0:0:0:0:
358,192,4964,128,2,5187:0:0:0:0:
256,192,4964,1,8,1:0:0:0:
51,192,5187,128,2,5500:0:0:0:0:
153,192,5500,128,2,5768:0:0:0:0:
460,192,5500,1,8,1:0:0:0:
256,192,5768,128,2,6214:0:0:0:0:
51,192,6035,1,8,1:0:0:0:
153,192,6035,1,0,0:0:0:0:
460,192,6214,128,2,6571:0:0:0:0:
51,192,6571,1,8,1:0:0:0:
358,192,6571,128,2,6839:0:0:0:0:
256,192,6839,1,0,0:0:0:0:
153,192,7107,128,2,7375:0:0:0:0:
51,192,7107,1,8,1:0:0:0:
256,192,7375,128,2,7643:0:0:0:0:
358,192,7643,128,2,7866:0:0:0:0:
153,192,7643,1,8,1:0:0:0:
460,192,7866,128,2,8178:0:0:0:0:
256,192,8178,128,2,8357:0:0:0:0:
51,192,8178,1,8,1:0:0:0:
153,192,8357,128,2,8714:0:0:0:0:
51,192,8714,128,2,8982:0:0:0:0:
256,192,8714,1,8,1:0:0:0:
460,192,8982,128,2,9696:0:0:0:0:
153,192,9250,1,0,0:0:0:0:
358,192,9250,1,8,1:0:0:0:
256,192,9696,1,2,0:0:0:0:
153,192,9741,1,2,0:0:0:0:
51,192,9785,128,2,9964:0:0:0:0:
358,192,9785,1,8,1:0:0:0:
256,192,9964,1,2,0:0:0:0:
460,192,10053,128,2,10500:0:0:0:0:
153,192,10321,1,8,1:0:0:0:
51,192,10321,1,0,0:0:0:0:
256,192,10500,128,2,10857:0:0:0:0:
153,192,10857,1,8,1:0:0:0:
358,192,10857,128,2,11125:0:0:0:0:
51,192,11125,128,2,11660:0:0:0:0:
256,192,11125,1,2,0:0:0:0:
460,192,11660,128,2,12196:0:0:0:0:
153,192,11660,1,2,0:0:0:0:
256,192,12196,128,2,12732:0:0:0:0:
51,192,12196,1,2,0:0:0:0:
358,192,12732,128,2,13268:0:0:0:0:
153,192,12732,1,2,0:0:0:0:
51,192,13268,1,2,0:0:0:0:
460,192,13268,1,2,0:0:0:0:
51,192,13446,1,2,0:0:0:0:
460,192,13446,1,2,0:0:0:0:
153,192,13714,1,0,0:0:0:0:
256,192,13803,1,0,0:0:0:0:
358,192,14071,1,2,0:0:0:0:
153,192,14071,1,2,0:0:0:0:
256,192,14250,1,8,0:0:0:0:
153,192,14250,1,0,0:0:0:0:
358,192,14250,128,2,15410:0:0:0:0:
460,192,14518,1,8,0:0:0:0:
51,192,14518,1,0,0:0:0:0:
256,192,14785,1,0,0:0:0:0:
51,192,14875,1,0,0:0:0:0:
460,192,14875,1,8,0:0:0:0:
153,192,15053,1,0,0:0:0:0:
256,192,15143,1,0,0:0:0:0:
153,192,15410,1,0,0:0:0:0:
460,192,15410,1,4,0:0:0:0:
51,192,15410,1,0,0:0:0:0:
256,192,15678,1,0,0:0:0:0:
358,192,15857,1,0,0:0:0:0:
153,192,15946,1,8,0:0:0:0:
460,192,15946,1,0,0:0:0:0:
256,192,16125,1,2,0:0:0:0:
51,192,16214,1,2,0:0:0:0:
153,192,16482,1,2,0:0:0:0:
358,192,16750,1,0,0:0:0:0:
256,192,16928,1,0,0:0:0:0:
460,192,17018,1,0,0:0:0:0:
153,192,17018,1,8,0:0:0:0:
51,192,17196,1,2,0:0:0:0:
358,192,17285,1,2,0:0:0:0:
256,192,17553,1,2,0:0:0:0:
153,192,17821,1,0,0:0:0:0:
256,192,18000,1,0,0:0:0:0:
51,192,18089,1,8,0:0:0:0:
358,192,18089,1,0,0:0:0:0:
153,192,18357,1,2,0:0:0:0:
256,192,18535,1,0,0:0:0:0:
51,192,18625,1,2,0:0:0:0:
358,192,18803,1,0,0:0:0:0:
153,192,18893,1,2,0:0:0:0:
460,192,19160,1,8,0:0:0:0:
256,192,19160,1,2,0:0:0:0:
51,192,19428,128,2,19696:0:0:0:0:
153,192,19696,1,2,0:0:0:0:
358,192,19964,1,0,0:0:0:0:
256,192,20143,1,0,0:0:0:0:
460,192,20232,1,8,0:0:0:0:
51,192,20232,1,2,0:0:0:0:
153,192,20410,1,2,0:0:0:0:
358,192,20500,1,0,0:0:0:0:
256,192,20678,1,2,0:0:0:0:
51,192,20768,1,0,0:0:0:0:
460,192,21035,1,2,0:0:0:0:
153,192,21214,1,0,0:0:0:0:
358,192,21303,1,8,0:0:0:0:
51,192,21303,1,2,0:0:0:0:
256,192,21571,1,2,0:0:0:0:
460,192,21750,1,0,0:0:0:0:
153,192,21839,1,2,0:0:0:0:
358,192,22107,1,0,0:0:0:0:
51,192,22285,1,0,0:0:0:0:
460,192,22375,1,8,0:0:0:0:
256,192,22375,1,0,0:0:0:0:
358,192,22553,1,2,0:0:0:0:
153,192,22643,1,0,0:0:0:0:
51,192,22821,1,2,0:0:0:0:
256,192,22821,1,8,0:0:0:0:
153,192,22910,1,0,0:0:0:0:
256,192,23089,1,0,0:0:0:0:
358,192,23089,1,2,0:0:0:0:
460,192,23357,1,8,0:0:0:0:
51,192,23446,1,0,0:0:0:0:
153,192,23446,1,2,0:0:0:0:
256,192,23625,1,8,0:0:0:0:
358,192,23625,1,0,0:0:0:0:
51,192,23714,1,2,0:0:0:0:
460,192,23714,1,0,0:0:0:0:
153,192,23982,1,4,0:0:0:0:
358,192,23982,1,2,0:0:0:0:
256,192,23982,1,0,0:0:0:0:
51,192,24250,1,2,0:0:0:0:
153,192,24428,1,0,0:0:0:0:
256,192,24518,1,2,0:0:0:0:
460,192,24518,1,8,0:0:0:0:
358,192,24696,1,2,0:0:0:0:
51,192,24785,1,2,0:0:0:0:
460,192,24964,1,0,0:0:0:0:
153,192,25053,1,2,0:0:0:0:
256,192,25321,1,0,0:0:0:0:
51,192,25589,1,8,0:0:0:0:
358,192,25589,1,0,0:0:0:0:
153,192,25768,1,2,0:0:0:0:
460,192,25857,1,2,0:0:0:0:
358,192,26125,1,2,0:0:0:0:
256,192,26393,1,0,0:0:0:0:
153,192,26571,1,0,0:0:0:0:
358,192,26660,1,8,0:0:0:0:
51,192,26660,1,0,0:0:0:0:
460,192,26839,1,2,0:0:0:0:
256,192,26928,1,2,0:0:0:0:
358,192,27196,1,2,0:0:0:0:
51,192,27375,1,8,0:0:0:0:
256,192,27375,1,0,0:0:0:0:
153,192,27464,1,0,0:0:0:0:
358,192,27732,1,8,0:0:0:0:
256,192,27732,1,2,0:0:0:0:
460,192,27910,1,0,0:0:0:0:
51,192,28000,1,0,0:0:0:0:
153,192,28268,128,2,28535:0:0:0:0:
460,192,28535,1,0,0:0:0:0:
256,192,28714,1,2,0:0:0:0:
358,192,28803,1,8,0:0:0:0:
51,192,28803,1,2,0:0:0:0:
153,192,28982,1,8,0:0:0:0:
460,192,28982,1,0,0:0:0:0:
256,192,29071,1,2,0:0:0:0:
358,192,29250,1,0,0:0:0:0:
51,192,29250,128,2,29518:0:0:0:0:
460,192,29518,1,8,0:0:0:0:
153,192,29607,1,2,0:0:0:0:
460,192,29875,1,2,0:0:0:0:
256,192,29875,1,8,0:0:0:0:
358,192,30053,1,8,0:0:0:0:
51,192,30143,1,2,0:0:0:0:
460,192,30321,1,8,0:0:0:0:
153,192,30410,128,2,30678:0:0:0:0:
256,192,30678,1,0,0:0:0:0:
358,192,30678,1,8,0:0:0:0:
460,192,30946,1,8,0:0:0:0:
51,192,30946,1,2,0:0:0:0:
358,192,31125,1,8,0:0:0:0:
153,192,31125,1,2,0:0:0:0:
256,192,31393,1,2,0:0:0:0:
460,192,31393,1,0,0:0:0:0:
358,192,31660,1,2,0:0:0:0:
256,192,31705,1,2,0:0:0:0:
153,192,31750,1,0,0:0:0:0:
460,192,31750,1,4,0:0:0:0:
51,192,31750,128,2,32285:0:0:0:0:
358,192,32018,1,8,0:0:0:0:
256,192,32018,1,0,0:0:0:0:
460,192,32196,1,8,0:0:0:0:
153,192,32196,1,0,0:0:0:0:
256,192,32285,128,0,32553:0:0:0:0:
358,192,32553,1,2,0:0:0:0:
51,192,32553,1,4,0:0:0:0:
153,192,32821,1,0,0:0:0:0:
256,192,33000,1,0,0:0:0:0:
51,192,33089,1,0,0:0:0:0:
460,192,33089,1,8,0:0:0:0:
358,192,33357,1,0,0:0:0:0:
256,192,33625,1,2,0:0:0:0:
153,192,33625,1,0,0:0:0:0:
460,192,33803,1,0,0:0:0:0:
51,192,33893,1,0,0:0:0:0:
256,192,34160,1,0,0:0:0:0:
358,192,34160,1,8,0:0:0:0:
460,192,34428,128,0,34696:0:0:0:0:
358,192,34696,1,2,0:0:0:0:
51,192,34696,1,0,0:0:0:0:
153,192,34964,1,0,0:0:0:0:
256,192,35143,1,0,0:0:0:0:
460,192,35232,1,0,0:0:0:0:
51,192,35232,1,8,0:0:0:0:
358,192,35500,1,0,0:0:0:0:
256,192,35768,1,2,0:0:0:0:
153,192,35768,1,0,0:0:0:0:
51,192,35946,1,0,0:0:0:0:
460,192,36035,1,0,0:0:0:0:
358,192,36303,1,0,0:0:0:0:
256,192,36303,1,8,0:0:0:0:
153,192,36571,128,0,36839:0:0:0:0:
460,192,36839,1,0,0:0:0:0:
51,192,36839,1,2,0:0:0:0:
256,192,37107,1,0,0:0:0:0:
358,192,37375,1,8,0:0:0:0:
460,192,37375,1,0,0:0:0:0:
153,192,37643,1,0,0:0:0:0:
51,192,37821,1,0,0:0:0:0:
460,192,37910,1,0,0:0:0:0:
256,192,37910,1,2,0:0:0:0:
358,192,38089,1,0,0:0:0:0:
153,192,38178,1,0,0:0:0:0:
256,192,38357,1,0,0:0:0:0:
51,192,38446,1,8,0:0:0:0:
460,192,38446,1,0,0:0:0:0:
153,192,38714,128,0,38982:0:0:0:0:
460,192,38982,1,0,0:0:0:0:
256,192,38982,1,2,0:0:0:0:
51,192,39250,1,0,0:0:0:0:
153,192,39518,1,0,0:0:0:0:
358,192,39518,1,8,0:0:0:0:
256,192,39785,1,0,0:0:0:0:
460,192,39964,1,0,0:0:0:0:
153,192,40053,1,2,0:0:0:0:
51,192,40053,1,0,0:0:0:0:
358,192,40232,1,8,0:0:0:0:
256,192,40232,1,0,0:0:0:0:
153,192,40321,128,0,40589:0:0:0:0:
460,192,40589,1,2,0:0:0:0:
358,192,40589,1,8,0:0:0:0:
51,192,40768,1,0,0:0:0:0:
153,192,40768,1,8,0:0:0:0:
256,192,40857,128,0,41125:0:0:0:0:
358,192,41125,1,0,0:0:0:0:
460,192,41125,1,4,0:0:0:0:
51,192,41125,128,2,41660:0:0:0:0:
256,192,41571,1,0,0:0:0:0:
153,192,41660,128,2,41928:0:0:0:0:
460,192,41660,1,8,0:0:0:0:
358,192,41928,128,2,42464:0:0:0:0:
256,192,42464,128,2,42732:0:0:0:0:
153,192,42732,128,2,43000:0:0:0:0:
51,192,43000,128,2,43268:0:0:0:0:
256,192,43268,128,2,43803:0:0:0:0:
460,192,43268,1,0,0:0:0:0:
358,192,43803,128,2,44339:0:0:0:0:
153,192,43803,1,0,0:0:0:0:
51,192,44071,1,0,0:0:0:0:
256,192,44339,1,0,0:0:0:0:
460,192,44339,128,2,44785:0:0:0:0:
51,192,44607,1,0,0:0:0:0:
153,192,44607,1,8,0:0:0:0:
256,192,44785,128,2,45143:0:0:0:0:
358,192,45053,1,0,0:0:0:0:
153,192,45143,128,2,45410:0:0:0:0:
51,192,45410,128,2,46214:0:0:0:0:
460,192,45678,1,8,0:0:0:0:
358,192,45678,1,0,0:0:0:0:
256,192,45946,1,0,0:0:0:0:
153,192,46214,128,2,47018:0:0:0:0:
51,192,46750,1,0,0:0:0:0:
460,192,46750,1,8,0:0:0:0:
358,192,47018,128,2,47821:0:0:0:0:
256,192,47018,128,0,47821:0:0:0:0:
51,192,47821,128,2,48089:0:0:0:0:
460,192,47821,128,2,48089:0:0:0:0:
256,192,48089,128,2,48357:0:0:0:0:
153,192,48089,128,2,48357:0:0:0:0:
358,192,48357,128,2,48625:0:0:0:0:
51,192,48357,128,2,48625:0:0:0:0:
153,192,48625,1,8,0:0:0:0:
460,192,48625,1,0,0:0:0:0:
256,192,48893,1,2,0:0:0:0:
460,192,49696,128,2,49964:0:0:0:0:
51,192,49696,1,0,0:0:0:0:
256,192,49696,1,4,0:0:0:0:
153,192,49964,1,0,0:0:0:0:
358,192,49964,128,2,50232:0:0:0:0:
256,192,50232,128,2,50500:0:0:0:0:
51,192,50232,1,0,0:0:0:0:
460,192,50500,128,2,50768:0:0:0:0:
153,192,50500,1,0,0:0:0:0:
358,192,50768,1,8,0:0:0:0:
51,192,50768,128,2,51035:0:0:0:0:
153,192,51035,128,2,51303:0:0:0:0:
256,192,51035,1,8,0:0:0:0:
358,192,51303,128,2,51571:0:0:0:0:
460,192,51303,1,0,0:0:0:0:
51,192,51571,1,0,0:0:0:0:
256,192,51571,128,2,51839:0:0:0:0:
153,192,51839,1,0,0:0:0:0:
460,192,51839,128,2,52107:0:0:0:0:
358,192,52107,1,8,0:0:0:0:
51,192,52107,128,2,52375:0:0:0:0:
256,192,52375,1,0,0:0:0:0:
153,192,52375,128,2,52643:0:0:0:0:
358,192,52643,128,2,52910:0:0:0:0:
460,192,52643,1,0,0:0:0:0:
256,192,52910,128,2,53178:0:0:0:0:
51,192,52910,1,0,0:0:0:0:
358,192,53178,1,8,0:0:0:0:
153,192,53178,128,2,53446:0:0:0:0:
460,192,53446,128,2,53714:0:0:0:0:
256,192,53446,1,0,0:0:0:0:
51,192,53714,128,2,53982:0:0:0:0:
358,192,53714,1,0,0:0:0:0:
460,192,53982,1,0,0:0:0:0:
153,192,53982,128,2,54250:0:0:0:0:
358,192,54250,1,0,0:0:0:0:
256,192,54250,128,2,54518:0:0:0:0:
153,192,54518,1,0,0:0:0:0:
460,192,54518,128,2,54785:0:0:0:0:
358,192,54785,128,2,55053:0:0:0:0:
51,192,54785,1,0,0:0:0:0:
153,192,55053,1,0,0:0:0:0:
256,192,55053,128,2,55321:0:0:0:0:
460,192,55321,1,8,0:0:0:0:
51,192,55321,128,2,55589:0:0:0:0:
153,192,55589,128,2,55857:0:0:0:0:
358,192,55589,1,0,0:0:0:0:
256,192,55857,128,2,56125:0:0:0:0:
460,192,55857,1,8,0:0:0:0:
358,192,56125,1,4,0:0:0:0:
51,192,56125,1,2,0:0:0:0:
460,192,56125,1,0,0:0:0:0:
153,192,56393,1,0,0:0:0:0:
51,192,56571,1,0,0:0:0:0:
460,192,56660,1,8,0:0:0:0:
358,192,56660,1,2,0:0:0:0:
256,192,56928,1,0,0:0:0:0:
51,192,57107,1,2,0:0:0:0:
153,192,57107,1,8,0:0:0:0:
460,192,57196,1,0,0:0:0:0:
51,192,57464,128,2,58000:0:0:0:0:
358,192,57464,1,0,0:0:0:0:
256,192,57732,1,0,0:0:0:0:
460,192,57910,1,8,0:0:0:0:
358,192,57910,1,0,0:0:0:0:
153,192,58000,128,2,58268:0:0:0:0:
256,192,58268,1,4,0:0:0:0:
358,192,58268,1,0,0:0:0:0:
460,192,58268,1,2,0:0:0:0:
51,192,58446,1,0,0:0:0:0:
460,192,58535,1,8,0:0:0:0:
153,192,58535,1,2,0:0:0:0:
256,192,58803,1,2,0:0:0:0:
460,192,58982,1,0,0:0:0:0:
358,192,58982,1,8,0:0:0:0:
153,192,59071,1,2,0:0:0:0:
256,192,59250,1,0,0:0:0:0:
51,192,59250,1,8,0:0:0:0:
153,192,59339,1,2,0:0:0:0:
460,192,59518,1,0,0:0:0:0:
358,192,59607,1,8,0:0:0:0:
256,192,59607,1,2,0:0:0:0:
51,192,59785,1,0,0:0:0:0:
358,192,59875,1,2,0:0:0:0:
153,192,60053,1,8,0:0:0:0:
460,192,60053,1,0,0:0:0:0:
256,192,60143,1,2,0:0:0:0:
51,192,60321,1,0,0:0:0:0:
358,192,60321,1,8,0:0:0:0:
153,192,60410,1,2,0:0:0:0:
460,192,60589,1,0,0:0:0:0:
256,192,60678,1,2,0:0:0:0:
51,192,60946,1,2,0:0:0:0:
153,192,61125,1,0,0:0:0:0:
460,192,61125,1,8,0:0:0:0:
358,192,61214,1,2,0:0:0:0:
51,192,61393,1,0,0:0:0:0:
256,192,61482,1,2,0:0:0:0:
153,192,61660,1,0,0:0:0:0:
460,192,61750,1,2,0:0:0:0:
358,192,61750,1,8,0:0:0:0:
51,192,61928,1,0,0:0:0:0:
256,192,62018,1,2,0:0:0:0:
153,192,62196,1,0,0:0:0:0:
460,192,62285,1,2,0:0:0:0:
51,192,62464,1,0,0:0:0:0:
153,192,62464,1,8,0:0:0:0:
256,192,62553,1,0,0:0:0:0:
460,192,62553,1,4,0:0:0:0:
358,192,62553,1,2,0:0:0:0:
51,192,62732,1,0,0:0:0:0:
460,192,62821,1,2,0:0:0:0:
153,192,62821,1,8,0:0:0:0:
358,192,63000,1,0,0:0:0:0:
256,192,63089,1,2,0:0:0:0:
460,192,63268,1,8,0:0:0:0:
51,192,63268,1,0,0:0:0:0:
153,192,63357,1,2,0:0:0:0:
358,192,63535,1,8,0:0:0:0:
256,192,63535,1,0,0:0:0:0:
51,192,63625,1,2,0:0:0:0:
153,192,63803,1,0,0:0:0:0:
358,192,63893,1,2,0:0:0:0:
460,192,63893,1,8,0:0:0:0:
256,192,64071,1,0,0:0:0:0:
51,192,64160,1,2,0:0:0:0:
460,192,64339,1,0,0:0:0:0:
153,192,64339,1,8,0:0:0:0:
358,192,64428,1,2,0:0:0:0:
256,192,64607,1,0,0:0:0:0:
51,192,64696,1,2,0:0:0:0:
153,192,64875,1,0,0:0:0:0:
460,192,64964,1,2,0:0:0:0:
358,192,64964,1,8,0:0:0:0:
256,192,65143,1,0,0:0:0:0:
51,192,65232,1,2,0:0:0:0:
358,192,65410,1,8,0:0:0:0:
460,192,65410,1,0,0:0:0:0:
153,192,65500,1,2,0:0:0:0:
358,192,65678,1,8,0:0:0:0:
256,192,65678,1,0,0:0:0:0:
51,192,65768,1,2,0:0:0:0:
460,192,65946,1,0,0:0:0:0:
153,192,66035,1,2,0:0:0:0:
51,192,66035,1,8,0:0:0:0:
358,192,66214,1,0,0:0:0:0:
256,192,66303,1,2,0:0:0:0:
153,192,66482,1,0,0:0:0:0:
51,192,66482,1,8,0:0:0:0:
460,192,66571,128,0,66839:0:0:0:0:
358,192,66571,1,8,0:0:0:0:
153,192,66839,5,0,0:0:0:0:
256,192,66839,128,0,67107:0:0:0:0:
358,192,67285,1,0,0:0:0:0:
51,192,67375,128,0,67643:0:0:0:0:
153,192,67821,1,0,0:0:0:0:
358,192,67910,1,0,0:0:0:0:
460,192,67910,128,0,68178:0:0:0:0:
256,192,68357,1,0,0:0:0:0:
51,192,68446,128,0,68714:0:0:0:0:
153,192,68625,1,0,0:0:0:0:
358,192,68714,1,0,0:0:0:0:
51,192,68893,1,0,0:0:0:0:
460,192,68893,1,0,0:0:0:0:
256,192,68982,1,0,0:0:0:0:
153,192,69250,1,2,0:0:0:0:
358,192,69250,1,4,0:0:0:0:
256,192,69518,128,2,69785:0:0:0:0:
460,192,69696,1,0,0:0:0:0:
51,192,69785,128,2,69964:0:0:0:0:
256,192,69964,1,0,0:0:0:0:
153,192,69964,1,4,0:0:0:0:
358,192,69964,128,2,71125:0:0:0:0:
460,192,70857,1,0,0:0:0:0:
256,192,71125,1,2,0:0:0:0:
51,192,71125,1,0,0:0:0:0:
153,192,71393,1,0,0:0:0:0:
358,192,71660,1,0,0:0:0:0:
256,192,71928,1,0,0:0:0:0:
460,192,72196,1,2,0:0:0:0:
51,192,72196,1,0,0:0:0:0:
153,192,72732,1,0,0:0:0:0:
358,192,73268,1,0,0:0:0:0:
256,192,73803,128,0,74339:0:0:0:0:
460,192,74339,1,2,0:0:0:0:
51,192,74339,1,0,0:0:0:0:
153,192,75209,5,2,0:0:0:0:
256,192,75276,1,2,0:0:0:0:
358,192,75343,1,2,0:0:0:0:
153,192,75410,1,4,0:0:0:0:
51,192,75410,1,0,0:0:0:0:
460,192,75410,128,2,75678:0:0:0:0:
256,192,75678,128,2,75901:0:0:0:0:
358,192,75678,1,8,1:0:0:0:
51,192,75901,128,2,76214:0:0:0:0:
153,192,76214,128,2,76482:0:0:0:0:
460,192,76214,1,8,1:0:0:0:
358,192,76482,128,2,76928:0:0:0:0:
256,192,76750,1,8,1:0:0:0:
51,192,76750,1,0,0:0:0:0:
153,192,76928,128,2,77285:0:0:0:0:
256,192,77285,128,2,77553:0:0:0:0:
460,192,77285,1,8,1:0:0:0:
358,192,77553,1,0,0:0:0:0:
460,192,77821,128,2,78089:0:0:0:0:
51,192,77821,1,8,1:0:0:0:
153,192,78089,128,2,78357:0:0:0:0:
256,192,78357,128,2,78580:0:0:0:0:
358,192,78357,1,8,1:0:0:0:
460,192,78580,128,2,78893:0:0:0:0:
358,192,78893,1,8,1:0:0:0:
153,192,78893,128,2,79071:0:0:0:0:
256,192,79071,128,2,79428:0:0:0:0:
51,192,79428,128,2,79696:0:0:0:0:
460,192,79428,1,8,1:0:0:0:
358,192,79696,128,2,80410:0:0:0:0:
153,192,79964,1,8,1:0:0:0:
460,192,79964,1,0,0:0:0:0:
256,192,80410,1,2,0:0:0:0:
153,192,80455,1,2,0:0:0:0:
51,192,80500,128,2,80678:0:0:0:0:
460,192,80500,1,8,1:0:0:0:
358,192,80678,1,2,0:0:0:0:
256,192,80768,128,2,81214:0:0:0:0:
153,192,81035,1,8,1:0:0:0:
51,192,81035,1,0,0:0:0:0:
460,192,81214,128,2,81571:0:0:0:0:
358,192,81571,128,2,81839:0:0:0:0:
256,192,81571,1,8,1:0:0:0:
153,192,81839,1,2,0:0:0:0:
51,192,81839,128,2,82375:0:0:0:0:
460,192,82375,128,2,82910:0:0:0:0:
256,192,82375,1,2,0:0:0:0:
51,192,82910,1,2,0:0:0:0:
358,192,82910,128,2,83446:0:0:0:0:
256,192,83446,128,2,83982:0:0:0:0:
153,192,83446,1,2,0:0:0:0:
51,192,83982,1,2,0:0:0:0:
460,192,83982,1,2,0:0:0:0:
460,192,84160,1,2,0:0:0:0:
51,192,84160,1,2,0:0:0:0:
358,192,84428,1,0,0:0:0:0:
256,192,84518,1,0,0:0:0:0:
358,192,84785,1,2,0:0:0:0:
153,192,84785,1,2,0:0:0:0:
153,192,84964,128,2,86125:0:0:0:0:
358,192,84964,1,2,0:0:0:0:
256,192,84964,1,8,0:0:0:0:
460,192,85232,1,8,0:0:0:0:
51,192,85232,1,0,0:0:0:0:
256,192,85500,1,0,0:0:0:0:
460,192,85589,1,8,0:0:0:0:
51,192,85589,1,0,0:0:0:0:
358,192,85768,1,0,0:0:0:0:
256,192,85857,1,0,0:0:0:0:
51,192,86125,1,2,0:0:0:0:
460,192,86125,1,0,0:0:0:0:
