osu file format v14

[General]
AudioFilename: audio.mp3
AudioLeadIn: 0
PreviewTime: 59869
Countdown: 1
SampleSet: Soft
StackLeniency: 0.7
Mode: 0
LetterboxInBreaks: 0
WidescreenStoryboard: 0

[Editor]
DistanceSpacing: 3.6
BeatDivisor: 4
GridSize: 4
TimelineZoom: 1.6

[Metadata]
Title:Mousou Express
TitleUnicode:もうそう♥えくすぷれす
Artist:Hanazawa Kana
ArtistUnicode:花澤香菜
Creator:hypercyte
Version:Fun
Source:monogatari
Tags:medusa
BeatmapID:1468794
BeatmapSetID:694230

[Difficulty]
HPDrainRate:6
CircleSize:4.2
OverallDifficulty:8
ApproachRate:9.2
SliderMultiplier:1.8
SliderTickRate:1

[Events]
//Background and Video events
0,0,"827055.jpg",0,0
//Break Periods
2,42693,59299
2,78335,258308
//Storyboard Layer 0 (Background)
//Storyboard Layer 1 (Fail)
//Storyboard Layer 2 (Pass)
//Storyboard Layer 3 (Foreground)
//Storyboard Sound Samples

[TimingPoints]
463.393262275447,594.059405940594,4,2,0,45,1,0
9968,-86.9565217391304,4,2,0,45,0,0
22889,-133.333333333333,4,2,0,45,0,0
23631,-100,4,2,0,45,0,0
32394,-133.333333333333,4,2,0,45,0,0
33433,-100,4,2,0,45,0,0
38483,-200,4,2,0,45,0,0
39225,-100,4,2,0,45,0,0
59869,-80,4,2,0,45,0,0
76502,297.029702970297,4,2,0,45,1,0
76502,-100,4,2,0,45,0,0
76948,-80,4,2,0,45,0,0
77393,-66.6666666666667,4,2,0,45,0,0
77838,-57.1428571428571,4,2,0,45,0,0
78284,594.059405940594,4,2,0,45,1,0

[HitObjects]
316,120,463,6,0,L|301:216,1,90
212,136,1057,1,0,0:0:0:0:
417,181,1205,1,0,0:0:0:0:
270,310,1354,1,0,0:0:0:0:
302,208,1502,2,0,L|350:291,1,90
68,136,2097,2,0,L|123:104,1,45
106,208,2394,2,0,L|51:240,2,45
186,160,2839,6,2,L|247:243,1,90
124,258,3433,1,0,0:0:0:0:
300,144,3581,1,0,0:0:0:0:
288,340,3730,1,0,0:0:0:0:
239,232,3878,2,0,L|331:256,1,90
362,189,4324,2,0,L|406:201,2,45
181,133,4918,2,0,L|137:121,1,45
44,137,5215,6,0,P|61:181|113:212,1,90
137,121,5810,1,0,0:0:0:0:
28,263,5958,1,0,0:0:0:0:
199,293,6107,1,0,0:0:0:0:
121,215,6255,2,0,L|208:194,1,90
48,40,6849,2,0,L|48:96,1,45
137,121,7146,2,0,L|137:65,2,45
164,214,7592,6,0,L|207:183,1,45
284,119,7889,1,0,0:0:0:0:
271,352,8186,1,0,0:0:0:0:
165,302,8334,1,0,0:0:0:0:
378,206,8631,2,0,L|378:258,1,45
287,189,8928,2,0,L|243:149,1,45
324,120,9225,2,0,L|301:65,1,45
196,264,9968,6,0,L|211:162,1,103.500001974106
300,248,10562,1,0,0:0:0:0:
95,203,10710,1,0,0:0:0:0:
242,74,10859,1,0,0:0:0:0:
210,176,11007,2,0,L|157:85,1,103.500001974106
444,248,11602,2,0,L|384:282,1,51.7500009870529
406,176,11899,2,0,L|463:142,2,51.7500009870529
326,224,12344,6,2,L|263:140,1,103.500001974106
388,126,12938,1,0,0:0:0:0:
212,240,13086,1,0,0:0:0:0:
224,44,13235,1,0,0:0:0:0:
273,152,13383,2,0,L|170:124,1,103.500001974106
150,195,13829,2,0,L|101:181,2,51.7500009870529
331,251,14423,2,0,L|385:265,1,51.7500009870529
473,248,14720,6,0,P|456:204|401:171,1,103.500001974106
375,263,15315,1,0,0:0:0:0:
484,121,15463,1,0,0:0:0:0:
313,91,15612,1,0,0:0:0:0:
391,169,15760,2,0,L|290:194,1,103.500001974106
464,344,16354,2,0,L|464:280,1,51.7500009870529
375,263,16651,2,0,L|376:324,2,51.7500009870529
348,170,17097,6,0,L|300:204,1,51.7500009870529
228,265,17394,1,0,0:0:0:0:
241,32,17691,1,0,0:0:0:0:
347,82,17839,1,0,0:0:0:0:
134,178,18136,2,0,L|134:119,1,51.7500009870529
225,195,18433,2,0,L|267:234,1,51.7500009870529
188,264,18730,2,0,L|211:319,1,51.7500009870529
28,110,19176,6,0,P|72:79|134:79,1,103.500001974106
233,319,19770,1,0,0:0:0:0:
134,227,19918,1,0,0:0:0:0:
257,192,20067,2,0,L|229:235,1,51.7500009870529
194,107,20364,2,0,P|251:79|303:90,1,103.500001974106
134,227,20958,1,0,0:0:0:0:
59,115,21106,1,0,0:0:0:0:
391,141,21552,2,0,L|369:253,1,103.500001974106
128,127,22146,1,0,0:0:0:0:
238,95,22295,2,0,L|227:161,1,51.7500009870529
313,195,22592,2,0,L|275:250,1,51.7500009870529
323,113,22889,6,0,P|381:147|393:219,1,135.000005149842
283,237,23631,2,0,L|193:237,1,90
171,152,24225,2,0,P|129:172|105:224,1,90
263,162,24671,1,0,0:0:0:0:
64,78,24968,1,0,0:0:0:0:
67,275,25265,2,0,L|122:293,1,45
171,228,25562,2,0,L|116:210,1,45
200,153,25859,2,0,L|255:171,1,45
202,68,26156,2,0,P|172:71|139:88,2,45
329,83,26602,6,0,L|319:185,1,90
274,242,27047,2,0,L|284:140,1,90
358,272,27493,1,0,0:0:0:0:
358,272,27641,2,0,P|322:314|275:327,1,90
222,224,28087,1,0,0:0:0:0:
319,178,28235,1,0,0:0:0:0:
222,129,28384,1,0,0:0:0:0:
318,80,28532,1,0,0:0:0:0:
218,37,28681,2,0,L|169:51,1,45
133,149,28978,5,0,0:0:0:0:
233,275,29126,1,0,0:0:0:0:
299,126,29275,1,0,0:0:0:0:
233,275,29423,2,0,L|190:259,1,45
314,364,29869,2,0,L|363:350,1,45
399,252,30166,1,0,0:0:0:0:
299,126,30314,1,0,0:0:0:0:
233,275,30463,1,0,0:0:0:0:
299,126,30611,2,0,L|341:141,1,45
96,82,31057,2,0,L|82:127,1,45
183,147,31354,6,0,L|189:193,1,45
288,173,31651,1,0,0:0:0:0:
288,173,31800,2,0,L|313:212,1,45
325,88,32097,2,0,L|279:79,1,45
406,174,32394,2,0,P|446:110|430:38,1,135.000005149842
325,88,33136,2,0,L|372:101,1,33.7500012874604
312,189,33433,1,0,0:0:0:0:
83,106,33730,6,0,P|132:62|203:60,1,135
192,232,34473,1,0,0:0:0:0:
0,203,34770,2,0,L|33:167,1,45
118,192,35067,2,0,L|87:225,1,45
192,232,35364,2,0,L|225:196,1,45
236,28,35661,1,0,0:0:0:0:
76,67,35809,1,0,0:0:0:0:
231,113,35958,1,0,0:0:0:0:
76,67,36106,6,0,L|76:159,1,90
148,249,36552,2,0,P|200:261|250:245,1,90
448,172,37146,2,0,P|383:151|317:173,1,135
464,277,37889,1,0,0:0:0:0:
465,65,38186,1,0,0:0:0:0:
256,192,38483,6,0,L|356:192,1,90
227,63,39225,1,0,0:0:0:0:
114,231,39374,1,0,0:0:0:0:
314,257,39522,1,0,0:0:0:0:
157,127,39671,1,0,0:0:0:0:
372,85,39819,1,0,0:0:0:0:
280,176,39968,2,0,L|281:129,1,45
394,227,40265,2,0,P|392:292|374:323,1,90
77,240,40859,2,0,L|118:181,1,45
182,88,41156,1,0,0:0:0:0:
354,184,41453,2,0,P|311:213|270:217,1,90
323,88,41899,1,0,0:0:0:0:
323,88,42047,1,0,0:0:0:0:
421,123,42196,2,0,P|457:161|468:211,1,90
132,80,59869,6,0,L|192:80,1,56.25
138,272,60166,1,0,0:0:0:0:
55,81,60314,1,0,0:0:0:0:
0,272,60463,2,0,L|62:273,1,56.25
311,183,60908,1,0,0:0:0:0:
126,123,61057,1,0,0:0:0:0:
259,292,61205,1,0,0:0:0:0:
126,123,61354,1,0,0:0:0:0:
259,292,61502,1,0,0:0:0:0:
235,170,61651,2,0,L|168:190,1,56.25
259,292,61948,2,0,L|326:272,1,56.25
220,116,62245,6,0,L|240:181,1,56.25
318,112,62542,1,0,0:0:0:0:
108,120,62691,1,0,0:0:0:0:
259,292,62839,2,0,L|237:233,1,56.25
70,247,63285,1,0,0:0:0:0:
70,247,63433,2,0,P|126:268|179:258,1,112.5
78,160,63879,1,0,0:0:0:0:
104,353,64027,1,0,0:0:0:0:
172,163,64176,2,0,P|164:106|127:63,1,112.5
167,247,64621,6,0,L|241:246,1,56.25
391,248,64918,1,0,0:0:0:0:
303,76,65067,1,0,0:0:0:0:
223,246,65215,1,0,0:0:0:0:
411,65,65661,1,0,0:0:0:0:
411,65,65809,2,0,P|438:113|433:168,1,112.5
223,153,66403,2,0,P|271:125|326:130,1,112.5
145,311,66998,1,0,0:0:0:0:
145,209,67146,1,0,0:0:0:0:
232,260,67295,1,0,0:0:0:0:
145,311,67443,5,0,0:0:0:0:
141,120,67591,1,0,0:0:0:0:
303,210,67740,1,0,0:0:0:0:
145,311,67889,5,0,0:0:0:0:
140,31,68037,1,0,0:0:0:0:
371,154,68186,1,0,0:0:0:0:
145,311,68334,5,0,0:0:0:0:
140,31,68483,1,0,0:0:0:0:
371,154,68631,1,0,0:0:0:0:
213,135,68780,2,0,L|271:92,1,56.25
86,240,69374,6,0,L|40:192,1,56.25
151,156,69671,1,0,0:0:0:0:
267,296,69820,1,0,0:0:0:0:
84,335,69968,1,0,0:0:0:0:
228,201,70116,2,0,L|187:240,1,56.25
332,96,70413,1,0,0:0:0:0:
416,263,70561,1,0,0:0:0:0:
418,90,70710,1,0,0:0:0:0:
333,264,70858,1,0,0:0:0:0:
332,96,71007,1,0,0:0:0:0:
426,187,71156,2,0,L|356:188,1,56.25
313,188,71453,2,0,L|369:187,1,56.25
426,187,71750,6,0,L|356:188,1,56.25
256,188,72047,2,0,L|312:187,1,56.25
425,186,72344,2,0,P|409:252|376:280,1,112.5
235,276,72790,1,0,0:0:0:0:
244,68,72938,1,0,0:0:0:0:
315,258,73087,1,0,0:0:0:0:
146,101,73235,1,0,0:0:0:0:
315,258,73384,1,0,0:0:0:0:
67,198,73532,1,0,0:0:0:0:
315,258,73681,2,0,P|352:205|327:88,1,168.75
226,212,74423,1,0,0:0:0:0:
434,216,74572,1,0,0:0:0:0:
318,37,74720,1,0,0:0:0:0:
147,277,75166,1,0,0:0:0:0:
355,281,75315,1,0,0:0:0:0:
239,102,75463,1,0,0:0:0:0:
204,189,75611,2,0,L|260:189,1,56.25
317,190,75908,2,0,L|261:189,1,56.25
148,188,76205,2,0,L|204:189,1,56.25
290,72,76502,2,0,P|225:58|146:131,1,180
290,72,76948,2,0,P|225:58|149:187,1,225
290,72,77393,2,0,P|191:70|179:227,1,270.000010299683
290,72,77838,2,0,P|191:70|236:249,1,315.000003004074
486,182,258878,5,0,0:0:0:0:
21,178,259026,1,0,0:0:0:0:
486,182,259175,1,0,0:0:0:0:
21,178,259323,1,0,0:0:0:0:
