osu file format v14

[General]
AudioFilename: audio.mp3
AudioLeadIn: 0
PreviewTime: 40441
Countdown: 0
SampleSet: None
StackLeniency: 0.4
Mode: 0
LetterboxInBreaks: 0
WidescreenStoryboard: 0

[Editor]
DistanceSpacing: 0.6
BeatDivisor: 4
GridSize: 4
TimelineZoom: 1.7

[Metadata]
Title:Mousou Express
TitleUnicode:もうそう♥えくすぷれす
Artist:Hanazawa Kana
ArtistUnicode:花澤香菜
Creator:Kondou-Shinichi
Version:pp lol
Source:
Tags:
BeatmapID:1851431
BeatmapSetID:885850

[Difficulty]
HPDrainRate:4
CircleSize:4.2
OverallDifficulty:8
ApproachRate:9.2
SliderMultiplier:2.9
SliderTickRate:1

[Events]
//Background and Video events
0,0,"lo.jpg",0,0
//Break Periods
//Storyboard Layer 0 (Background)
//Storyboard Layer 1 (Fail)
//Storyboard Layer 2 (Pass)
//Storyboard Layer 3 (Foreground)
//Storyboard Sound Samples

[TimingPoints]
640,594.059405940594,4,2,1,50,1,0
640,-133.333333333333,4,2,1,50,0,0
8808,-100,4,2,1,50,0,0
9253,-80,4,2,1,50,0,0
10144,-66.6666666666667,4,2,1,75,0,0
19352,-80,4,2,1,75,0,0
19649,-100,4,2,1,75,0,0
29154,-90.9090909090909,4,2,1,75,0,0
38659,-66.6666666666667,4,2,1,75,0,0
41036,-80,4,2,1,95,0,1
41630,-80,4,2,1,95,0,0
60045,-66.6666666666667,4,2,1,100,0,1
79055,-66.6666666666667,4,2,1,75,0,0

[HitObjects]
170,23,640,6,0,L|147:160,1,108.750004148483
151,130,1234,1,2,0:0:0:0:
219,198,1382,1,2,0:0:0:0:
247,109,1531,1,2,0:0:0:0:
143,227,1679,6,0,P|185:269|280:247,1,163.125006222725,2|0,0:0|0:0,0:0:0:0:
310,170,2273,1,2,0:0:0:0:
352,276,2422,2,0,P|336:298|315:315,1,54.3750020742417,2|2,0:0|0:0,0:0:0:0:
200,369,2719,2,0,P|224:357|251:354,1,54.3750020742417,2|0,0:0|0:0,0:0:0:0:
443,384,3016,6,0,L|431:274,1,108.750004148483
431,275,3610,1,2,0:0:0:0:
363,177,3758,2,0,L|268:163,1,54.3750020742417,2|2,0:0|0:0,0:0:0:0:
222,166,4055,2,0,P|250:240|326:258,1,163.125006222725,2|0,0:0|0:0,0:0:0:0:
363,177,4649,1,2,0:0:0:0:
298,59,4798,5,2,0:0:0:0:
226,25,4946,1,2,0:0:0:0:
164,19,5095,1,2,0:0:0:0:
130,24,5243,1,2,0:0:0:0:
116,40,5392,6,0,L|132:165,1,108.750004148483
129,147,5986,1,2,0:0:0:0:
61,215,6135,1,2,0:0:0:0:
33,126,6283,1,2,0:0:0:0:
136,244,6432,6,0,P|74:291|0:265,1,163.125006222725,2|0,0:0|0:0,0:0:0:0:
61,215,7026,1,2,0:0:0:0:
200,205,7174,2,0,P|208:240|203:276,1,54.3750020742417,2|2,0:0|0:0,0:0:0:0:
285,265,7471,2,0,P|274:299|252:327,1,54.3750020742417,2|0,0:0|0:0,0:0:0:0:
347,344,7768,5,0,0:0:0:0:
297,153,8065,2,0,P|265:110|232:92,1,54.3750020742417,2|0,0:0|0:0,0:0:0:0:
191,83,8362,5,2,0:0:0:0:
297,153,8511,2,0,P|347:174|397:163,1,54.3750020742417,2|0,0:0|0:0,0:0:0:0:
467,172,8808,6,0,P|403:232|408:331,1,145,2|2,0:0|0:0,0:0:0:0:
489,333,9253,6,0,L|507:271,1,45.3125,2|0,0:0|0:0,0:0:0:0:
394,285,9402,2,0,L|402:219,1,45.3125,2|0,0:0|0:0,0:0:0:0:
285,265,9550,1,2,0:0:0:0:
285,265,10144,6,0,P|173:307|38:287,1,217.500008296967,4|4,0:0|0:0,0:0:0:0:
77,300,10739,1,10,0:0:0:0:
119,205,10887,1,2,0:0:0:0:
140,113,11036,2,0,P|137:48|115:-25,1,108.750004148483,2|6,0:0|0:0,0:0:0:0:
213,178,11333,6,0,P|334:185|318:-7,1,326.25001244545,4|2,0:0|0:0,0:0:0:0:
290,70,11927,2,0,P|369:97|432:52,1,108.750004148483,10|2,0:0|0:0,0:0:0:0:
462,42,12224,1,2,0:0:0:0:
213,178,12521,6,0,P|233:298|371:339,1,217.500008296967,4|4,0:0|0:0,0:0:0:0:
309,343,13115,1,10,0:0:0:0:
379,323,13263,1,2,0:0:0:0:
435,269,13412,2,0,P|458:196|444:116,1,108.750004148483,2|6,0:0|0:0,0:0:0:0:
404,93,13709,5,4,0:0:0:0:
371,173,13857,1,0,0:0:0:0:
457,164,14006,1,0,0:0:0:0:
318,102,14154,1,6,0:0:0:0:
468,42,14303,6,0,P|421:15|368:21,1,108.750004148483,10|2,0:0|0:0,0:0:0:0:
218,81,14600,2,0,P|264:107|317:101,1,108.750004148483,2|0,0:0|0:0,0:0:0:0:
87,180,14897,6,0,P|192:171|270:243,1,217.500008296967,4|4,0:0|0:0,0:0:0:0:
269,242,15491,1,10,0:0:0:0:
196,313,15640,1,2,0:0:0:0:
94,328,15788,2,0,P|28:314|-13:280,1,108.750004148483,2|6,0:0|0:0,0:0:0:0:
87,180,16085,5,4,0:0:0:0:
192,171,16234,1,0,0:0:0:0:
31,114,16382,2,0,P|13:224|52:270,1,108.750004148483,0|6,0:0|0:0,0:0:0:0:
281,172,16679,6,0,P|236:96|170:82,1,108.750004148483,10|2,0:0|0:0,0:0:0:0:
87,180,16976,2,0,P|132:256|198:270,1,108.750004148483,2|0,0:0|0:0,0:0:0:0:
381,257,17273,6,0,P|227:301|214:370,1,217.500008296967,4|6,0:0|0:0,0:0:0:0:
214,338,17867,1,10,0:0:0:0:
308,244,18016,2,0,P|316:144|283:69,1,108.750004148483,2|0,0:0|0:0,0:0:0:0:
130,123,18313,6,0,P|231:179|320:127,1,217.500008296967,6|2,0:0|0:0,0:0:0:0:
264,46,18758,2,0,L|222:89,1,54.3750020742417,2|0,0:0|0:0,0:0:0:0:
143,70,18907,2,0,L|128:128,1,54.3750020742417,6|0,0:0|0:0,0:0:0:0:
31,126,19055,6,0,P|56:177|131:230,1,108.750004148483,10|0,0:0|0:0,0:0:0:0:
238,281,19352,2,0,P|159:261|104:281,1,90.625
179,339,19649,6,0,P|274:359|317:314,1,145,4|0,0:0|0:0,0:0:0:0:
311,249,20095,1,4,0:0:0:0:
390,384,20243,5,8,0:0:0:0:
390,384,20540,2,0,L|403:299,1,72.5,0|4,0:0|0:0,0:0:0:0:
490,201,20838,6,0,L|469:321,1,72.5
400,312,21135,1,4,0:0:0:0:
425,159,21283,2,0,P|460:133|522:116,1,72.5,0|8,0:0|0:0,0:0:0:0:
486,122,21729,5,0,0:0:0:0:
286,235,22026,2,0,P|361:261|405:326,1,145,4|0,0:0|0:0,0:0:0:0:
227,375,22471,2,0,L|215:283,1,72.5,4|8,0:0|0:0,0:0:0:0:
295,163,22768,2,0,L|283:255,1,72.5
219,117,23065,6,0,P|297:80|386:126,1,145,4|4,0:0|0:0,0:0:0:0:
400,150,23511,1,4,0:0:0:0:
178,180,23808,1,8,0:0:0:0:
315,358,24105,1,0,0:0:0:0:
477,184,24402,6,0,P|473:111|414:71,1,145,4|0,0:0|0:0,0:0:0:0:
270,138,24847,2,0,P|350:171|406:144,1,145,4|0,0:0|0:0,0:0:0:0:
337,80,25293,1,0,0:0:0:0:
198,182,25441,6,0,P|289:241|350:242,2,145,4|0|4,0:0|0:0|0:0,0:0:0:0:
189,103,26184,1,8,0:0:0:0:
176,271,26333,2,0,P|122:207|117:136,1,145
264,234,26778,6,0,P|250:324|188:367,1,145,4|0,0:0|0:0,0:0:0:0:
124,337,27224,1,4,0:0:0:0:
176,271,27372,1,8,0:0:0:0:
264,234,27521,2,0,P|338:239|358:252,1,72.5
487,304,27818,6,0,P|397:313|359:361,1,145,4|4,0:0|0:0,0:0:0:0:
413,213,28263,2,0,P|429:157|398:91,1,72.5,6|2,0:0|0:0,0:0:0:0:
384,70,28560,5,10,0:0:0:0:
271,167,28709,1,2,0:0:0:0:
428,144,28857,1,2,0:0:0:0:
291,87,29006,1,6,0:0:0:0:
251,256,29154,6,0,P|322:226|338:159,1,79.7500024337769,4|0,0:0|0:0,0:0:0:0:
291,87,29451,1,0,0:0:0:0:
196,177,29600,2,0,P|162:257|199:343,1,159.500004867554,4|0,0:0|0:0,0:0:0:0:
311,383,30045,2,0,P|253:358|206:369,1,79.7500024337769,0|4,0:0|0:0,0:0:0:0:
116,173,30342,6,0,P|177:261|207:267,1,79.7500024337769
327,303,30640,1,4,0:0:0:0:
182,323,30788,2,0,P|162:328|102:406,1,79.7500024337769,0|8,0:0|0:0,0:0:0:0:
116,364,31234,1,4,0:0:0:0:
251,291,31531,6,0,P|261:194|224:80,1,159.500004867554,4|0,0:0|0:0,0:0:0:0:
185,90,31976,2,0,P|173:39|183:-22,1,79.7500024337769,4|8,0:0|0:0,0:0:0:0:
323,134,32273,2,0,P|335:185|325:246,1,79.7500024337769
155,166,32570,1,4,0:0:0:0:
282,68,32719,6,0,P|361:67|410:154,1,159.500004867554,0|4,0:0|0:0,0:0:0:0:
420,195,33164,1,4,0:0:0:0:
342,304,33313,2,0,P|264:253|271:158,1,159.500004867554,8|0,0:0|0:0,0:0:0:0:
314,384,33907,6,0,P|402:353|426:273,1,159.500004867554,4|0,0:0|0:0,0:0:0:0:
335,226,34352,2,0,P|340:300|377:341,1,79.7500024337769,4|8,0:0|0:0,0:0:0:0:
496,329,34649,2,0,P|429:296|375:307,1,79.7500024337769
259,325,34946,6,0,P|247:246|273:172,2,159.500004867554,4|0|4,0:0|0:0|0:0,0:0:0:0:
335,226,35689,2,0,P|354:175|341:90,1,79.7500024337769,8|0,0:0|0:0,0:0:0:0:
293,86,35986,1,0,0:0:0:0:
187,198,36135,1,0,0:0:0:0:
345,320,36283,6,0,P|399:269|419:153,1,159.500004867554,4|0,0:0|0:0,0:0:0:0:
320,12,36729,2,0,P|295:118|307:150,1,79.7500024337769,4|8,0:0|0:0,0:0:0:0:
472,249,37026,2,0,P|392:174|358:168,1,79.7500024337769
187,198,37323,6,0,P|270:238|213:147,1,239.250007301331,4|0,0:0|0:0,0:0:0:0:
174,123,37917,1,4,0:0:0:0:
133,295,38065,5,8,0:0:0:0:
137,324,38362,1,0,0:0:0:0:
52,39,38659,6,2,B|69:89|69:89|90:100|90:100|79:116|79:116|56:123|56:123|38:156|38:156|70:172|70:172|116:195|116:195|70:207|70:207|69:250|69:250|112:277|112:277|114:323,1,326.25001244545
126,376,39253,2,2,B|125:340|125:340|131:331|131:331|123:320|123:320|130:304|130:304|131:255,1,108.750004148483,10|2,0:0|0:0,0:0:0:0:
224,193,39550,2,2,B|193:192|193:192|170:198|149:193|149:193|117:202|95:191,1,108.750004148483,0|8,0:0|0:0,0:0:0:0:
276,128,39847,6,8,P|249:120|222:121,1,54.3750020742417,8|12,0:0|0:0,0:0:0:0:
344,366,39996,2,8,P|317:358|290:359,1,54.3750020742417,8|12,0:0|0:0,0:0:0:0:
218,376,40144,1,4,0:0:0:0:
218,376,40441,6,0,P|227:325|304:289,1,108.750004148483,10|4,0:0|0:0,0:0:0:0:
467,364,40739,2,8,P|440:373|409:374,1,54.3750020742417,10|12,0:0|0:0,0:0:0:0:
226,215,40887,2,8,P|253:206|284:205,1,54.3750020742417,8|12,0:0|0:0,0:0:0:0:
82,335,41036,6,0,P|20:231|76:101,1,271.875,6|4,0:0|0:0,0:0:0:0:
295,184,41630,2,0,P|246:185|173:217,1,90.625,10|0,0:0|0:0,0:0:0:0:
142,262,41927,1,4,0:0:0:0:
350,317,42075,6,0,L|374:202,1,90.625,10|0,0:0|0:0,0:0:0:0:
276,95,42372,2,0,L|300:210,1,90.625,10|0,0:0|0:0,0:0:0:0:
449,257,42669,1,6,0:0:0:0:
190,333,42818,6,0,L|317:358,1,90.625,8|0,0:0|0:0,0:0:0:0:
422,373,43115,1,4,0:0:0:0:
368,228,43263,1,8,0:0:0:0:
137,348,43412,6,0,L|334:384,1,181.25,6|0,0:0|0:0,0:0:0:0:
315,380,44006,2,0,P|337:328|323:251,1,90.625,10|0,0:0|0:0,0:0:0:0:
230,207,44303,1,4,0:0:0:0:
432,177,44451,6,0,P|378:151|294:150,1,90.625,10|0,0:0|0:0,0:0:0:0:
146,175,44748,2,0,P|200:201|284:202,1,90.625,10|0,0:0|0:0,0:0:0:0:
334,73,45045,1,6,0:0:0:0:
49,111,45194,6,0,P|134:84|224:97,1,181.25,8|4,0:0|0:0,0:0:0:0:
337,294,45640,1,8,0:0:0:0:
146,175,45788,6,0,P|211:205|251:342,1,181.25,6|0,0:0|0:0,0:0:0:0:
155,277,46234,1,6,0:0:0:0:
309,214,46382,2,0,P|387:228|442:279,1,90.625,8|2,0:0|0:0,0:0:0:0:
480,346,46679,1,4,0:0:0:0:
395,232,46828,6,0,P|384:181|421:125,1,90.625,10|0,0:0|0:0,0:0:0:0:
496,94,47125,1,8,0:0:0:0:
309,117,47273,2,0,P|338:79|406:58,1,90.625,6|0,0:0|0:0,0:0:0:0:
309,214,47570,2,0,P|261:207|209:159,1,90.625,10|0,0:0|0:0,0:0:0:0:
193,64,47867,5,6,0:0:0:0:
135,303,48016,1,8,0:0:0:0:
398,229,48164,6,0,L|286:209,2,90.625,6|2|2,0:0|0:0|0:0,0:0:0:0:
491,358,48610,1,6,0:0:0:0:
302,291,48758,2,0,P|297:175|392:134,1,181.25,8|4,0:0|0:0,0:0:0:0:
250,364,49204,6,0,P|199:268|205:214,1,90.625,10|0,0:0|0:0,0:0:0:0:
220,145,49501,1,8,0:0:0:0:
420,328,49649,1,8,0:0:0:0:
250,364,49798,1,4,0:0:0:0:
145,87,49946,6,0,P|200:60|292:83,1,90.625,10|4,0:0|0:0,0:0:0:0:
469,188,50243,1,10,0:0:0:0:
250,364,50392,1,8,0:0:0:0:
294,17,50540,6,0,P|404:54|468:194,1,271.875,6|4,0:0|0:0,0:0:0:0:
336,347,51135,2,0,P|336:233|380:167,1,181.25,10|4,0:0|0:0,0:0:0:0:
293,16,51580,6,0,P|249:23|214:51,1,90.625,10|0,0:0|0:0,0:0:0:0:
93,183,51877,2,0,P|137:176|172:148,1,90.625,10|0,0:0|0:0,0:0:0:0:
106,102,52174,1,6,0:0:0:0:
74,266,52323,6,0,P|189:241|272:148,1,181.25,8|4,0:0|0:0,0:0:0:0:
82,30,52768,1,8,0:0:0:0:
280,294,52917,6,0,P|329:198|299:55,1,181.25,6|0,0:0|0:0,0:0:0:0:
328,126,53511,2,0,P|400:208|437:217,1,90.625,10|0,0:0|0:0,0:0:0:0:
481,229,53808,1,4,0:0:0:0:
280,294,53956,6,0,P|407:334|427:321,1,90.625,10|0,0:0|0:0,0:0:0:0:
481,229,54253,2,0,P|351:257|340:279,1,90.625,10|0,0:0|0:0,0:0:0:0:
280,294,54550,1,6,0:0:0:0:
413,102,54699,6,0,P|315:131|276:183,1,135.9375,8|0,0:0|0:0,0:0:0:0:
267,222,54996,1,8,0:0:0:0:
284,18,55144,1,8,0:0:0:0:
200,309,55293,6,0,P|183:210|222:131,1,181.25,6|2,0:0|0:0,0:0:0:0:
413,102,55739,1,6,0:0:0:0:
267,222,55887,2,0,P|175:230|114:140,1,181.25,8|4,0:0|0:0,0:0:0:0:
207,48,56333,6,0,L|216:154,1,90.625,10|0,0:0|0:0,0:0:0:0:
200,309,56630,1,8,0:0:0:0:
116,103,56778,6,0,L|109:13,1,90.625,6|0,0:0|0:0,0:0:0:0:
56,201,57075,2,0,L|63:291,1,90.625,10|0,0:0|0:0,0:0:0:0:
267,222,57372,2,0,L|259:131,1,90.625,2|0,0:0|0:0,0:0:0:0:
134,368,57669,6,0,P|187:314|260:301,2,90.625,6|2|2,0:0|0:0|0:0,0:0:0:0:
305,322,58115,1,4,0:0:0:0:
259,131,58263,2,0,P|207:96|149:92,1,90.625,8|2,0:0|0:0,0:0:0:0:
199,308,58560,1,8,0:0:0:0:
420,145,58709,6,0,P|316:161|283:199,1,90.625,10|0,0:0|0:0,0:0:0:0:
199,308,59006,1,8,0:0:0:0:
311,72,59154,1,8,0:0:0:0:
41,124,59303,1,4,0:0:0:0:
41,124,59377,1,4,0:0:0:0:
41,124,59451,5,12,0:0:0:0:
294,263,59600,1,8,0:0:0:0:
106,340,59748,6,0,P|124:253|195:222,1,90.625,8|4,0:0|0:0,0:0:0:0:
285,371,60045,5,12,0:0:0:0:
470,60,60342,5,2,0:0:0:0:
452,227,60491,1,6,0:0:0:0:
285,371,60639,6,0,P|213:284|240:161,1,217.500008296967,10|0,0:0|0:0,0:0:0:0:
325,136,61085,1,6,0:0:0:0:
325,136,61159,1,2,0:0:0:0:
325,136,61234,2,0,P|323:225|266:284,1,108.750004148483,0|2,0:0|0:0,0:0:0:0:
106,310,61531,2,0,P|195:308|254:251,1,108.750004148483,6|2,0:0|0:0,0:0:0:0:
424,107,61828,6,0,P|337:48|236:77,1,217.500008296967,10|2,0:0|0:0,0:0:0:0:
156,231,62273,1,8,0:0:0:0:
325,136,62422,5,4,0:0:0:0:
100,124,62719,5,2,0:0:0:0:
210,299,62867,1,6,0:0:0:0:
324,135,63016,6,0,P|255:55|150:46,1,217.500008296967,10|0,0:0|0:0,0:0:0:0:
68,199,63461,1,6,0:0:0:0:
68,199,63536,1,2,0:0:0:0:
68,199,63610,2,0,P|129:199|182:150,1,108.750004148483,2|2,0:0|0:0,0:0:0:0:
88,283,63907,2,0,P|59:343|66:412,1,108.750004148483,6|2,0:0|0:0,0:0:0:0:
194,110,64204,5,10,0:0:0:0:
142,343,64352,2,0,P|251:352|329:305,1,163.125006222725,10|0,0:0|0:0,0:0:0:0:
349,276,64649,1,8,0:0:0:0:
68,199,64798,5,12,0:0:0:0:
326,182,65095,5,2,0:0:0:0:
194,110,65243,1,6,0:0:0:0:
68,199,65392,6,0,P|156:263|290:232,1,217.500008296967,10|0,0:0|0:0,0:0:0:0:
379,115,65838,1,6,0:0:0:0:
349,276,65986,6,0,L|327:392,1,108.750004148483,2|0,0:0|0:0,0:0:0:0:
468,176,66283,2,0,L|446:60,1,108.750004148483,6|0,0:0|0:0,0:0:0:0:
276,330,66580,6,0,P|408:352|449:321,1,108.750004148483,10|0,0:0|0:0,0:0:0:0:
260,59,66877,2,0,P|128:37|87:68,1,108.750004148483,6|8,0:0|0:0,0:0:0:0:
67,276,67174,5,6,0:0:0:0:
300,199,67323,1,0,0:0:0:0:
145,54,67471,1,2,0:0:0:0:
57,286,67620,5,6,0:0:0:0:
310,209,67768,1,8,0:0:0:0:
141,40,67917,1,6,0:0:0:0:
45,296,68065,5,10,0:0:0:0:
322,219,68214,1,4,0:0:0:0:
135,25,68362,1,6,0:0:0:0:
35,306,68511,5,10,0:0:0:0:
332,229,68659,1,4,0:0:0:0:
130,9,68808,1,6,0:0:0:0:
306,321,68956,6,0,P|243:220|418:203,1,326.25001244545,10|8,0:0|0:0,0:0:0:0:
160,337,69550,5,4,0:0:0:0:
434,242,69847,5,2,0:0:0:0:
272,170,69996,1,6,0:0:0:0:
160,337,70144,6,0,P|80:247|76:136,1,217.500008296967,10|0,0:0|0:0,0:0:0:0:
210,45,70590,1,6,0:0:0:0:
210,45,70664,1,2,0:0:0:0:
210,45,70739,2,0,P|154:107|99:120,1,108.750004148483,0|2,0:0|0:0,0:0:0:0:
11,0,71036,2,0,P|63:52|29:158,1,108.750004148483,6|2,0:0|0:0,0:0:0:0:
10,244,71333,6,0,P|142:197|265:294,1,217.500008296967,10|2,0:0|0:0,0:0:0:0:
290,334,71778,1,8,0:0:0:0:
232,108,71927,5,4,0:0:0:0:
290,334,72224,5,2,0:0:0:0:
362,207,72372,1,6,0:0:0:0:
232,108,72521,6,0,P|139:186|156:302,1,217.500008296967,10|0,0:0|0:0,0:0:0:0:
220,360,72966,1,6,0:0:0:0:
315,69,73115,5,2,0:0:0:0:
290,334,73263,1,2,0:0:0:0:
395,27,73412,5,6,0:0:0:0:
231,280,73560,1,2,0:0:0:0:
478,0,73709,5,10,0:0:0:0:
145,183,73857,2,0,P|274:176|353:231,1,217.500008296967,10|8,0:0|0:0,0:0:0:0:
413,355,74303,5,12,0:0:0:0:
389,122,74600,5,2,0:0:0:0:
498,233,74748,1,6,0:0:0:0:
413,355,74897,6,0,P|304:365|205:288,1,217.500008296967,10|0,0:0|0:0,0:0:0:0:
86,258,75342,1,6,0:0:0:0:
86,258,75417,1,2,0:0:0:0:
86,258,75491,6,0,L|221:232,1,108.750004148483,2|0,0:0|0:0,0:0:0:0:
414,356,75788,2,0,L|279:330,1,108.750004148483,6|0,0:0|0:0,0:0:0:0:
106,167,76085,6,0,L|0:188,1,108.750004148483,10|0,0:0|0:0,0:0:0:0:
391,275,76382,2,0,L|498:296,1,108.750004148483,6|8,0:0|0:0,0:0:0:0:
171,70,76679,5,6,0:0:0:0:
255,327,76828,1,0,0:0:0:0:
415,156,76976,1,2,0:0:0:0:
160,59,77125,5,6,0:0:0:0:
244,338,77273,1,8,0:0:0:0:
430,152,77422,1,6,0:0:0:0:
149,46,77570,5,10,0:0:0:0:
233,351,77719,1,4,0:0:0:0:
447,145,77867,1,6,0:0:0:0:
138,35,78016,5,10,0:0:0:0:
222,362,78164,1,4,0:0:0:0:
464,140,78313,1,6,0:0:0:0:
125,25,78461,5,8,0:0:0:0:
311,282,78610,1,8,0:0:0:0:
179,151,78758,5,0,0:0:0:0:
389,214,78907,1,8,0:0:0:0:
222,362,79055,6,0,L|-3:379,2,217.500008296967
