osu file format v14

[General]
AudioFilename: Meiwaku Spectacle (TV Size).mp3
AudioLeadIn: 0
PreviewTime: 16194
Countdown: 0
SampleSet: Soft
StackLeniency: 0.7
Mode: 2
LetterboxInBreaks: 0
WidescreenStoryboard: 0

[Editor]
DistanceSpacing: 1
BeatDivisor: 4
GridSize: 4
TimelineZoom: 2.1

[Metadata]
Title:Meiwaku Spectacle (TV Size)
TitleUnicode:迷惑スペクタクル (TV Size)
Artist:Hanazawa Kana
ArtistUnicode:花澤香菜
Creator:Nakano Ichika
Version:Salad
Source:となりの関くん
Tags:Tonari no Seki-kun yokoi rumi supekutakuru op pop jpop j-pop opening theme no uta asuna anime japanese My Neighbor 横井るみ Sekikun
BeatmapID:1059765
BeatmapSetID:497868

[Difficulty]
HPDrainRate:4
CircleSize:3.5
OverallDifficulty:7
ApproachRate:7
SliderMultiplier:1.4
SliderTickRate:1

[Events]
//Background and Video events
0,0,"BG.jpg",0,0
//Break Periods
//Storyboard Layer 0 (Background)
//Storyboard Layer 1 (Fail)
//Storyboard Layer 2 (Pass)
//Storyboard Layer 3 (Foreground)
//Storyboard Layer 4 (Overlay)
//Storyboard Sound Samples

[TimingPoints]
215,382.165605095541,4,2,2,40,1,0
1361,-100,4,2,2,60,0,0
5565,-100,4,2,2,40,0,0
5947,-100,4,2,2,60,0,0
6138,-100,4,2,2,30,0,0
6520,-100,4,2,2,10,0,0
7476,-100,4,2,2,20,0,0
7571,-100,4,2,2,30,0,0
7714,-100,4,2,2,40,0,0
7858,-100,4,2,2,60,0,0
13972,-100,4,2,2,40,0,0
14355,-100,4,2,3,25,0,0
15692,-100,4,2,2,45,0,0
16265,-100,4,2,22,45,0,0
16839,-100,4,2,2,80,0,1
19896,-100,4,2,2,70,0,1
26202,-100,4,2,2,60,0,0
27539,-100,4,2,2,50,0,0
28495,-100,4,2,22,50,0,0
29068,-100,4,2,2,80,0,1
32125,-100,4,2,2,70,0,1
38431,-100,4,2,2,60,0,0
39960,-100,4,2,2,50,0,0
41488,-100,4,2,2,35,0,0
41679,-100,4,2,2,20,0,0

[Colours]
Combo1 : 253,205,62
Combo2 : 218,218,218
Combo3 : 111,175,255

[HitObjects]
210,328,215,5,2,0:3:0:0:
350,324,597,1,2,0:0:0:0:
210,328,979,1,0,3:0:0:0:
70,332,1361,1,4,0:3:0:0:
364,327,1743,6,0,P|380:255|360:191,1,140,4|8,0:0|0:0,0:0:0:0:
291,195,2316,1,0,0:0:0:0:
221,203,2507,2,0,P|153:215|73:203,1,140,2|8,0:0|0:0,0:0:0:0:
17,187,3081,1,0,0:0:0:0:
85,167,3272,6,0,P|157:159|225:167,1,140,2|8,0:0|0:0,0:0:0:0:
364,252,4036,2,0,P|350:293|332:321,1,70,2|0,0:0|0:0,0:0:0:0:
268,316,4418,2,0,P|280:272|298:245,1,70,8|0,0:0|0:0,0:0:0:0:
467,259,4800,6,0,P|495:197|477:131,1,140,2|8,0:0|0:0,0:0:0:0:
406,124,5374,1,0,0:0:0:0:
335,65,5565,2,0,P|303:123|330:200,1,140,2|8,0:0|0:0,0:0:0:0:
499,191,6138,1,2,0:0:0:0:
306,144,7858,6,0,L|234:144,1,70,4|0,0:0|0:0,0:0:0:0:
166,144,8240,2,0,L|242:144,1,70,8|0,0:0|0:0,0:0:0:0:
306,144,8622,2,0,P|378:132|446:144,1,140,2|8,0:0|0:0,0:0:0:0:
510,176,9195,1,2,0:0:0:0:
446,212,9386,6,0,P|374:224|306:212,1,140,2|8,0:0|0:0,0:0:0:0:
168,152,10151,2,0,L|190:220,1,70,2|0,0:0|0:0,0:0:0:0:
256,244,10533,2,0,L|228:315,1,70,8|0,0:0|0:0,0:0:0:0:
60,316,10915,6,0,L|48:176,1,140,2|8,0:0|0:0,0:0:0:0:
118,175,11488,1,0,0:0:0:0:
187,176,11679,2,0,L|328:196,1,140,2|10,0:0|0:0,0:0:0:0:
255,204,12253,2,0,L|111:216,1,140,2|2,0:0|0:0,0:0:0:0:
114,296,12826,5,10,0:0:0:0:
296,215,13208,1,2,0:0:0:0:
99,108,13590,1,2,0:0:0:0:
435,195,13972,6,0,L|443:56,1,140,4|2,0:0|0:0,0:0:0:0:
444,56,14546,1,2,0:0:0:0:
304,60,14928,1,2,0:0:0:0:
444,56,15310,1,2,0:0:0:0:
136,41,15692,6,0,L|62:42,1,70,2|2,0:0|0:0,0:0:0:0:
168,206,16265,1,2,0:0:0:0:
102,259,16457,1,2,0:0:0:0:
168,309,16648,1,2,0:0:0:0:
358,57,16839,6,0,P|392:117|374:182,1,140,6|2,0:0|0:0,0:0:0:0:
304,188,17412,2,0,P|291:221|301:254,1,70,8|0,0:0|0:0,0:0:0:0:
387,269,17794,1,2,0:0:0:0:
387,269,17985,2,0,L|314:288,1,70,0|8,0:0|0:0,0:0:0:0:
126,322,18367,6,0,P|99:268|132:202,1,140,6|2,0:0|0:0,0:0:0:0:
202,188,18941,1,8,0:0:0:0:
344,192,19323,2,0,L|416:192,2,70,2|0|8,0:0|0:0|0:0,0:0:0:0:
152,276,19896,6,0,P|108:217|114:151,1,140,2|0,0:3|0:0,0:0:0:0:
180,152,20469,2,0,L|252:152,1,70,8|0,0:0|0:0,0:0:0:0:
320,152,20851,2,0,L|392:152,2,70,2|0|8,0:0|0:0|0:0,0:0:0:0:
144,152,21425,5,4,0:0:0:0:
312,232,21807,1,4,0:0:0:0:
130,236,22189,1,4,0:0:0:0:
298,300,22571,1,4,0:0:0:0:
16,304,22953,6,0,B|151:223,1,140,6|2,0:0|0:0,0:0:0:0:
208,204,23527,2,0,L|280:204,1,70,8|0,0:0|0:0,0:0:0:0:
208,180,23909,2,0,L|136:180,2,70,2|0|8,0:0|0:0|0:0,0:0:0:0:
384,239,24482,6,0,P|452:244|492:190,1,140,2|2,0:3|0:3,0:0:0:0:
420,172,25055,2,0,L|350:172,1,70,8|2,0:0|0:3,0:0:0:0:
280,180,25437,1,2,0:0:0:0:
138,180,25820,1,8,0:0:0:0:
138,180,26011,1,0,0:0:0:0:
328,296,26202,5,2,0:0:0:0:
396,280,26393,1,2,0:0:0:0:
448,232,26584,1,2,0:0:0:0:
460,164,26775,1,2,0:0:0:0:
444,96,26966,1,2,0:0:0:0:
404,40,27157,1,2,0:0:0:0:
336,20,27348,1,2,0:0:0:0:
144,36,27539,6,0,L|136:176,1,140,4|2,0:0|0:0,0:0:0:0:
220,179,28113,1,8,0:0:0:0:
384,180,28495,2,0,L|456:180,2,70,2|2|10,0:0|0:0|0:0,0:0:0:0:
208,180,29068,6,0,P|184:249|196:315,1,140,6|2,0:0|0:0,0:0:0:0:
264,312,29641,2,0,L|336:312,1,70,8|0,0:0|0:0,0:0:0:0:
264,312,30023,2,0,L|188:312,2,70,2|0|8,0:0|0:0|0:0,0:0:0:0:
440,308,30597,6,0,P|451:249|388:197,1,140,4|2,0:0|0:0,0:0:0:0:
328,176,31170,1,8,0:0:0:0:
188,178,31552,2,0,L|112:178,1,70,2|0,0:0|0:0,0:0:0:0:
187,179,31934,1,8,0:0:0:0:
380,184,32125,6,0,P|419:241|382:305,1,140,2|0,0:3|0:0,0:0:0:0:
320,316,32699,2,0,L|248:316,1,70,8|0,0:0|0:0,0:0:0:0:
321,316,33081,2,0,L|397:316,2,70,2|2|8,0:0|0:0|0:0,0:0:0:0:
144,68,33654,5,4,0:0:0:0:
312,152,34036,1,4,0:0:0:0:
144,212,34418,1,4,0:0:0:0:
340,112,34800,1,4,0:0:0:0:
59,169,35183,6,0,B|178:249,1,140,4|2,0:0|0:0,0:0:0:0:
259,264,35756,1,8,0:0:0:0:
189,264,35947,2,0,P|156:274|122:269,1,70,0|2,0:0|0:0,0:0:0:0:
189,264,36329,2,0,P|225:260|261:264,1,70,0|8,0:0|0:0,0:0:0:0:
81,224,36711,5,4,0:0:0:0:
220,181,37093,2,0,L|229:104,1,70,2|8,0:0|0:0,0:0:0:0:
298,114,37476,2,0,L|307:41,1,70,2|2,0:3|0:0,0:0:0:0:
167,181,38049,1,8,0:0:0:0:
97,120,38240,1,0,0:0:0:0:
286,16,38431,5,2,0:0:0:0:
354,28,38622,1,2,0:0:0:0:
394,84,38813,1,2,0:0:0:0:
374,152,39004,1,2,0:0:0:0:
184,156,39195,1,2,0:0:0:0:
149,215,39386,1,2,0:3:0:0:
159,285,39578,1,2,0:3:0:0:
202,328,39769,1,2,0:0:0:0:
396,328,39960,5,6,0:0:0:0:
256,192,40342,12,2,42062,0:3:0:0:
