osu file format v14

[General]
AudioFilename: Meiwaku Spectacle (TV Size).mp3
AudioLeadIn: 0
PreviewTime: 16194
Countdown: 0
SampleSet: Soft
StackLeniency: 0.7
Mode: 2
LetterboxInBreaks: 0
WidescreenStoryboard: 0

[Editor]
DistanceSpacing: 2
BeatDivisor: 4
GridSize: 4
TimelineZoom: 5.799996

[Metadata]
Title:Meiwaku Spectacle (TV Size)
TitleUnicode:迷惑スペクタクル (TV Size)
Artist:Hanazawa Kana
ArtistUnicode:花澤香菜
Creator:Nakano Ichika
Version:Overdose
Source:となりの関くん
Tags:Tonari no Seki-kun yokoi rumi supekutakuru op pop jpop j-pop opening theme no uta asuna anime japanese My Neighbor 横井るみ Sekikun
BeatmapID:1059762
BeatmapSetID:497868

[Difficulty]
HPDrainRate:7
CircleSize:4.3
OverallDifficulty:9.4
ApproachRate:9.4
SliderMultiplier:2
SliderTickRate:1

[Events]
//Background and Video events
0,0,"BG.jpg",0,0
//Break Periods
//Storyboard Layer 0 (Background)
//Storyboard Layer 1 (Fail)
//Storyboard Layer 2 (Pass)
//Storyboard Layer 3 (Foreground)
//Storyboard Layer 4 (Overlay)
//Storyboard Sound Samples

[TimingPoints]
215,382.165605095541,4,2,2,40,1,0
1361,-100,4,2,2,60,0,0
5565,-100,4,2,2,40,0,0
5947,-100,4,2,2,60,0,0
6138,-100,4,2,2,30,0,0
6520,-100,4,2,2,10,0,0
7476,-100,4,2,2,20,0,0
7571,-100,4,2,2,30,0,0
7714,-100,4,2,2,40,0,0
7858,-100,4,2,2,60,0,0
13590,-100,4,2,2,15,0,0
13972,-100,4,2,2,40,0,0
14355,-100,4,2,3,25,0,0
15692,-100,4,2,2,45,0,0
16265,-100,4,2,22,45,0,0
16839,-100,4,2,2,80,0,1
19896,-100,4,2,2,70,0,1
26202,-100,4,2,2,60,0,0
27539,-100,4,2,2,50,0,0
28495,-100,4,2,22,50,0,0
29068,-100,4,2,2,80,0,1
32125,-100,4,2,2,70,0,1
38431,-100,4,2,2,60,0,0
39960,-100,4,2,2,50,0,0
41488,-100,4,2,2,35,0,0
41679,-100,4,2,2,20,0,0

[Colours]
Combo1 : 253,205,62
Combo2 : 218,218,218
Combo3 : 111,175,255

[HitObjects]
479,86,215,5,2,0:3:0:0:
179,86,597,1,2,0:0:0:0:
478,296,979,1,0,3:0:0:0:
139,293,1361,2,0,P|133:222|197:194,1,150,4|0,0:3|0:0,0:0:0:0:
424,208,1743,6,0,L|464:172,1,50,4|0,0:0|0:0,0:0:0:0:
416,156,1934,2,0,L|364:144,1,50,0|0,0:0|0:0,0:0:0:0:
164,124,2125,2,0,L|116:104,1,50,8|0,0:0|0:0,0:0:0:0:
319,62,2316,2,0,L|367:82,1,50
164,64,2507,6,0,P|128:108|136:148,1,100,2|0,0:0|0:0,0:0:0:0:
180,168,2794,1,0,0:0:0:0:
382,132,2890,2,0,L|431:151,1,50,8|0,0:0|0:0,0:0:0:0:
228,336,3081,2,0,L|178:316,1,50
408,208,3272,6,0,L|460:208,2,50,2|0|0,0:0|0:0|0:0,0:0:0:0:
360,208,3558,1,0,0:0:0:0:
156,224,3654,2,0,L|106:224,1,50,8|0,0:0|0:0,0:0:0:0:
106,224,3845,2,0,L|156:224,1,50,0|0,0:0|0:0,0:0:0:0:
360,312,4036,5,2,0:0:0:0:
408,304,4132,1,0,0:0:0:0:
444,272,4227,1,0,0:0:0:0:
448,220,4323,1,0,0:0:0:0:
248,204,4418,2,0,L|208:172,1,50,8|0,0:0|0:0,0:0:0:0:
411,156,4609,2,0,L|451:188,1,50
249,294,4800,6,0,L|149:286,1,100,2|0,0:0|0:0,0:0:0:0:
325,270,5183,2,0,L|425:262,1,100,8|0,0:0|0:0,0:0:0:0:
125,246,5565,2,0,P|109:198|129:150,1,100,2|0,0:0|0:0,0:0:0:0:
177,154,5851,1,2,0:0:0:0:
428,160,5947,2,0,L|323:150,1,100,8|2,0:0|0:0,0:0:0:0:
128,216,6520,5,0,0:0:0:0:
368,216,6902,2,0,L|268:220,2,100,0|0|0,0:0|0:0|0:0,0:0:0:0:
64,216,7476,2,0,L|60:184,6,25,2|2|2|0|2|2|2,0:0|0:0|0:0|0:0|0:0|0:0|0:0,0:0:0:0:
368,244,7858,6,0,L|420:240,1,50,4|0,0:0|0:0,0:0:0:0:
418,240,8049,2,0,L|364:244,1,50
164,256,8240,2,0,L|112:264,1,50,8|0,0:0|0:0,0:0:0:0:
316,128,8431,2,0,L|368:120,1,50
163,116,8622,5,2,0:0:0:0:
123,148,8718,1,0,0:0:0:0:
127,196,8813,1,0,0:0:0:0:
175,216,8909,1,0,0:0:0:0:
375,238,9004,2,0,L|423:254,1,50,8|0,0:0|0:0,0:0:0:0:
221,322,9195,2,0,L|173:306,1,50,2|0,0:0|0:0,0:0:0:0:
424,334,9386,6,0,P|443:288|424:243,1,100,2|0,0:0|0:0,0:0:0:0:
374,216,9673,1,0,0:0:0:0:
172,224,9769,2,0,L|112:228,1,50,8|0,0:0|0:0,0:0:0:0:
122,227,9960,2,0,L|180:224,1,50,0|0,0:0|0:0,0:0:0:0:
372,208,10151,5,2,0:0:0:0:
420,204,10246,1,0,0:0:0:0:
420,152,10342,1,0,0:0:0:0:
372,148,10437,1,0,0:0:0:0:
144,80,10533,2,0,L|92:80,1,50,8|0,0:0|0:0,0:0:0:0:
295,24,10724,2,0,L|347:24,1,50
116,16,10915,6,0,P|76:56|76:100,1,100,2|0,0:0|0:0,0:0:0:0:
125,100,11202,1,0,0:0:0:0:
324,170,11297,2,0,P|336:224|313:261,1,100,8|0,0:0|0:0,0:0:0:0:
64,270,11679,6,0,L|168:270,1,100,2|0,0:0|0:0,0:0:0:0:
224,270,11966,1,2,0:0:0:0:
412,306,12062,1,10,0:0:0:0:
164,270,12253,1,2,0:0:0:0:
80,186,12444,5,0,0:0:0:0:
164,70,12635,1,2,0:0:0:0:
464,130,12826,2,0,L|364:130,1,100,10|0,0:0|0:0,0:0:0:0:
112,318,13208,2,0,L|216:318,1,100,2|2,0:0|0:0,0:0:0:0:
250,285,13447,1,2,0:0:0:0:
265,237,13495,1,2,0:0:0:0:
247,189,13543,1,2,0:0:0:0:
206,160,13590,5,2,0:0:0:0:
194,158,13614,1,0,0:0:0:0:
181,154,13638,1,0,0:0:0:0:
172,146,13662,1,0,0:0:0:0:
164,136,13686,1,0,0:0:0:0:
159,123,13710,1,0,0:0:0:0:
157,111,13734,1,0,0:0:0:0:
160,99,13757,1,0,0:0:0:0:
167,89,13781,1,0,0:0:0:0:
175,80,13805,1,0,0:0:0:0:
185,74,13829,1,0,0:0:0:0:
198,69,13853,1,0,0:0:0:0:
209,68,13877,1,0,0:0:0:0:
432,176,13972,5,4,0:0:0:0:
184,252,14355,1,2,0:0:0:0:
384,256,14546,1,2,0:0:0:0:
80,256,14928,1,2,0:0:0:0:
384,256,15310,1,2,0:0:0:0:
120,268,15692,5,2,0:0:0:0:
180,268,15788,1,2,0:0:0:0:
240,268,15883,1,2,0:0:0:0:
120,268,16074,1,2,0:0:0:0:
372,156,16265,2,0,L|272:156,2,100,2|2|2,0:0|0:0|0:0,0:0:0:0:
120,32,16839,6,0,P|88:64|184:112,1,200,6|2,0:0|0:0,0:0:0:0:
432,64,17412,2,0,L|324:64,1,100,8|0,0:0|0:0,0:0:0:0:
80,72,17794,2,0,L|184:72,2,100,2|0|8,0:0|0:0|0:0,0:0:0:0:
380,72,18367,6,0,P|460:120|456:176,1,150,6|0,0:0|0:0,0:0:0:0:
408,200,18750,1,2,0:0:0:0:
356,228,18845,1,0,0:0:0:0:
128,152,18941,1,8,0:0:0:0:
280,152,19132,1,2,0:0:0:0:
28,152,19323,2,0,L|128:152,2,100,2|0|8,0:0|0:0|0:0,0:0:0:0:
344,344,19896,6,0,L|448:344,1,100,2|2,0:3|0:0,0:0:0:0:
192,344,20278,2,0,L|136:344,2,50,0|0|8,0:0|0:0|0:0,0:0:0:0:
344,344,20660,1,0,0:0:0:0:
192,284,20851,1,2,0:0:0:0:
376,279,21043,1,0,0:0:0:0:
124,235,21234,1,8,0:0:0:0:
492,332,21425,6,0,L|392:332,1,100,4|2,0:0|0:0,0:0:0:0:
120,332,21807,2,0,L|20:332,1,100,4|8,0:0|0:0,0:0:0:0:
372,228,22189,2,0,L|472:228,1,100,4|2,0:0|0:0,0:0:0:0:
140,228,22571,2,0,L|40:228,1,100,4|8,0:0|0:0,0:0:0:0:
384,228,22953,6,0,L|488:228,2,100,6|0|2,0:0|0:0|0:0,0:0:0:0:
32,336,23527,1,8,0:0:0:0:
180,336,23718,2,0,L|280:336,1,100,0|2,0:0|0:0,0:0:0:0:
128,244,24100,2,0,L|24:244,1,100,0|8,0:0|0:0,0:0:0:0:
380,248,24482,6,0,L|480:248,1,100,2|2,0:3|0:0,0:0:0:0:
177,171,24864,2,0,L|125:171,2,50,2|0|8,0:3|0:0|0:0,0:0:0:0:
476,136,25246,2,0,P|488:84|472:40,1,100,2|2,0:3|0:0,0:0:0:0:
296,24,25629,2,0,L|396:24,2,100,0|8|0,0:0|0:0|0:0,0:0:0:0:
44,28,26202,5,2,0:0:0:0:
192,28,26393,1,2,0:0:0:0:
340,24,26584,1,2,0:0:0:0:
192,28,26775,1,2,0:0:0:0:
444,104,26966,1,2,0:0:0:0:
291,102,27157,2,2,L|325:101,1,33.3333333333333,2|2,0:0|0:0,0:0:0:0:
325,101,27285,2,2,L|291:102,1,33.3333333333333,2|2,0:0|0:0,0:0:0:0:
40,176,27539,6,0,L|140:176,1,100,4|0,0:0|0:0,0:0:0:0:
89,175,27826,1,2,0:0:0:0:
64,175,27874,1,2,0:0:0:0:
89,175,27922,2,0,L|139:175,1,50,2|0,0:0|0:0,0:0:0:0:
340,253,28113,1,8,0:0:0:0:
242,196,28304,1,0,0:0:0:0:
491,220,28495,2,0,L|379:220,2,100,2|2|10,0:0|0:0|0:0,0:0:0:0:
240,232,29068,6,0,L|40:232,1,200,6|2,0:0|0:0,0:0:0:0:
292,236,29641,2,0,L|392:236,1,100,8|0,0:0|0:0,0:0:0:0:
140,324,30023,2,0,L|240:324,2,100,2|0|8,0:0|0:0|0:0,0:0:0:0:
395,328,30597,6,0,P|468:276|460:212,1,150,4|0,0:0|0:0,0:0:0:0:
416,192,30979,1,2,0:0:0:0:
383,187,31042,1,0,0:0:0:0:
349,185,31106,1,0,0:0:0:0:
181,328,31170,1,8,0:0:0:0:
308,328,31361,1,0,0:0:0:0:
56,340,31552,2,0,L|156:328,2,100,2|0|8,0:0|0:0|0:0,0:0:0:0:
308,328,32125,6,0,L|416:304,1,100,2|2,0:3|0:0,0:0:0:0:
252,300,32507,1,0,0:0:0:0:
201,300,32603,1,0,0:0:0:0:
150,297,32699,1,8,0:0:0:0:
302,257,32890,1,0,0:0:0:0:
150,217,33081,1,2,0:0:0:0:
401,157,33272,2,0,L|453:157,1,50,2|2,0:0|0:0,0:0:0:0:
401,157,33463,2,0,L|345:157,1,50,8|0,0:0|0:0,0:0:0:0:
149,26,33654,6,0,L|136:125,1,100,4|2,0:0|0:0,0:0:0:0:
488,352,34036,2,0,L|388:352,1,100,4|8,0:0|0:0,0:0:0:0:
140,352,34418,2,0,L|40:352,1,100,4|2,0:0|0:0,0:0:0:0:
388,32,34800,2,0,L|488:32,1,100,4|8,0:0|0:0,0:0:0:0:
184,36,35183,6,0,P|121:68|129:138,1,150,4|0,0:0|0:0,0:0:0:0:
192,160,35565,1,2,0:0:0:0:
209,189,35629,1,0,0:0:0:0:
199,221,35692,1,0,0:0:0:0:
168,234,35756,1,8,0:0:0:0:
316,264,35947,1,0,0:0:0:0:
64,268,36138,1,2,0:0:0:0:
316,264,36329,2,0,L|416:264,1,100,0|8,0:0|0:0,0:0:0:0:
164,240,36711,6,0,L|64:240,1,100,4|0,0:0|0:0,0:0:0:0:
316,236,37093,2,0,L|416:236,1,100,2|8,0:0|0:0,0:0:0:0:
164,240,37476,2,0,L|268:240,1,100,2|2,0:3|0:0,0:0:0:0:
363,241,37858,1,0,0:0:0:0:
111,240,38049,2,0,L|93:123,1,100,8|0,0:0|0:0,0:0:0:0:
496,40,38431,5,2,0:0:0:0:
368,40,38622,1,2,0:0:0:0:
16,40,38813,1,2,0:0:0:0:
144,40,39004,1,2,0:0:0:0:
444,324,39195,1,2,0:0:0:0:
144,328,39386,1,2,0:3:0:0:
464,288,39578,1,2,0:3:0:0:
128,292,39769,1,2,0:0:0:0:
480,212,39960,5,6,0:0:0:0:
256,192,40151,12,0,41488,0:0:0:0:
208,192,41679,5,2,0:3:0:0:
390,192,41871,1,2,0:3:0:0:
208,192,42062,1,2,0:3:0:0:
