osu file format v14

[General]
AudioFilename: Meiwaku Spectacle (TV Size).mp3
AudioLeadIn: 0
PreviewTime: 16194
Countdown: 0
SampleSet: Soft
StackLeniency: 0.7
Mode: 2
LetterboxInBreaks: 0
WidescreenStoryboard: 0

[Editor]
DistanceSpacing: 1
BeatDivisor: 6
GridSize: 4
TimelineZoom: 4.399998

[Metadata]
Title:Meiwaku Spectacle (TV Size)
TitleUnicode:迷惑スペクタクル (TV Size)
Artist:Hanazawa Kana
ArtistUnicode:花澤香菜
Creator:Nakano Ichika
Version:Light Overdose
Source:となりの関くん
Tags:Tonari no Seki-kun yokoi rumi supekutakuru op pop jpop j-pop opening theme no uta asuna anime japanese My Neighbor 横井るみ Sekikun
BeatmapID:1300412
BeatmapSetID:497868

[Difficulty]
HPDrainRate:6
CircleSize:4.2
OverallDifficulty:9.2
ApproachRate:9.2
SliderMultiplier:1.9
SliderTickRate:1

[Events]
//Background and Video events
0,0,"BG.jpg",0,0
//Break Periods
//Storyboard Layer 0 (Background)
//Storyboard Layer 1 (Fail)
//Storyboard Layer 2 (Pass)
//Storyboard Layer 3 (Foreground)
//Storyboard Layer 4 (Overlay)
//Storyboard Sound Samples

[TimingPoints]
215,382.165605095541,4,2,2,40,1,0
1361,-100,4,2,2,60,0,0
5565,-100,4,2,2,40,0,0
5947,-100,4,2,2,60,0,0
6138,-100,4,2,2,30,0,0
6520,-100,4,2,2,10,0,0
7476,-100,4,2,2,20,0,0
7571,-100,4,2,2,30,0,0
7714,-100,4,2,2,40,0,0
7858,-100,4,2,2,60,0,0
13972,-100,4,2,2,40,0,0
14355,-100,4,2,3,25,0,0
15692,-100,4,2,2,45,0,0
16265,-100,4,2,22,45,0,0
16839,-100,4,2,2,80,0,1
19896,-100,4,2,2,70,0,1
26202,-100,4,2,2,60,0,0
27539,-100,4,2,2,50,0,0
28495,-100,4,2,22,50,0,0
29068,-100,4,2,2,80,0,1
32125,-100,4,2,2,70,0,1
38431,-100,4,2,2,60,0,0
39960,-100,4,2,2,50,0,0
41488,-100,4,2,2,35,0,0
41679,-100,4,2,2,20,0,0

[Colours]
Combo1 : 253,205,62
Combo2 : 218,218,218
Combo3 : 111,175,255

[HitObjects]
16,314,215,5,2,0:3:0:0:
329,280,597,1,2,0:0:0:0:
78,307,979,1,0,3:0:0:0:
421,266,1361,2,0,P|448:207|394:168,1,142.5,4|0,0:3|0:0,0:0:0:0:
180,196,1743,5,4,0:0:0:0:
134,181,1839,1,0,0:0:0:0:
105,143,1934,1,0,0:0:0:0:
97,95,2030,1,0,0:0:0:0:
311,56,2125,1,8,0:0:0:0:
356,71,2221,1,0,0:0:0:0:
383,109,2316,1,0,0:0:0:0:
394,155,2412,1,0,0:0:0:0:
156,280,2507,6,0,L|66:232,1,95,2|0,0:0|0:0,0:0:0:0:
115,214,2794,1,0,0:0:0:0:
152,184,2890,1,8,0:0:0:0:
166,139,2985,1,0,0:0:0:0:
156,92,3081,1,0,0:0:0:0:
124,56,3176,1,0,0:0:0:0:
340,39,3272,6,0,L|387:39,2,47.5,2|0|0,0:0|0:0|0:0,0:0:0:0:
294,53,3558,1,0,0:0:0:0:
269,93,3654,1,8,0:0:0:0:
271,140,3750,1,0,0:0:0:0:
293,181,3845,1,0,0:0:0:0:
337,199,3941,1,0,0:0:0:0:
122,301,4036,6,0,L|70:297,1,47.5,2|0,0:0|0:0,0:0:0:0:
70,297,4227,2,0,L|121:301,1,47.5,0|0,0:0|0:0,0:0:0:0:
332,300,4418,2,0,L|381:296,1,47.5,8|0,0:0|0:0,0:0:0:0:
384,296,4609,2,0,L|329:300,1,47.5,0|0,0:0|0:0,0:0:0:0:
121,298,4800,6,0,L|25:291,1,95,2|0,0:0|0:0,0:0:0:0:
173,270,5183,2,0,L|266:255,1,95,8|0,0:0|0:0,0:0:0:0:
413,237,5565,2,0,L|316:225,1,95,2|0,0:0|0:0,0:0:0:0:
265,217,5851,1,2,0:0:0:0:
481,194,5947,2,0,L|473:98,1,95,8|2,0:0|0:0,0:0:0:0:
284,172,6520,5,0,0:0:0:0:
40,236,6902,2,0,L|137:240,2,95,0|0|0,0:0|0:0|0:0,0:0:0:0:
331,232,7476,2,0,L|336:205,6,23.75,2|2|2|0|2|2|2,0:0|0:0|0:0|0:0|0:0|0:0|0:0,0:0:0:0:
116,240,7858,6,0,L|65:236,1,47.5,4|0,0:0|0:0,0:0:0:0:
66,236,8049,2,0,L|117:241,1,47.5,0|0,0:0|0:0,0:0:0:0:
329,272,8240,2,0,L|377:272,1,47.5,8|0,0:0|0:0,0:0:0:0:
379,272,8431,2,0,L|329:272,1,47.5,0|0,0:0|0:0,0:0:0:0:
140,256,8622,6,0,L|90:256,1,47.5,2|0,0:0|0:0,0:0:0:0:
90,256,8813,2,0,L|138:256,1,47.5,0|0,0:0|0:0,0:0:0:0:
375,53,9004,2,0,L|420:76,1,47.5,8|0,0:0|0:0,0:0:0:0:
250,322,9195,2,0,L|202:300,1,47.5,2|0,0:0|0:0,0:0:0:0:
468,308,9386,6,0,L|475:213,1,95,2|0,0:0|0:0,0:0:0:0:
427,210,9673,1,0,0:0:0:0:
200,216,9769,1,8,0:0:0:0:
157,194,9864,1,0,0:0:0:0:
143,148,9960,1,0,0:0:0:0:
164,106,10055,1,0,0:0:0:0:
381,121,10151,6,0,L|429:121,1,47.5,2|0,0:0|0:0,0:0:0:0:
381,121,10342,2,0,L|333:121,1,47.5,0|0,0:0|0:0,0:0:0:0:
96,88,10533,2,0,L|44:88,1,47.5,8|0,0:0|0:0,0:0:0:0:
267,30,10724,2,0,L|315:31,1,47.5,0|0,0:0|0:0,0:0:0:0:
40,208,10915,6,0,L|137:208,1,95,2|0,0:0|0:0,0:0:0:0:
287,208,11297,2,0,L|383:208,1,95,8|0,0:0|0:0,0:0:0:0:
192,308,11679,2,0,L|96:307,1,95,2|0,0:0|0:0,0:0:0:0:
144,308,11966,1,2,0:0:0:0:
192,308,12062,1,10,0:0:0:0:
443,239,12253,6,0,P|450:189|425:148,1,95,2|0,0:0|0:0,0:0:0:0:
339,120,12635,1,2,0:0:0:0:
68,152,12826,1,10,0:0:0:0:
159,126,13017,1,0,0:0:0:0:
407,148,13208,2,0,L|314:125,1,95,2|2,0:0|0:0,0:0:0:0:
286,128,13447,1,2,0:0:0:0:
265,136,13495,1,2,0:0:0:0:
250,156,13543,1,2,0:0:0:0:
246,180,13590,1,2,0:0:0:0:
502,182,13972,5,4,0:0:0:0:
262,250,14355,1,2,0:0:0:0:
357,257,14546,1,2,0:0:0:0:
120,258,14928,1,2,0:0:0:0:
408,267,15310,1,2,0:0:0:0:
92,272,15692,6,0,L|42:272,2,47.5,2|2|2,0:0|0:0|0:0,0:0:0:0:
192,272,16074,1,2,0:0:0:0:
496,268,16265,2,0,L|401:268,2,95,2|2|2,0:0|0:0|0:0,0:0:0:0:
217,176,16839,6,0,L|24:174,1,190,6|2,0:0|0:0,0:0:0:0:
288,120,17412,2,0,L|191:119,1,95,8|0,0:0|0:0,0:0:0:0:
338,80,17794,2,0,L|433:81,2,95,2|0|8,0:0|0:0|0:0,0:0:0:0:
78,48,18367,6,0,P|19:102|24:162,1,142.5,6|0,0:0|0:0,0:0:0:0:
56,193,18750,1,2,0:0:0:0:
99,210,18845,1,0,0:0:0:0:
313,244,18941,1,8,0:0:0:0:
200,232,19132,1,2,0:0:0:0:
460,247,19323,2,0,L|361:247,2,95,2|0|8,0:0|0:0|0:0,0:0:0:0:
199,336,19896,6,0,L|296:334,2,95,2|2|0,0:3|0:0|0:0,0:0:0:0:
151,339,20374,1,0,0:0:0:0:
103,336,20469,1,8,0:0:0:0:
247,332,20660,2,0,L|150:332,2,95,0|2|0,0:0|0:0|0:0,0:0:0:0:
342,332,21234,1,8,0:0:0:0:
34,331,21425,6,0,P|34:281|59:241,1,95,4|2,0:0|0:0,0:0:0:0:
483,329,21807,2,0,P|483:280|458:239,1,95,4|8,0:0|0:0,0:0:0:0:
173,227,22189,2,0,L|75:226,1,95,4|2,0:0|0:0,0:0:0:0:
365,227,22571,2,0,L|461:227,1,95,4|8,0:0|0:0,0:0:0:0:
128,232,22953,6,0,L|27:233,2,95,6|0|2,0:0|0:0|0:0,0:0:0:0:
384,312,23527,1,8,0:0:0:0:
236,312,23718,2,0,L|141:312,1,95,0|2,0:0|0:0,0:0:0:0:
284,312,24100,2,0,L|382:312,1,95,0|8,0:0|0:0,0:0:0:0:
92,312,24482,6,0,L|18:247,1,95,2|2,0:3|0:0,0:0:0:0:
188,208,24864,1,2,0:3:0:0:
152,176,24960,1,0,0:0:0:0:
121,139,25055,1,8,0:0:0:0:
404,176,25246,2,0,L|337:107,1,95,2|2,0:3|0:0,0:0:0:0:
456,100,25629,1,0,0:0:0:0:
312,100,25820,2,0,L|412:100,1,95,8|0,0:0|0:0,0:0:0:0:
122,96,26202,5,2,0:0:0:0:
16,172,26393,1,2,0:0:0:0:
121,173,26584,1,2,0:0:0:0:
16,271,26775,1,2,0:0:0:0:
372,332,26966,1,2,0:0:0:0:
228,332,27157,1,2,0:0:0:0:
197,316,27222,1,2,0:0:0:0:
193,283,27284,1,2,0:0:0:0:
216,259,27348,1,2,0:0:0:0:
476,176,27539,6,0,L|330:176,1,142.5,4|2,0:0|0:0,0:0:0:0:
357,175,27874,1,2,0:0:0:0:
381,175,27922,1,2,0:0:0:0:
428,176,28017,1,0,0:0:0:0:
476,176,28113,1,8,0:0:0:0:
381,63,28304,1,0,0:0:0:0:
134,72,28495,2,0,L|36:72,2,95,2|2|10,0:0|0:0|0:0,0:0:0:0:
392,60,29068,6,0,L|198:60,1,190,6|2,0:0|0:0,0:0:0:0:
344,64,29641,2,0,L|248:64,1,95,8|0,0:0|0:0,0:0:0:0:
105,170,30023,2,0,L|205:170,2,95,2|0|8,0:0|0:0|0:0,0:0:0:0:
395,308,30597,6,0,P|475:252|475:198,1,142.5,4|0,0:0|0:0,0:0:0:0:
468,167,30979,1,2,0:0:0:0:
444,146,31042,1,0,0:0:0:0:
412,139,31106,1,0,0:0:0:0:
221,119,31170,1,8,0:0:0:0:
341,103,31361,1,0,0:0:0:0:
82,107,31552,2,0,L|184:97,2,95,2|0|8,0:0|0:0|0:0,0:0:0:0:
418,107,32125,6,0,L|317:100,2,95,2|2|0,0:3|0:0|0:0,0:0:0:0:
272,127,32699,2,0,L|172:114,1,95,8|0,0:0|0:0,0:0:0:0:
324,204,33081,2,0,L|424:215,1,95,2|2,0:0|0:0,0:0:0:0:
371,210,33367,1,2,0:0:0:0:
324,204,33463,1,8,0:0:0:0:
277,194,33558,1,0,0:0:0:0:
60,204,33654,6,0,P|76:160|123:144,1,95,4|2,0:0|0:0,0:0:0:0:
455,204,34036,2,0,P|439:160|395:144,1,95,4|8,0:0|0:0,0:0:0:0:
139,299,34418,2,0,L|43:298,1,95,4|2,0:0|0:0,0:0:0:0:
384,296,34800,2,0,L|482:297,1,95,4|8,0:0|0:0,0:0:0:0:
48,212,35183,6,0,B|196:213,1,142.5,4|0,0:0|0:0,0:0:0:0:
142,213,35565,1,2,0:0:0:0:
110,214,35629,1,0,0:0:0:0:
78,213,35692,1,0,0:0:0:0:
48,212,35756,1,8,0:0:0:0:
305,311,35947,1,0,0:0:0:0:
386,231,36138,1,2,0:0:0:0:
220,198,36329,1,0,0:0:0:0:
134,122,36520,1,8,0:0:0:0:
466,168,36711,6,0,L|497:72,1,95,4|0,0:0|0:0,0:0:0:0:
348,171,37093,2,0,L|408:97,1,95,2|8,0:0|0:0,0:0:0:0:
83,120,37476,2,0,L|178:120,2,95,2|2|0,0:3|0:0|0:0,0:0:0:0:
229,121,38049,2,0,L|324:121,1,95,8|0,0:0|0:0,0:0:0:0:
34,304,38431,5,2,0:0:0:0:
169,307,38622,1,2,0:0:0:0:
304,309,38813,1,2,0:0:0:0:
152,313,39004,1,2,0:0:0:0:
404,313,39195,1,2,0:0:0:0:
152,313,39386,1,2,0:3:0:0:
304,309,39578,1,2,0:3:0:0:
152,313,39769,1,2,0:0:0:0:
404,313,39960,5,6,0:0:0:0:
256,192,40151,12,0,41488,0:0:0:0:
256,192,41679,5,2,0:3:0:0:
111,199,41871,1,2,0:3:0:0:
256,200,42062,1,2,0:3:0:0:
