osu file format v14

[General]
AudioFilename: Meiwaku Spectacle (TV Size).mp3
AudioLeadIn: 0
PreviewTime: 16194
Countdown: 0
SampleSet: Soft
StackLeniency: 0.7
Mode: 2
LetterboxInBreaks: 0
WidescreenStoryboard: 1

[Editor]
DistanceSpacing: 1
BeatDivisor: 4
GridSize: 4
TimelineZoom: 7.699995

[Metadata]
Title:Meiwaku Spectacle (TV Size)
TitleUnicode:迷惑スペクタクル (TV Size)
Artist:Hanazawa Kana
ArtistUnicode:花澤香菜
Creator:Nakano Ichika
Version:Disruption
Source:となりの関くん
Tags:Tonari no Seki-kun yokoi rumi supekutakuru op pop jpop j-pop opening theme no uta asuna anime japanese My Neighbor 横井るみ Sekikun
BeatmapID:2574249
BeatmapSetID:497868

[Difficulty]
HPDrainRate:7
CircleSize:4.5
OverallDifficulty:9.5
ApproachRate:9.5
SliderMultiplier:2.1
SliderTickRate:1

[Events]
//Background and Video events
0,0,"BG.jpg",0,0
//Break Periods
//Storyboard Layer 0 (Background)
//Storyboard Layer 1 (Fail)
//Storyboard Layer 2 (Pass)
//Storyboard Layer 3 (Foreground)
//Storyboard Layer 4 (Overlay)
//Storyboard Sound Samples

[TimingPoints]
215,382.165605095541,4,2,2,40,1,0
1361,-100,4,2,2,60,0,0
5565,-100,4,2,2,40,0,0
5660,-100,4,2,2,30,0,0
5756,-100,4,2,2,20,0,0
5851,-100,4,2,2,10,0,0
5947,-100,4,2,2,60,0,0
6138,-100,4,2,2,30,0,0
6234,-100,4,2,2,20,0,0
6329,-100,4,2,2,15,0,0
6425,-100,4,2,2,10,0,0
7476,-100,4,2,2,20,0,0
7571,-100,4,2,2,30,0,0
7714,-100,4,2,2,40,0,0
7858,-100,4,2,2,60,0,0
13208,-80,4,2,2,60,0,0
13399,-100,4,2,2,60,0,0
13590,-100,4,2,2,15,0,0
13972,-100,4,2,2,40,0,0
14355,-100,4,2,3,25,0,0
15692,-100,4,2,2,45,0,0
16265,-100,4,2,22,45,0,0
16839,-100,4,2,2,80,0,1
19896,-100,4,2,2,70,0,1
26202,-100,4,2,2,60,0,0
27539,-100,4,2,2,50,0,0
28495,-100,4,2,22,50,0,0
29068,-100,4,2,2,80,0,1
32125,-100,4,2,2,70,0,1
38431,-100,4,2,2,60,0,0
39960,-100,4,2,2,50,0,0
41488,-100,4,2,2,35,0,0
41679,-100,4,2,2,20,0,0

[Colours]
Combo1 : 253,205,62
Combo2 : 218,218,218
Combo3 : 111,175,255

[HitObjects]
496,326,215,5,2,0:3:0:0:
177,335,597,1,2,0:0:0:0:
436,311,979,1,0,3:0:0:0:
99,289,1361,2,0,L|256:281,1,157.5,4|0,0:3|0:0,0:0:0:0:
475,252,1743,6,0,L|423:240,1,52.5,4|0,0:0|0:0,0:0:0:0:
373,224,1934,2,0,L|319:211,1,52.5
101,162,2125,2,0,L|152:177,1,52.5,8|0,0:0|0:0,0:0:0:0:
363,153,2316,2,0,L|314:133,1,52.5
103,271,2507,6,0,L|52:293,1,52.5,2|0,0:0|0:0,0:0:0:0:
61,340,2699,2,0,L|110:316,1,52.5,0|0,0:0|0:0,0:0:0:0:
321,261,2890,2,0,L|274:238,1,52.5,8|0,0:0|0:0,0:0:0:0:
61,146,3081,2,0,L|70:93,1,52.5
295,147,3272,6,0,L|302:94,1,52.5,2|0,0:0|0:0,0:0:0:0:
378,210,3463,2,0,L|385:158,1,52.5
163,206,3654,2,0,L|170:261,1,52.5,8|0,0:0|0:0,0:0:0:0:
381,287,3845,2,0,L|389:343,1,52.5
164,99,4036,6,0,L|157:46,1,52.5,2|0,0:0|0:0,0:0:0:0:
81,162,4227,2,0,L|74:110,1,52.5
298,112,4418,1,8,0:0:0:0:
127,160,4514,2,0,L|75:160,2,52.5
387,288,4800,6,0,P|414:243|402:188,1,105,2|0,0:0|0:0,0:0:0:0:
346,182,5087,1,0,0:0:0:0:
123,176,5183,2,0,P|102:129|126:83,1,105,8|0,0:0|0:0,0:0:0:0:
184,69,5469,1,0,0:0:0:0:
395,31,5565,6,0,P|433:66|428:117,1,105,2|0,0:0|0:0,0:0:0:0:
371,135,5851,1,2,0:0:0:0:
147,265,5947,2,0,L|199:260,1,52.5,8|0,0:0|0:0,0:0:0:0:
436,240,6138,6,0,L|441:266,7,26.25,2|0|0|0|0|0|0|0,0:0|0:0|0:0|0:0|0:0|0:0|0:0|0:0,0:0:0:0:
436,289,6520,5,0,0:0:0:0:
180,285,6902,1,0,0:0:0:0:
279,286,7093,1,0,0:0:0:0:
180,285,7285,1,0,0:0:0:0:
479,287,7476,5,2,0:0:0:0:
453,284,7523,1,2,0:0:0:0:
426,282,7571,1,2,0:0:0:0:
400,279,7619,1,0,0:0:0:0:
373,274,7667,1,2,0:0:0:0:
347,271,7714,1,2,0:0:0:0:
320,267,7762,1,2,0:0:0:0:
294,264,7810,1,0,0:0:0:0:
126,270,7858,6,0,L|73:264,1,52.5,4|0,0:0|0:0,0:0:0:0:
76,213,8049,2,0,L|128:218,1,52.5
352,152,8240,2,0,L|299:159,1,52.5,8|0,0:0|0:0,0:0:0:0:
88,81,8431,2,0,L|141:73,1,52.5
378,99,8622,6,0,L|385:47,1,52.5,2|0,0:0|0:0,0:0:0:0:
462,171,8813,2,0,L|469:119,1,52.5
247,225,9004,2,0,L|244:278,1,52.5,8|0,0:0|0:0,0:0:0:0:
466,335,9195,2,0,L|412:335,1,52.5,2|0,0:0|0:0,0:0:0:0:
153,347,9386,5,2,0:0:0:0:
115,312,9481,1,0,0:0:0:0:
110,261,9577,1,0,0:0:0:0:
142,221,9672,1,0,0:0:0:0:
368,198,9769,2,0,L|422:189,1,52.5,8|0,0:0|0:0,0:0:0:0:
209,169,9960,2,0,L|156:178,1,52.5
381,99,10151,6,0,L|388:47,1,52.5,2|0,0:0|0:0,0:0:0:0:
465,171,10342,2,0,L|472:119,1,52.5
248,121,10533,2,0,L|196:119,1,52.5,8|0,0:0|0:0,0:0:0:0:
408,172,10724,2,0,L|354:169,1,52.5
94,261,10915,6,0,P|63:223|97:190,1,105,2|0,0:0|0:0,0:0:0:0:
157,169,11202,1,0,0:0:0:0:
393,159,11297,1,8,0:0:0:0:
149,191,11488,1,0,0:0:0:0:
397,120,11679,6,0,P|431:86|403:47,1,105,2|0,0:0|0:0,0:0:0:0:
345,29,11966,1,2,0:0:0:0:
133,45,12062,2,0,L|81:50,1,52.5,10|0,0:0|0:0,0:0:0:0:
334,306,12253,6,0,L|443:298,2,105,2|0|2,0:0|0:0|0:0,0:0:0:0:
54,121,12826,2,0,L|158:120,1,105,10|0,0:0|0:0,0:0:0:0:
233,118,13113,1,0,0:0:0:0:
462,231,13208,6,0,L|364:144,1,131.25,2|2,0:0|0:0,0:0:0:0:
344,127,13447,1,2,0:0:0:0:
324,109,13495,1,2,0:0:0:0:
305,91,13543,1,2,0:0:0:0:
456,164,13590,5,2,0:0:0:0:
470,161,13614,1,0,0:0:0:0:
481,155,13638,1,0,0:0:0:0:
491,146,13662,1,0,0:0:0:0:
498,135,13686,1,0,0:0:0:0:
502,121,13710,1,0,0:0:0:0:
503,109,13734,1,0,0:0:0:0:
501,97,13757,1,0,0:0:0:0:
497,85,13781,1,0,0:0:0:0:
489,75,13805,1,0,0:0:0:0:
479,65,13829,1,0,0:0:0:0:
467,60,13853,1,0,0:0:0:0:
454,57,13877,1,0,0:0:0:0:
230,231,13972,5,4,0:0:0:0:
429,227,14355,1,2,0:0:0:0:
83,227,14546,1,2,0:0:0:0:
383,212,14928,1,2,0:0:0:0:
83,227,15310,1,2,0:0:0:0:
237,270,15692,5,2,0:0:0:0:
237,270,15788,1,2,0:0:0:0:
446,227,15883,2,0,L|498:238,1,52.5,2|0,0:0|0:0,0:0:0:0:
497,237,16074,2,0,L|444:228,1,52.5,2|0,0:0|0:0,0:0:0:0:
221,180,16265,6,0,L|168:168,1,52.5,2|0,0:0|0:0,0:0:0:0:
395,156,16457,2,0,L|445:141,1,52.5,2|0,0:0|0:0,0:0:0:0:
221,107,16648,2,0,L|170:94,1,52.5,2|0,0:0|0:0,0:0:0:0:
447,302,16839,6,0,P|394:262|301:258,1,157.5,6|0,0:0|0:0,0:0:0:0:
120,165,17221,2,0,L|173:166,1,52.5,2|0,0:0|0:0,0:0:0:0:
412,126,17412,2,0,L|309:105,1,105,8|0,0:0|0:0,0:0:0:0:
257,94,17699,1,0,0:0:0:0:
90,262,17794,5,2,0:0:0:0:
241,261,17985,1,0,0:0:0:0:
90,262,18176,1,8,0:0:0:0:
388,196,18367,6,0,L|231:196,1,157.5,6|0,0:0|0:0,0:0:0:0:
58,167,18750,2,0,L|110:167,1,52.5,2|0,0:0|0:0,0:0:0:0:
308,79,18941,1,8,0:0:0:0:
54,84,19132,1,2,0:0:0:0:
356,288,19323,5,2,0:0:0:0:
205,289,19514,1,0,0:0:0:0:
356,288,19705,1,8,0:0:0:0:
59,297,19896,6,0,L|67:193,1,105,2|2,0:3|0:0,0:0:0:0:
367,192,20278,2,0,L|419:192,2,52.5,0|0|8,0:0|0:0|0:0,0:0:0:0:
210,190,20660,1,0,0:0:0:0:
362,135,20851,1,2,0:0:0:0:
110,117,21043,1,0,0:0:0:0:
411,88,21234,1,8,0:0:0:0:
111,82,21425,6,0,L|3:74,1,105,4|2,0:0|0:0,0:0:0:0:
392,325,21807,2,0,L|382:220,1,105,4|8,0:0|0:0,0:0:0:0:
66,317,22189,2,0,L|77:212,1,105,4|2,0:0|0:0,0:0:0:0:
371,82,22571,2,0,L|476:75,1,105,4|8,0:0|0:0,0:0:0:0:
16,82,22953,6,0,L|175:74,1,157.5,6|0,0:0|0:0,0:0:0:0:
346,68,23336,2,0,L|294:68,1,52.5,2|0,0:0|0:0,0:0:0:0:
69,254,23527,2,0,L|174:256,1,105,8|0,0:0|0:0,0:0:0:0:
319,260,23909,5,2,0:0:0:0:
67,254,24100,2,0,L|178:255,1,105,0|8,0:0|0:0,0:0:0:0:
417,155,24482,6,0,L|313:148,1,105,2|2,0:3|0:0,0:0:0:0:
64,143,24864,2,0,L|7:139,2,52.5,2|0|8,0:3|0:0|0:0,0:0:0:0:
318,107,25246,2,0,L|210:106,1,105,2|2,0:3|0:0,0:0:0:0:
67,110,25629,1,0,0:0:0:0:
320,265,25820,2,0,P|335:215|322:166,1,105,8|0,0:0|0:0,0:0:0:0:
33,269,26202,5,2,0:0:0:0:
214,216,26393,1,2,0:0:0:0:
397,125,26584,1,2,0:0:0:0:
214,62,26775,1,2,0:0:0:0:
477,39,26966,1,2,0:0:0:0:
183,115,27157,1,2,0:0:0:0:
142,150,27220,1,2,0:0:0:0:
137,200,27284,1,2,0:0:0:0:
161,246,27348,1,2,0:0:0:0:
415,261,27539,6,0,L|306:260,1,105,4|0,0:0|0:0,0:0:0:0:
257,258,27826,1,2,0:0:0:0:
230,258,27874,1,2,0:0:0:0:
38,258,27922,2,0,L|96:258,1,52.5,2|0,0:0|0:0,0:0:0:0:
315,259,28113,2,0,L|260:258,1,52.5,8|0,0:0|0:0,0:0:0:0:
39,143,28304,2,0,L|93:143,1,52.5
316,147,28495,6,0,L|370:146,1,52.5,2|0,0:0|0:0,0:0:0:0:
368,146,28686,2,0,L|315:145,1,52.5,2|0,0:0|0:0,0:0:0:0:
91,143,28877,2,0,L|38:143,1,52.5,10|0,0:0|0:0,0:0:0:0:
316,317,29068,6,0,P|369:269|328:211,1,157.5,6|0,0:0|0:0,0:0:0:0:
143,307,29450,2,0,L|195:305,1,52.5,2|0,0:0|0:0,0:0:0:0:
433,185,29641,2,0,L|276:185,1,157.5,8|0,0:0|0:0,0:0:0:0:
106,98,30023,5,2,0:0:0:0:
258,99,30214,1,0,0:0:0:0:
106,98,30406,1,8,0:0:0:0:
402,103,30597,6,0,P|451:154|398:201,1,157.5,4|0,0:0|0:0,0:0:0:0:
189,243,30979,2,0,L|139:245,2,35,2|0|0,0:0|0:0|0:0,0:0:0:0:
356,97,31170,1,8,0:0:0:0:
110,84,31361,1,0,0:0:0:0:
406,36,31552,5,2,0:0:0:0:
256,36,31743,1,0,0:0:0:0:
406,36,31934,1,8,0:0:0:0:
109,41,32125,6,0,L|130:145,1,105,2|2,0:3|0:0,0:0:0:0:
383,142,32507,2,0,L|438:140,2,52.5,0|0|8,0:0|0:0|0:0,0:0:0:0:
227,188,32890,1,0,0:0:0:0:
380,247,33081,1,2,0:0:0:0:
128,265,33272,2,0,L|98:223,1,52.5,2|2,0:0|0:0,0:0:0:0:
309,145,33463,2,0,L|341:188,1,52.5,8|0,0:0|0:0,0:0:0:0:
75,160,33654,6,0,P|49:114|53:60,1,105,4|2,0:0|0:0,0:0:0:0:
454,228,34036,2,0,P|475:273|473:328,1,105,4|8,0:0|0:0,0:0:0:0:
23,266,34418,2,0,L|128:247,1,105,4|2,0:0|0:0,0:0:0:0:
474,152,34800,2,0,L|373:125,1,105,4|8,0:0|0:0,0:0:0:0:
25,51,35183,6,0,L|183:50,1,157.5,4|0,0:0|0:0,0:0:0:0:
411,56,35565,1,2,0:0:0:0:
440,67,35628,1,0,0:0:0:0:
441,98,35692,1,0,0:0:0:0:
412,110,35756,1,8,0:0:0:0:
161,114,35947,1,0,0:0:0:0:
412,160,36138,1,2,0:0:0:0:
158,265,36329,2,0,P|141:218|169:176,1,105,0|8,0:0|0:0,0:0:0:0:
465,264,36711,6,0,L|360:251,1,105,4|0,0:0|0:0,0:0:0:0:
108,254,37093,2,0,B|55:252|55:252|109:251,1,105,2|8,0:0|0:0,0:0:0:0:
361,196,37476,2,0,L|254:191,1,105,2|2,0:3|0:0,0:0:0:0:
119,189,37858,1,0,0:0:0:0:
372,281,38049,2,0,L|267:281,1,105,8|0,0:0|0:0,0:0:0:0:
12,292,38431,5,2,0:0:0:0:
256,290,38622,1,2,0:0:0:0:
500,288,38813,1,2,0:0:0:0:
256,290,39004,1,2,0:0:0:0:
501,288,39195,1,2,0:0:0:0:
257,290,39386,1,2,0:3:0:0:
12,292,39578,1,2,0:3:0:0:
257,290,39769,1,2,0:0:0:0:
12,292,39960,5,6,0:0:0:0:
256,192,40151,8,0,41488,0:0:0:0:
69,214,41679,5,2,0:3:0:0:
265,216,41871,1,2,0:3:0:0:
69,214,42062,1,2,0:3:0:0:
