osu file format v14

[General]
AudioFilename: audio.mp3
AudioLeadIn: 0
PreviewTime: 61628
Countdown: 0
SampleSet: Soft
StackLeniency: 0.3
Mode: 0
LetterboxInBreaks: 0
WidescreenStoryboard: 0

[Editor]
Bookmarks: 10893,11599,22928,25751,28575,31398,34222,62422,118928
DistanceSpacing: 0.5
BeatDivisor: 6
GridSize: 32
TimelineZoom: 2

[Metadata]
Title:Marathon
TitleUnicode:マラソン
Artist:Hanazawa Kana
ArtistUnicode:花澤香菜
Creator:Sotarks
Version:pkhg's Hard
Source:
Tags:pkhg appleeaterx akitoshi corinn
BeatmapID:1462838
BeatmapSetID:691239

[Difficulty]
HPDrainRate:5
CircleSize:3.5
OverallDifficulty:6
ApproachRate:7.5
SliderMultiplier:1.5
SliderTickRate:1

[Events]
//Background and Video events
0,0,"BG.jpg",0,0
//Break Periods
//Storyboard Layer 0 (Background)
//Storyboard Layer 1 (Fail)
//Storyboard Layer 2 (Pass)
//Storyboard Layer 3 (Foreground)
//Storyboard Sound Samples

[TimingPoints]
340,352.941176470588,4,2,2,75,1,0
10928,-100,4,2,2,48,0,0
11634,-100,4,2,2,70,0,0
11898,-100,4,2,2,15,0,0
11987,-100,4,2,2,70,0,0
14722,-100,4,2,2,15,0,0
14810,-100,4,2,2,70,0,0
17545,-100,4,2,2,15,0,0
17634,-100,4,2,2,70,0,0
20369,-100,4,2,2,15,0,0
20457,-100,4,2,2,70,0,0
22928,-166.666666666667,4,2,2,40,0,0
25751,-100,4,2,2,70,0,0
28575,-166.666666666667,4,2,2,40,0,0
31045,-100,4,2,2,40,0,0
31398,-100,4,2,2,70,0,0
42604,-100,4,2,2,15,0,0
42692,-100,4,2,2,70,0,0
45536,352.941176470588,4,2,2,60,1,0
45536,-166.666666666667,4,2,2,60,0,0
56830,-200,4,2,2,55,0,0
58242,-166.666666666667,4,2,2,60,0,0
59654,-142.857142857143,4,2,2,65,0,0
60359,-125,4,2,2,65,0,0
61065,-111.111111111111,4,2,2,65,0,0
61418,-100,4,2,2,65,0,0
61507,-100,4,2,2,15,0,0
61771,-100,4,2,2,60,0,0
62124,-100,4,2,2,60,0,0
62477,-100,4,2,2,75,0,1
64154,-100,4,2,2,20,0,1
64242,-100,4,2,2,75,0,1
65565,-100,4,2,2,20,0,1
65654,-100,4,2,2,75,0,1
68389,-100,4,2,2,20,0,1
68477,-100,4,2,2,75,0,1
69801,-100,4,2,2,20,0,1
69889,-100,4,2,2,75,0,1
71212,-100,4,2,2,20,0,1
71301,-100,4,2,2,75,0,1
76859,-100,4,2,2,20,0,1
76948,-100,4,2,2,75,0,1
79683,-100,4,2,2,20,0,1
79771,-100,4,2,2,75,0,1
81801,-100,4,2,2,20,0,1
81889,-100,4,2,2,75,0,1
90692,352.941176470588,4,2,2,75,1,0
90692,-166.666666666667,4,2,2,75,0,0
96339,-100,4,2,2,75,0,0
118927,-166.666666666667,4,2,2,75,0,0
120163,-166.666666666667,4,2,2,5,0,0

[Colours]
Combo1 : 254,227,199
Combo2 : 192,192,192
Combo3 : 255,149,202
Combo4 : 147,201,255

[HitObjects]
220,272,10928,6,0,L|258:267,7,37.5,0|0|0|0|0|0|0|0,1:0|1:0|1:0|1:0|1:0|1:0|1:0|1:0,0:0:0:0:
274,265,11634,1,4,0:0:0:0:
274,265,11987,5,2,1:2:0:0:
358,298,12163,1,2,0:2:0:0:
405,218,12339,1,0,0:0:0:0:
405,218,12516,2,0,L|397:143,1,75,2|0,0:2|1:0,0:0:0:0:
419,56,12869,6,0,P|454:43|491:44,1,75,2|0,0:0|0:0,0:0:0:0:
331,82,13222,2,0,P|293:82|258:70,1,75,2|0,0:0|1:0,0:0:0:0:
192,10,13575,1,2,0:2:0:0:
192,10,13928,1,0,0:0:0:0:
176,99,14104,2,0,L|162:213,1,112.5,2|0,1:2|0:0,0:0:0:0:
161,226,14457,1,0,0:0:0:0:
161,226,14810,5,2,1:2:0:0:
149,314,14987,1,2,0:2:0:0:
232,281,15163,1,0,0:0:0:0:
232,281,15339,2,0,P|269:280|304:292,1,75,0|0,0:0|1:0,0:0:0:0:
372,353,15692,6,0,L|447:345,1,75,2|0,0:2|0:0,0:0:0:0:
505,275,16045,2,0,L|513:199,1,75,2|0,0:2|1:0,0:0:0:0:
425,223,16398,2,0,L|408:66,1,150,2|0,0:2|0:0,0:0:0:0:
351,4,16928,1,2,1:2:0:0:
324,88,17104,1,0,1:0:0:0:
322,99,17192,1,0,1:0:0:0:
319,110,17281,1,0,0:0:0:0:
319,110,17634,5,2,1:2:0:0:
267,185,17810,1,2,0:2:0:0:
228,102,17987,1,0,0:0:0:0:
228,102,18163,1,2,0:2:0:0:
189,19,18339,1,0,1:0:0:0:
137,94,18516,6,0,L|129:169,1,75,2|0,0:2|0:0,0:0:0:0:
171,246,18869,2,0,P|197:219|230:202,1,75,2|0,0:2|1:0,0:0:0:0:
70,235,19222,2,0,P|49:203|20:180,1,75,2|0,0:2|0:0,0:0:0:0:
113,318,19575,1,0,0:0:0:0:
113,318,19751,2,0,L|129:168,1,150,2|0,1:2|0:0,0:0:0:0:
128,168,20457,5,2,1:2:0:0:
138,78,20634,1,2,0:2:0:0:
56,115,20810,1,0,0:0:0:0:
56,115,20987,1,2,0:2:0:0:
64,25,21163,1,0,1:0:0:0:
138,78,21339,6,0,P|175:79|210:67,1,75,2|0,0:2|0:0,0:0:0:0:
287,19,21692,2,0,P|324:18|359:30,1,75,2|0,0:2|1:0,0:0:0:0:
424,93,22045,1,2,0:2:0:0:
363,159,22222,2,0,P|350:194|351:231,1,75,8|0,0:3|0:0,0:0:0:0:
357,242,22487,1,0,1:0:0:0:
365,250,22575,1,0,1:0:0:0:
156,327,22928,6,0,P|106:284|41:294,2,134.999995880127,2|2|2,0:0|0:0|0:0,0:0:0:0:
156,327,24339,2,0,P|183:267|245:248,2,134.999995880127,2|2|8,0:0|0:0|1:3,0:0:0:0:
156,327,25751,6,0,L|120:166,1,150,4|0,0:0|1:0,0:0:0:0:
37,153,26281,1,2,0:0:0:0:
102,91,26457,2,0,L|85:17,1,75,0|2,0:0|0:0,0:0:0:0:
188,118,26810,1,0,1:0:0:0:
123,180,26987,6,0,L|156:327,1,150,2|0,0:0|0:0,0:0:0:0:
242,353,27516,1,0,1:0:0:0:
306,290,27692,2,0,L|273:143,1,150,2|0,0:0|0:0,0:0:0:0:
188,118,28222,1,0,1:0:0:0:
252,55,28398,1,0,1:0:0:0:
263,52,28487,1,0,1:0:0:0:
274,49,28575,6,0,B|334:81|334:81|394:49,1,134.999995880127,4|2,0:0|0:0,0:0:0:0:
393,49,29634,1,2,0:0:0:0:
399,143,29810,1,0,0:0:0:0:
472,100,29987,2,0,P|448:141|429:235,1,134.999995880127,2|2,0:0|0:0,0:0:0:0:
429,225,30869,5,4,0:3:0:0:
483,354,31045,2,0,P|495:318|494:281,1,75,8|0,1:3|0:0,0:0:0:0:
344,240,31398,6,0,P|324:271|317:308,1,75,4|2,0:0|0:0,0:0:0:0:
407,305,31751,1,0,1:0:0:0:
429,225,31928,2,0,L|469:80,1,150,2|2,0:2|0:2,0:0:0:0:
379,84,32457,1,0,1:0:0:0:
330,9,32634,6,0,L|235:125,1,150,2|0,0:0|0:0,0:0:0:0:
178,195,33163,1,0,1:0:0:0:
119,127,33339,2,0,P|82:120|46:127,1,75,2|0,0:0|0:0,0:0:0:0:
84,208,33692,1,0,1:0:0:0:
74,211,33781,1,0,1:0:0:0:
65,214,33869,2,0,P|38:239|21:272,1,75,0|2,1:0|0:0,0:0:0:0:
108,291,34222,6,0,B|110:332|138:358|138:358|176:362|209:338,1,150,6|0,0:2|1:0,0:0:0:0:
199,227,34751,2,0,B|162:208|126:219|126:219|103:250|108:291,1,150,2|0,0:2|0:0,0:0:0:0:
128,378,35281,1,0,1:0:0:0:
208,337,35457,2,0,B|243:315|251:278|251:278|236:243|199:227,1,150,2|0,0:2|0:0,0:0:0:0:
110,198,35987,1,0,1:0:0:0:
110,198,36339,1,2,0:2:0:0:
178,139,36516,1,0,0:0:0:0:
93,110,36692,1,2,1:2:0:0:
93,110,37045,6,0,B|90:68|115:39|115:39|152:32|187:52,1,150,2|0,0:2|1:0,0:0:0:0:
190,162,37575,2,0,B|155:185|118:177|118:177|92:148|93:110,1,150,2|0,0:2|0:0,0:0:0:0:
100,19,38104,1,0,1:0:0:0:
187,51,38281,2,0,B|224:69|236:105|236:105|225:141|190:162,1,150,2|0,0:2|0:0,0:0:0:0:
106,198,38810,1,0,1:0:0:0:
106,198,39163,1,2,0:2:0:0:
179,252,39339,1,0,0:0:0:0:
95,288,39516,1,2,1:2:0:0:
95,288,39869,5,2,0:0:0:0:
169,341,40045,2,0,P|205:329|242:330,1,75,2|0,0:2|1:0,0:0:0:0:
326,362,40398,2,0,L|401:354,1,75,2|0,0:2|0:0,0:0:0:0:
475,303,40751,1,0,0:0:0:0:
429,225,40928,1,2,1:2:0:0:
429,225,41281,6,0,P|381:171|390:99,1,150,2|0,0:2|1:0,0:0:0:0:
466,51,41810,1,0,0:0:0:0:
386,10,41987,2,0,L|311:18,1,75,2|0,0:2|0:0,0:0:0:0:
237,69,42340,1,0,1:0:0:0:
237,69,42692,5,4,0:0:0:0:
155,31,42869,1,0,1:0:0:0:
155,31,43045,1,0,1:0:0:0:
85,89,43222,1,0,0:0:0:0:
85,89,43575,5,0,1:0:0:0:
166,125,43751,1,0,0:0:0:0:
175,213,43928,1,0,1:0:0:0:
104,266,44104,1,0,0:0:0:0:
94,177,44281,1,8,1:3:0:0:
94,177,44634,5,0,0:0:0:0:
166,125,44810,1,8,1:3:0:0:
175,213,44987,1,0,0:0:0:0:
247,161,45163,1,4,1:3:0:0:
339,150,45339,5,0,0:0:0:0:
339,150,45536,2,0,L|477:133,1,134.999995880127,4|0,0:0|0:0,0:0:0:0:
472,133,46242,1,2,1:2:0:0:
481,141,46771,5,0,0:0:0:0:
481,141,46948,2,0,P|486:185|477:229,1,89.9999972534181,2|0,0:0|0:0,0:0:0:0:
477,229,47477,2,0,B|447:218|412:233|412:233|371:249|346:237,1,134.999995880127,2|0,0:0|0:0,0:0:0:0:
242,342,48359,6,0,P|194:324|103:335,1,134.999995880127,2|0,0:0|0:0,0:0:0:0:
111,331,49065,1,2,1:2:0:0:
120,339,49595,5,0,0:0:0:0:
120,339,49772,2,0,P|110:295|115:250,1,89.9999972534181,2|0,0:0|0:0,0:0:0:0:
119,245,50301,1,2,0:0:0:0:
119,245,51007,6,0,P|123:200|113:156,1,89.9999972534181,2|0,0:0|0:0,0:0:0:0:
113,156,51712,2,0,P|147:127|171:89,1,89.9999972534181,2|0,0:0|0:0,0:0:0:0:
171,89,52418,2,0,P|258:131|273:35,1,224.999993133545,2|2,0:0|1:2,0:0:0:0:
273,35,53830,5,0,0:0:0:0:
319,105,54007,1,2,0:2:0:0:
389,59,54183,1,0,0:0:0:0:
389,59,54536,2,0,P|400:101|390:145,1,89.9999972534181,2|0,0:0|0:0,0:0:0:0:
394,149,55242,1,0,0:0:0:0:
394,148,55418,2,0,P|370:210|390:273,1,134.999995880127,2|0,0:2|0:0,0:0:0:0:
390,273,56124,1,2,1:2:0:0:
390,273,56830,6,0,P|316:331|299:238,1,225,4|0,0:0|0:0,0:0:0:0:
299,238,58242,6,0,P|278:127|189:197,1,269.999991760254,4|0,0:0|0:0,0:0:0:0:
189,197,59654,6,0,P|197:247|171:291,1,104.999996795654,4|0,0:0|0:0,0:0:0:0:
170,291,60359,6,0,P|112:279|83:228,1,120,4|0,0:0|0:0,0:0:0:0:
83,228,61065,6,0,P|96:197|121:173,1,67.4999979400635,4|0,0:0|0:0,0:0:0:0:
119,173,61418,6,0,P|156:177|189:196,1,75,4|0,0:0|0:0,0:0:0:0:
154,273,61771,5,2,0:0:0:0:
154,273,62124,1,8,1:3:0:0:
154,273,62477,2,0,P|203:220|275:230,1,150,4|0,0:0|1:0,0:0:0:0:
275,230,63183,1,2,0:2:0:0:
344,288,63359,1,0,0:0:0:0:
417,235,63536,2,0,P|417:197|405:162,1,75,2|0,1:2|0:0,0:0:0:0:
440,79,63889,2,0,P|391:132|319:122,1,150,2|0,0:2|1:0,0:0:0:0:
296,35,64418,1,0,0:0:0:0:
319,122,64595,6,0,P|283:110|246:110,1,75,2|0,0:2|0:0,0:0:0:0:
167,66,64948,2,0,P|130:75|99:96,1,75,2|0,1:2|0:0,0:0:0:0:
19,56,65301,2,0,P|47:125|59:199,1,150,2|0,0:2|1:0,0:0:0:0:
14,278,65830,1,0,0:0:0:0:
90,327,66007,6,0,P|125:315|162:315,1,75,2|0,0:2|0:0,0:0:0:0:
248,345,66359,2,0,P|285:345|320:333,1,75,2|0,1:2|0:0,0:0:0:0:
394,281,66712,2,0,P|422:211|434:137,1,150,2|0,0:2|1:0,0:0:0:0:
405,51,67242,1,0,0:0:0:0:
319,20,67418,6,0,P|281:19|246:31,1,75,2|0,0:2|0:0,0:0:0:0:
194,101,67771,2,0,P|104:94|162:25,1,225,2|0,1:2|0:0,0:0:0:0:
246,31,68477,2,0,P|281:19|319:20,1,75,2|0,1:2|0:0,0:0:0:0:
396,70,68830,6,0,P|407:105|407:142,1,75,2|0,0:2|0:0,0:0:0:0:
342,198,69183,2,0,P|348:288|417:230,1,225,2|0,1:2|0:0,0:0:0:0:
407,142,69889,2,0,P|407:105|396:70,1,75,2|0,1:2|0:0,0:0:0:0:
318,19,70242,6,0,P|281:18|246:31,1,75,2|0,0:2|0:0,0:0:0:0:
194,101,70595,2,0,P|104:94|162:25,1,225,2|0,1:2|0:0,0:0:0:0:
245,31,71301,1,2,1:2:0:0:
293,119,71477,1,0,1:0:0:0:
293,119,71565,1,8,0:3:0:0:
293,119,71653,1,4,0:3:0:0:
235,188,71830,1,0,0:0:0:0:
299,262,72007,6,0,P|230:234|156:222,1,150,6|0,1:2|0:0,0:0:0:0:
74,261,72536,1,0,0:0:0:0:
19,190,72712,2,0,P|19:152|31:117,1,75,6|0,1:2|0:0,0:0:0:0:
109,67,73065,1,2,0:2:0:0:
109,67,73242,1,0,0:0:0:0:
171,133,73418,2,0,P|206:144|243:144,1,75,2|0,1:2|1:0,0:0:0:0:
258,138,73683,1,0,1:0:0:0:
272,132,73771,6,0,P|345:144|415:171,1,150,4|0,0:0|1:0,0:0:0:0:
415,171,74477,1,2,0:2:0:0:
473,240,74654,1,0,0:0:0:0:
416,309,74830,2,0,P|381:320|344:320,1,75,2|0,1:2|0:0,0:0:0:0:
266,368,75183,2,0,P|194:347|119:341,1,150,2|0,0:2|1:0,0:0:0:0:
119,340,75889,6,0,P|119:302|108:266,1,75,2|0,0:2|0:0,0:0:0:0:
56,193,76242,2,0,P|55:155|66:119,1,75,2|0,1:2|0:0,0:0:0:0:
29,37,76595,2,0,P|78:90|150:80,1,150,2|0,0:2|1:0,0:0:0:0:
218,22,77124,1,0,0:0:0:0:
295,71,77301,6,0,P|305:106|304:144,1,75,2|0,0:2|0:0,0:0:0:0:
241,209,77654,2,0,P|230:244|231:282,1,75,2|0,1:2|0:0,0:0:0:0:
300,341,78007,2,0,P|371:350|420:297,1,150,2|0,0:2|1:0,0:0:0:0:
441,208,78536,1,0,0:0:0:0:
387,134,78712,6,0,P|351:123|313:124,1,75,2|0,0:2|0:0,0:0:0:0:
255,190,79065,2,0,P|165:183|223:114,1,225,2|0,1:2|0:0,0:0:0:0:
313,124,79771,2,0,P|350:122|386:133,1,75,2|0,1:2|0:0,0:0:0:0:
422,212,80124,2,0,P|407:246|382:274,1,75,2|0,0:2|0:0,0:0:0:0:
296,279,80477,1,2,1:2:0:0:
296,279,80830,6,0,P|244:353|334:349,1,225,4|0,0:0|0:0,0:0:0:0:
384,274,81536,2,0,P|474:281|425:204,1,225,4|0,0:0|0:0,0:0:0:0:
337,198,82242,1,4,1:3:0:0:
337,198,82595,2,0,B|353:136|197:122|181:286|264:402|489:382|546:195|474:28|236:-14|179:185,1,750,6|4,0:0|0:3,0:0:0:0:
180,179,84889,5,2,0:0:0:0:
120,246,85065,2,0,P|84:257|47:258,2,75,4|0|2,0:0|0:0|1:2,0:0:0:0:
180,179,85595,2,0,L|158:330,1,150,2|2,0:0|0:0,0:0:0:0:
229,384,86124,1,2,1:2:0:0:
292,319,86301,2,0,P|327:308|364:310,1,75,2|0,0:2|0:0,0:0:0:0:
438,257,86654,2,0,P|448:221|446:184,1,75,2|0,0:2|1:0,0:0:0:0:
480,101,87007,2,0,P|431:154|359:144,1,150,2|0,0:2|0:0,0:0:0:0:
294,82,87536,1,0,1:0:0:0:
272,169,87712,1,2,0:0:0:0:
207,106,87889,5,2,0:0:0:0:
207,106,88065,2,0,P|169:104|134:114,1,75,2|0,0:0|1:0,0:0:0:0:
82,189,88418,1,2,0:2:0:0:
0,227,88595,2,0,P|74:233|146:254,1,150,2|2,1:2|1:2,0:0:0:0:
208,320,89124,1,2,1:2:0:0:
289,276,89301,5,4,0:3:0:0:
289,276,89477,2,0,L|310:127,1,150,2|2,0:0|0:0,0:0:0:0:
310,127,90183,2,0,L|315:89,2,37.5,0|0|4,1:0|1:0|0:3,0:0:0:0:
386,191,90536,1,0,1:0:0:0:
386,191,90624,1,0,1:0:0:0:
385,191,90692,6,0,P|448:205|500:165,2,134.999995880127,2|4|4,0:0|0:3|0:3,0:0:0:0:
385,191,92280,2,0,P|343:174|300:183,1,89.9999972534181,4|0,0:3|0:0,0:0:0:0:
252,257,92809,2,0,P|251:279|256:301,2,44.999998626709,0|4|4,1:0|0:3|0:3,0:0:0:0:
252,257,93515,6,0,P|266:193|226:141,2,134.999995880127,4|8|4,0:3|0:3|0:3,0:0:0:0:
252,257,94927,1,4,0:3:0:0:
180,307,95103,2,0,L|90:298,1,89.9999972534181,0|4,0:0|0:3,0:0:0:0:
0,289,95633,1,0,1:0:0:0:
0,289,95986,1,4,1:3:0:0:
180,307,96339,1,4,0:0:0:0:
180,307,96692,5,2,1:2:0:0:
261,346,96867,1,2,0:2:0:0:
324,281,97043,1,0,0:0:0:0:
324,281,97220,2,0,L|316:206,1,75,2|0,0:2|1:0,0:0:0:0:
337,118,97573,6,0,P|372:105|409:106,1,75,2|0,0:2|0:0,0:0:0:0:
483,159,97927,2,0,P|496:194|495:231,1,75,2|0,0:2|1:0,0:0:0:0:
512,320,98280,2,0,P|463:267|391:277,1,150,2|0,0:2|0:0,0:0:0:0:
324,340,98809,2,0,B|265:295|265:295|193:317,1,150,2|0,1:2|0:0,0:0:0:0:
193,317,99514,5,2,1:2:0:0:
115,347,99691,1,2,0:2:0:0:
71,275,99868,1,0,0:0:0:0:
71,275,100044,2,0,P|70:238|82:203,1,75,2|0,0:2|1:0,0:0:0:0:
142,131,100397,6,0,L|134:56,1,75,2|0,0:2|0:0,0:0:0:0:
221,186,100750,2,0,L|229:110,1,75,2|0,0:2|1:0,0:0:0:0:
238,21,101103,1,2,0:0:0:0:
238,21,101456,1,0,0:0:0:0:
228,111,101633,2,0,L|221:186,1,75,2|0,1:2|0:0,0:0:0:0:
212,277,101986,1,4,0:0:0:0:
212,277,102338,5,2,1:2:0:0:
304,286,102515,1,2,0:2:0:0:
313,194,102691,1,0,0:0:0:0:
221,185,102868,1,2,0:0:0:0:
221,185,103221,6,0,P|183:183|148:196,1,75,2|0,0:0|0:0,0:0:0:0:
77,142,103574,2,0,P|78:104|65:69,1,75,2|0,0:0|1:0,0:0:0:0:
67,229,103927,2,0,L|161:109,1,150,2|0,0:0|0:0,0:0:0:0:
144,22,104456,2,0,P|178:85|250:93,1,150,2|0,1:2|0:0,0:0:0:0:
250,93,105162,5,2,1:2:0:0:
332,54,105338,1,2,0:2:0:0:
411,97,105515,1,0,0:0:0:0:
492,57,105691,1,2,0:0:0:0:
492,57,106044,5,0,1:0:0:0:
495,71,106133,1,0,1:0:0:0:
498,85,106221,1,0,1:0:0:0:
471,171,106397,1,8,0:3:0:0:
444,257,106574,1,4,0:3:0:0:
444,257,106927,2,0,P|394:310|323:300,1,150,2|2,0:0|1:2,0:0:0:0:
278,222,107456,1,0,1:0:0:0:
271,209,107544,1,0,1:0:0:0:
263,195,107633,6,0,P|191:185|142:238,1,150,4|0,0:0|1:0,0:0:0:0:
143,238,108338,2,0,P|153:166|100:117,1,150,2|0,0:2|1:2,0:0:0:0:
100,117,109044,2,0,P|172:127|221:74,1,150,2|0,0:2|1:2,0:0:0:0:
220,74,109750,2,0,P|210:146|263:195,1,150,2|0,0:0|1:0,0:0:0:0:
349,175,110280,2,0,L|389:163,2,37.5,4|4|4,0:3|0:3|0:3,0:0:0:0:
348,175,110809,6,0,P|339:210|344:247,1,75,2|2,1:2|0:0,0:0:0:0:
281,314,111162,2,0,P|245:304|208:309,1,75,0|2,0:0|0:0,0:0:0:0:
208,309,111691,6,0,P|245:304|281:314,1,75,2|0,0:2|0:0,0:0:0:0:
344,247,112044,2,0,P|339:210|348:175,1,75,2|0,0:2|1:0,0:0:0:0:
425,127,112397,1,0,0:0:0:0:
346,83,112574,6,0,P|309:77|273:87,1,75,2|0,0:0|0:0,0:0:0:0:
196,139,112927,2,0,P|163:120|126:115,1,75,2|0,1:2|0:0,0:0:0:0:
50,67,113280,2,0,P|88:130|97:204,1,150,4|0,0:0|1:0,0:0:0:0:
97,204,113986,2,0,P|160:165|234:156,1,150,2|0,0:0|1:0,0:0:0:0:
233,156,114691,2,0,P|293:200|329:266,1,150,2|0,0:0|1:0,0:0:0:0:
329,266,115397,2,0,P|373:206|439:171,1,150,2|0,0:0|1:0,0:0:0:0:
439,171,116103,6,0,P|475:175|508:194,1,75,0|0,1:0|0:0,0:0:0:0:
478,280,116456,2,0,P|441:275|408:256,1,75,2|2,1:2|0:0,0:0:0:0:
352,187,116809,2,0,P|319:168|283:164,1,75,0|2,1:0|0:0,0:0:0:0:
204,202,117162,1,0,0:0:0:0:
122,166,117338,6,0,P|103:133|98:96,1,75,2|0,0:0|1:0,0:0:0:0:
192,102,117691,2,0,P|198:65|218:34,1,75,2|0,0:0|1:0,0:0:0:0:
285,96,118044,2,0,P|344:53|418:53,1,150,8|2,0:3|0:0,0:0:0:0:
412,144,118574,2,0,P|382:165|345:165,1,75,4|2,0:3|0:0,0:0:0:0:
348,258,118927,6,0,P|426:248|480:206,2,149.999995422363,4|0|2,0:0|3:0|0:0,0:0:0:0:
256,192,120162,12,0,124574,0:0:0:0:
