osu file format v14

[General]
AudioFilename: audio.mp3
AudioLeadIn: 0
PreviewTime: 61628
Countdown: 0
SampleSet: Soft
StackLeniency: 0.4
Mode: 0
LetterboxInBreaks: 0
WidescreenStoryboard: 0

[Editor]
Bookmarks: 10893,11599,62422,118928
DistanceSpacing: 0.5
BeatDivisor: 4
GridSize: 4
TimelineZoom: 2

[Metadata]
Title:Marathon
TitleUnicode:マラソン
Artist:Hanazawa Kana
ArtistUnicode:花澤香菜
Creator:Sotarks
Version:apple's Expert
Source:
Tags:pkhg appleeaterx akitoshi corinn
BeatmapID:1462836
BeatmapSetID:691239

[Difficulty]
HPDrainRate:6
CircleSize:4
OverallDifficulty:8
ApproachRate:9
SliderMultiplier:1.8
SliderTickRate:2

[Events]
//Background and Video events
0,0,"BG.jpg",0,0
//Break Periods
//Storyboard Layer 0 (Background)
//Storyboard Layer 1 (Fail)
//Storyboard Layer 2 (Pass)
//Storyboard Layer 3 (Foreground)
//Storyboard Sound Samples

[TimingPoints]
340,352.941176470588,4,2,1,75,1,0
10928,-100,4,2,1,48,0,0
11634,-100,4,2,1,70,0,0
11898,-100,4,2,1,15,0,0
11987,-100,4,2,1,70,0,0
14722,-100,4,2,1,15,0,0
14810,-100,4,2,1,70,0,0
17545,-100,4,2,1,15,0,0
17634,-100,4,2,1,70,0,0
20369,-100,4,2,1,15,0,0
20457,-100,4,2,1,70,0,0
22928,-166.666666666667,4,2,1,40,0,0
25751,-100,4,2,1,70,0,0
28575,-166.666666666667,4,2,1,40,0,0
31398,-100,4,2,1,70,0,0
42604,-100,4,2,1,15,0,0
42692,-100,4,2,1,70,0,0
45536,352.941176470588,4,2,1,60,1,0
45536,-142.857142857143,4,2,1,60,0,0
56830,-100,4,2,1,55,0,0
58242,-100,4,2,1,60,0,0
59654,-100,4,2,1,65,0,0
61507,-100,4,2,1,15,0,0
62124,-100,4,2,1,60,0,0
62477,-100,4,2,1,75,0,1
64154,-100,4,2,1,20,0,1
64242,-100,4,2,1,75,0,1
65565,-100,4,2,1,20,0,1
65654,-100,4,2,1,75,0,1
68389,-100,4,2,1,20,0,1
68477,-100,4,2,1,75,0,1
69801,-100,4,2,1,20,0,1
69889,-100,4,2,1,75,0,1
71212,-100,4,2,1,20,0,1
71301,-100,4,2,1,75,0,1
76859,-100,4,2,1,20,0,1
76948,-100,4,2,1,75,0,1
79683,-100,4,2,1,20,0,1
79771,-100,4,2,1,75,0,1
81801,-100,4,2,1,20,0,1
81889,-100,4,2,1,75,0,1
90692,352.941176470588,4,2,1,55,1,0
90692,-142.857142857143,4,2,1,55,0,0
96339,-100,4,2,1,75,0,0
107633,-100,4,2,1,75,0,1
107721,-100,4,2,1,75,0,0
118222,-100,4,2,1,60,0,0
118928,-100,4,2,1,40,0,0

[Colours]
Combo1 : 254,227,199
Combo2 : 192,192,192
Combo3 : 255,149,202
Combo4 : 147,201,255

[HitObjects]
52,28,10928,6,8,L|44:80,1,45,8|8,0:0|0:0,0:0:0:0:
160,124,11104,2,8,L|153:79,1,45,8|8,0:0|0:0,0:0:0:0:
60,172,11281,2,8,L|12:192,1,45,8|8,0:0|0:0,0:0:0:0:
184,236,11457,2,8,L|232:216,1,45,8|8,0:0|0:0,0:0:0:0:
344,32,11634,6,0,L|312:172,1,135,6|0,3:2|0:0,0:0:0:0:
312,176,11987,1,8,0:0:0:0:
424,324,12163,1,0,0:0:0:0:
488,216,12339,2,0,L|392:232,1,90,2|0,3:2|3:0,0:0:0:0:
192,272,12692,1,8,0:0:0:0:
288,356,12869,6,0,L|303:267,1,90,2|2,0:0|3:2,0:0:0:0:
408,128,13222,1,0,0:0:0:0:
408,128,13310,1,0,0:0:0:0:
408,128,13398,1,8,0:0:0:0:
240,192,13575,2,0,L|144:176,1,90,0|2,0:0|3:2,0:0:0:0:
296,96,13928,1,0,3:0:0:0:
408,128,14104,2,0,L|392:220,1,90,8|0,0:0|0:0,0:0:0:0:
192,340,14457,6,0,P|132:316|52:316,1,135,2|0,3:2|0:0,0:0:0:0:
48,324,14810,1,8,0:0:0:0:
28,120,14987,1,0,0:0:0:0:
28,120,15075,1,0,0:0:0:0:
28,120,15163,2,0,P|40:184|52:224,1,90,2|0,3:2|3:0,0:0:0:0:
192,340,15516,1,8,0:0:0:0:
240,216,15692,6,0,L|144:240,1,90,2|2,0:0|3:2,0:0:0:0:
280,364,16045,2,0,L|376:340,1,90,0|8,0:0|0:0,0:0:0:0:
368,152,16398,1,0,0:0:0:0:
368,152,16487,1,0,0:0:0:0:
368,152,16575,2,0,L|344:252,1,90,2|0,3:2|3:0,0:0:0:0:
288,40,16928,1,8,0:0:0:0:
168,104,17104,1,8,0:0:0:0:
168,104,17192,1,8,0:0:0:0:
168,104,17281,6,0,L|24:72,1,135,6|0,3:2|0:0,0:0:0:0:
24,72,17634,1,8,0:0:0:0:
112,284,17810,1,0,0:0:0:0:
64,180,17987,1,2,3:2:0:0:
168,104,18163,1,0,3:0:0:0:
168,104,18251,1,0,0:0:0:0:
168,104,18339,1,8,0:0:0:0:
128,308,18516,6,0,L|28:292,1,90,2|2,0:0|3:2,0:0:0:0:
216,172,18869,2,0,P|228:228|236:264,1,90,0|8,0:0|0:0,0:0:0:0:
360,352,19222,1,0,0:0:0:0:
360,352,19310,1,0,0:0:0:0:
360,352,19398,2,0,P|368:307|376:264,1,90,0|0,3:2|3:0,0:0:0:0:
512,168,19751,2,0,L|412:152,1,90,8|0,0:0|0:0,0:0:0:0:
200,40,20104,6,0,P|144:64|56:92,1,135,2|0,3:2|0:0,0:0:0:0:
56,80,20457,1,8,0:0:0:0:
160,164,20634,2,0,L|144:228,1,45,0|0,0:0|0:0,0:0:0:0:
124,284,20810,1,0,3:0:0:0:
264,236,20987,1,2,3:2:0:0:
32,176,21163,1,8,0:0:0:0:
116,308,21339,1,0,0:0:0:0:
256,132,21516,5,2,3:2:0:0:
344,336,21692,1,2,3:2:0:0:
149,207,21869,1,8,0:0:0:0:
384,192,22045,1,2,3:2:0:0:
228,360,22222,5,0,3:0:0:0:
228,360,22310,1,0,0:0:0:0:
228,360,22398,2,0,P|220:316|216:292,1,45,0|8,3:0|0:0,0:0:0:0:
352,216,22575,2,0,L|296:236,1,45,6|0,0:0|0:0,0:0:0:0:
149,207,22751,2,0,L|205:187,1,45,0|0,0:0|0:0,0:0:0:0:
280,92,22928,6,0,B|336:80|336:80|380:100|380:100|444:88,2,161.999995056153,2|0|0,0:0|0:0|0:0,0:0:0:0:
84,92,24339,6,0,P|68:144|64:216,1,107.999996704102,2|0,0:0|0:0,0:0:0:0:
136,272,24869,2,0,P|151:221|156:167,1,107.999996704102
44,292,25398,1,10,0:2:0:0:
432,192,25751,6,0,B|452:244|452:244|416:368,1,180,6|8,3:2|0:0,0:0:0:0:
256,264,26281,1,0,0:0:0:0:
256,264,26369,1,0,0:0:0:0:
256,264,26457,2,0,L|360:248,1,90,2|0,3:2|3:0,0:0:0:0:
220,116,26810,2,0,L|116:132,1,90,8|0,0:0|0:0,0:0:0:0:
356,64,27163,5,2,3:2:0:0:
432,192,27339,1,0,3:0:0:0:
488,8,27516,1,8,0:0:0:0:
344,88,27692,1,0,0:0:0:0:
344,88,27781,1,0,0:0:0:0:
344,88,27869,2,0,L|324:184,1,90,2|0,3:2|3:0,0:0:0:0:
456,364,28222,2,0,L|400:352,1,45,8|0,0:0|0:0,0:0:0:0:
304,288,28398,1,0,0:0:0:0:
304,288,28487,1,8,0:0:0:0:
308,292,28575,6,0,P|236:284|168:348,2,161.999995056153,6|0|0,3:2|0:0|0:0,0:0:0:0:
256,368,29810,1,0,0:0:0:0:
132,256,29987,6,0,P|116:208|100:152,1,107.999996704102,2|0,0:0|0:0,0:0:0:0:
236,68,30516,2,0,P|220:116|204:172,1,107.999996704102,0|0,0:0|3:0,0:0:0:0:
132,64,31045,1,10,0:0:0:0:
320,152,31222,1,0,0:0:0:0:
320,152,31310,1,0,0:0:0:0:
320,152,31398,6,0,B|374:181|374:181|436:176|492:152,1,180,6|8,3:2|0:0,0:0:0:0:
316,256,31928,2,0,P|264:272|224:288,1,90,0|0,0:0|3:0,0:0:0:0:
400,336,32281,1,0,3:0:0:0:
400,180,32457,2,0,L|424:72,1,90,8|0,0:0|0:0,0:0:0:0:
203,15,32810,6,0,L|179:123,1,90,2|0,3:2|3:0,0:0:0:0:
137,253,33163,1,8,0:0:0:0:
9,181,33339,2,0,P|50:173|113:163,1,90,0|0,0:0|3:0,0:0:0:0:
316,57,33692,1,0,0:0:0:0:
302,70,33781,1,8,0:0:0:0:
290,84,33869,2,0,L|279:130,1,45,8|0,0:0|0:0,0:0:0:0:
311,341,34045,2,0,L|322:295,1,45,0|8,0:0|0:0,0:0:0:0:
380,231,34222,6,0,B|338:205|338:205|271:208|218:268,1,180,6|8,3:2|0:0,0:0:0:0:
465,305,34751,1,0,0:0:0:0:
465,305,34839,1,0,0:0:0:0:
465,305,34928,2,0,P|482:253|485:198,1,90,2|0,3:2|3:0,0:0:0:0:
416,80,35281,1,8,0:0:0:0:
288,176,35457,1,0,3:0:0:0:
288,176,35545,1,0,0:0:0:0:
288,176,35634,6,0,L|194:157,1,90,2|0,3:2|0:0,0:0:0:0:
53,45,35987,1,8,0:0:0:0:
147,236,36163,1,0,0:0:0:0:
147,236,36251,1,0,0:0:0:0:
147,236,36339,1,0,3:0:0:0:
288,176,36516,1,2,3:2:0:0:
42,69,36692,1,8,0:0:0:0:
140,259,36869,1,0,0:0:0:0:
157,33,37045,6,0,B|119:144|119:144|42:181,1,180,2|8,3:2|0:0,0:0:0:0:
47,366,37575,1,0,0:0:0:0:
47,366,37663,1,0,0:0:0:0:
47,366,37751,2,0,L|137:345,1,90,2|0,3:2|3:0,0:0:0:0:
334,187,38104,1,8,0:0:0:0:
236,363,38281,1,0,3:0:0:0:
236,363,38370,1,0,0:0:0:0:
236,363,38457,6,0,P|223:313|221:255,1,90,2|0,3:2|0:2,0:0:0:0:
308,64,38810,1,8,0:0:0:0:
361,160,38987,1,8,0:0:0:0:
348,174,39075,1,0,0:0:0:0:
334,187,39163,2,0,P|289:176|241:169,1,90,2|0,3:2|3:0,0:0:0:0:
412,16,39516,1,8,0:0:0:0:
489,112,39692,1,0,0:0:0:0:
489,112,39781,1,0,0:0:0:0:
489,112,39869,6,0,L|444:289,1,180,2|8,3:2|0:0,0:0:0:0:
227,323,40398,1,0,0:0:0:0:
227,323,40487,1,8,0:0:0:0:
227,323,40575,1,2,3:2:0:0:
354,202,40751,1,0,3:0:0:0:
412,367,40928,1,8,0:0:0:0:
249,218,41104,1,0,0:0:0:0:
249,218,41192,1,0,0:0:0:0:
249,218,41281,6,0,P|236:152|232:115,1,90,2|0,3:2|3:0,0:0:0:0:
302,28,41634,1,8,0:0:0:0:
484,124,41810,1,2,0:0:0:0:
484,124,41898,1,0,0:0:0:0:
484,124,41987,2,0,L|380:104,1,90,0|2,3:0|3:2,0:0:0:0:
112,251,42339,2,0,P|169:211|242:204,1,135,8|0,0:0|0:0,0:0:0:0:
249,218,42692,5,6,3:2:0:0:
127,49,42869,1,8,0:0:0:0:
293,104,43045,1,8,0:0:0:0:
92,154,43222,5,6,3:2:0:0:
193,129,43398,1,0,0:0:0:0:
88,329,43575,1,8,0:0:0:0:
36,81,43751,5,6,3:2:0:0:
249,218,43928,1,8,0:0:0:0:
367,16,44104,5,6,3:2:0:0:
503,191,44281,2,0,B|443:179|443:179|391:200|391:200|314:179,1,180,8|0,3:2|0:3,0:0:0:0:
239,32,44810,1,8,0:0:0:0:
427,141,44987,1,0,3:0:0:0:
249,218,45163,1,8,0:0:0:0:
321,100,45339,2,0,L|310:148,1,45,2|0,0:0|0:0,0:0:0:0:
207,304,45536,6,0,P|138:249|26:265,1,188.999994232178,6|0,3:2|3:0,0:0:0:0:
169,172,46242,1,8,0:0:0:0:
81,86,46418,2,0,P|87:145|93:169,1,62.9999980773926,0|0,0:0|0:0,0:0:0:0:
273,116,46771,1,0,0:0:0:0:
273,116,46859,1,0,0:0:0:0:
273,116,46948,6,0,L|208:100,1,62.9999980773926,2|8,3:2|0:0,0:0:0:0:
271,21,47301,2,0,L|336:37,1,62.9999980773926,0|0,0:0|3:0,0:0:0:0:
471,157,47654,2,0,P|418:188|342:173,1,125.999996154785,8|0,0:0|0:0,0:0:0:0:
245,330,48183,1,0,0:0:0:0:
245,330,48271,1,0,0:0:0:0:
245,330,48359,1,2,3:2:0:0:
246,232,48536,6,0,B|325:237|281:264|366:266,1,125.999996154785,0|0,3:0|3:0,0:0:0:0:
245,330,49065,2,0,P|210:343|174:357,1,62.9999980773926,8|0,0:0|0:0,0:0:0:0:
98,290,49418,2,0,P|133:277|169:263,1,62.9999980773926,0|0,0:0|3:0,0:0:0:0:
229,108,49771,5,2,3:2:0:0:
175,183,49948,2,0,P|121:150|55:160,1,125.999996154785,8|0,0:0|0:0,0:0:0:0:
246,232,50477,1,8,0:0:0:0:
324,113,50654,2,0,L|304:189,1,62.9999980773926,0|0,0:0|0:0,0:0:0:0:
273,321,51007,1,0,0:0:0:0:
273,321,51095,1,0,0:0:0:0:
273,321,51183,1,2,3:2:0:0:
337,254,51359,6,0,L|471:285,1,125.999996154785,0|0,0:0|3:0,0:0:0:0:
273,321,51889,1,8,0:0:0:0:
182,298,52065,2,0,P|163:242|173:178,1,125.999996154785,0|0,0:0|3:0,0:0:0:0:
312,36,52595,5,2,3:2:0:0:
254,104,52771,1,8,0:0:0:0:
168,84,52948,2,0,L|101:73,1,62.9999980773926,0|0,3:0|3:0,0:0:0:0:
19,191,53301,2,0,L|86:202,1,62.9999980773926,8|0,0:0|3:0,0:0:0:0:
168,368,53654,1,8,0:0:0:0:
182,274,53830,1,0,0:0:0:0:
182,274,53918,1,0,0:0:0:0:
182,274,54007,6,0,P|121:280|75:337,1,125.999996154785,2|0,3:2|0:0,0:0:0:0:
260,328,54536,1,0,3:0:0:0:
331,267,54712,2,0,P|325:230|319:202,1,62.9999980773926,8|0,0:0|0:0,0:0:0:0:
271,138,55065,1,0,0:0:0:0:
379,41,55242,1,0,0:0:0:0:
379,41,55330,1,0,0:0:0:0:
379,41,55418,1,2,3:2:0:0:
281,46,55595,6,0,P|216:44|167:-2,1,125.999996154785,8|0,0:0|3:0,0:0:0:0:
55,66,56124,1,8,0:0:0:0:
102,132,56301,1,0,3:0:0:0:
41,193,56477,2,0,L|31:269,1,62.9999980773926,0|0,0:0|0:0,0:0:0:0:
296,360,56830,5,6,3:2:0:0:
296,360,56918,1,0,0:0:0:0:
296,360,57007,2,8,L|347:351,1,45,8|8,0:0|0:0,0:0:0:0:
452,234,57183,1,10,3:2:0:0:
452,234,57271,1,0,0:0:0:0:
452,234,57360,2,8,L|401:243,1,45,8|8,0:0|0:0,0:0:0:0:
309,217,57536,5,10,3:2:0:0:
309,217,57624,1,0,0:0:0:0:
309,217,57713,2,8,L|319:270,1,45,8|8,0:0|0:0,0:0:0:0:
436,378,57889,1,10,3:2:0:0:
436,378,57977,1,0,0:0:0:0:
436,378,58066,2,8,L|426:325,1,45,8|8,0:0|0:0,0:0:0:0:
395,154,58242,5,6,3:2:0:0:
350,160,58330,1,0,0:0:0:0:
311,182,58418,1,8,0:0:0:0:
284,218,58506,1,8,0:0:0:0:
256,252,58594,1,8,0:0:0:0:
215,270,58683,1,8,0:0:0:0:
170,274,58771,1,8,0:0:0:0:
127,260,58859,1,8,0:0:0:0:
91,233,58948,6,0,L|75:288,1,45,2|0,3:2|0:0,0:0:0:0:
56,152,59123,1,0,0:0:0:0:
60,108,59212,1,8,0:0:0:0:
80,68,59300,1,8,0:0:0:0:
111,36,59388,1,8,0:0:0:0:
152,17,59476,1,8,0:0:0:0:
197,13,59565,1,8,0:0:0:0:
240,24,59654,6,0,P|259:73|262:87,1,45,6|0,3:2|0:0,0:0:0:0:
186,181,59830,1,8,0:0:0:0:
186,181,59918,1,8,0:0:0:0:
186,181,60007,2,0,P|167:132|164:118,1,45,10|0,3:2|0:0,0:0:0:0:
371,43,60183,1,8,0:0:0:0:
371,43,60271,1,8,0:0:0:0:
371,43,60359,6,0,L|426:51,1,45,2|0,3:2|0:0,0:0:0:0:
346,164,60536,2,0,L|291:156,1,45,8|8,0:0|0:0,0:0:0:0:
453,133,60712,6,0,L|508:141,1,45,10|0,3:2|0:0,0:0:0:0:
424,273,60889,2,8,L|369:265,1,45,8|8,0:0|0:0,0:0:0:0:
239,372,61065,5,2,3:2:0:0:
200,331,61153,1,8,0:0:0:0:
150,306,61241,1,8,0:0:0:0:
94,299,61329,1,8,0:0:0:0:
39,311,61418,6,0,L|26:366,1,45,12|0,0:0|0:0,0:0:0:0:
394,169,62124,5,10,3:2:0:0:
394,169,62477,6,0,L|375:258,1,90,6|0,3:2|0:0,0:0:0:0:
294,345,62830,1,8,0:0:0:0:
182,286,63007,1,0,0:0:0:0:
182,286,63095,1,0,0:0:0:0:
182,286,63183,2,0,L|92:305,1,90,2|0,3:2|3:0,0:0:0:0:
39,178,63536,2,0,L|129:159,1,90,8|0,0:0|0:0,0:0:0:0:
330,25,63889,6,0,L|301:168,1,135,2|0,3:2|0:0,0:0:0:0:
300,175,64242,1,8,0:0:0:0:
359,360,64418,1,0,0:0:0:0:
410,154,64595,1,0,3:2:0:0:
280,278,64771,1,0,3:0:0:0:
488,232,64948,2,0,L|464:328,1,90,8|0,0:0|0:0,0:0:0:0:
208,124,65301,6,0,P|144:136|58:157,1,135,2|0,3:2|0:0,0:0:0:0:
68,156,65654,1,8,0:0:0:0:
178,303,65830,1,2,0:0:0:0:
178,303,65918,1,0,0:0:0:0:
178,303,66007,2,0,P|190:250|198:208,1,90,2|0,3:2|3:0,0:0:0:0:
148,0,66359,2,0,P|136:53|128:95,1,90,8|0,0:0|0:0,0:0:0:0:
288,184,66712,1,2,3:2:0:0:
405,70,66889,6,0,L|304:91,1,90,2|8,0:0|0:0,0:0:0:0:
268,284,67242,1,0,0:0:0:0:
268,284,67330,1,0,0:0:0:0:
268,284,67418,1,2,3:2:0:0:
389,202,67595,1,0,3:0:0:0:
227,89,67772,1,8,0:0:0:0:
322,355,67948,1,8,0:0:0:0:
307,365,68036,1,8,0:0:0:0:
291,373,68124,6,0,L|129:345,1,135,6|0,0:0|0:0,0:0:0:0:
103,291,68477,2,0,P|50:310|13:324,1,90,8|0,0:0|0:0,0:0:0:0:
113,73,68830,1,2,3:2:0:0:
190,230,69007,1,0,3:0:0:0:
20,192,69183,2,0,L|115:166,1,90,8|0,0:0|0:0,0:0:0:0:
366,232,69536,6,0,P|389:164|381:95,1,135,2|0,3:2|0:0,0:0:0:0:
327,49,69889,2,0,L|235:69,1,90,8|2,0:0|0:0,0:0:0:0:
366,232,70242,2,0,L|458:212,1,90,2|0,3:2|3:0,0:0:0:0:
288,159,70595,1,8,0:0:0:0:
211,340,70771,1,0,0:0:0:0:
211,340,70859,1,0,0:0:0:0:
211,340,70948,6,0,P|197:262|182:191,1,135,2|0,3:2|0:0,0:0:0:0:
181,182,71301,1,8,0:0:0:0:
73,238,71477,1,0,3:0:0:0:
73,238,71565,1,0,3:0:0:0:
73,238,71654,1,2,3:2:0:0:
216,100,71831,1,0,3:0:0:0:
36,59,72007,1,12,0:0:0:0:
217,275,72183,1,0,0:0:0:0:
217,275,72271,1,0,0:0:0:0:
217,275,72359,6,0,L|309:248,1,90,2|0,3:2|3:0,0:0:0:0:
503,126,72712,2,0,P|469:135|454:139,1,45,12|0,0:0|0:0,0:0:0:0:
374,108,72889,1,8,0:0:0:0:
374,108,72977,1,8,0:0:0:0:
374,108,73065,2,0,L|393:205,1,90,2|0,3:2|0:0,0:0:0:0:
449,27,73418,1,8,0:0:0:0:
274,71,73595,1,0,0:0:0:0:
274,71,73683,1,8,0:0:0:0:
274,71,73771,6,0,B|234:110|234:110|171:116|107:68,1,180,6|8,3:2|0:0,0:0:0:0:
15,197,74301,1,0,0:0:0:0:
15,197,74389,1,0,0:0:0:0:
15,197,74477,2,0,L|114:179,1,90,2|0,3:2|0:0,0:0:0:0:
229,327,74830,2,0,L|130:345,1,90,8|0,0:0|0:0,0:0:0:0:
214,168,75183,5,2,3:2:0:0:
324,284,75359,1,0,0:0:0:0:
370,56,75536,1,8,0:0:0:0:
200,184,75712,1,0,0:0:0:0:
200,184,75801,1,0,0:0:0:0:
200,184,75889,2,0,L|295:165,1,90,2|0,3:2|3:0,0:0:0:0:
512,84,76242,1,8,0:0:0:0:
370,56,76418,1,0,0:0:0:0:
370,56,76507,1,0,0:0:0:0:
370,56,76595,6,0,P|410:122|400:207,1,135,2|0,3:2|0:0,0:0:0:0:
404,198,76948,1,8,0:0:0:0:
288,166,77124,1,8,0:0:0:0:
288,166,77212,1,8,0:0:0:0:
288,166,77301,1,2,3:2:0:0:
323,360,77477,1,4,3:2:0:0:
489,259,77654,2,0,P|499:208|504:164,1,90,8|0,0:0|0:0,0:0:0:0:
370,56,78007,6,0,L|276:73,1,90,2|4,3:2|0:0,0:0:0:0:
83,158,78359,1,8,0:0:0:0:
195,12,78536,1,0,0:0:0:0:
195,12,78624,1,0,0:0:0:0:
195,12,78712,1,2,3:2:0:0:
260,194,78889,1,0,0:0:0:0:
56,140,79065,2,0,L|150:123,1,90,8|0,0:0|0:0,0:0:0:0:
490,91,79418,6,0,P|455:61|362:58,1,135,6|0,0:0|0:0,0:0:0:0:
357,60,79771,1,8,0:0:0:0:
340,256,79948,1,0,0:0:0:0:
340,256,80036,1,0,0:0:0:0:
340,256,80124,2,0,P|357:210|370:160,1,90,2|0,3:2|3:0,0:0:0:0:
229,16,80477,2,0,P|240:59|256:101,1,90,8|0,0:0|0:0,0:0:0:0:
426,279,80830,6,0,L|330:253,1,90,2|0,3:2|0:0,0:0:0:0:
153,204,81183,1,8,0:0:0:0:
257,365,81359,1,0,0:0:0:0:
245,351,81448,1,0,0:0:0:0:
236,335,81536,2,0,P|249:268|267:190,1,135,2|0,3:2|0:0,0:0:0:0:
270,183,81889,1,8,0:0:0:0:
436,99,82065,1,8,0:0:0:0:
436,99,82154,1,8,0:0:0:0:
436,99,82242,6,0,L|348:114,1,90,6|0,3:2|0:0,0:0:0:0:
153,204,82595,2,0,L|64:189,1,90,8|0,0:0|0:0,0:0:0:0:
197,106,82948,1,2,3:2:0:0:
362,215,83124,1,0,3:0:0:0:
366,24,83301,1,8,0:0:0:0:
270,183,83477,1,8,0:0:0:0:
270,183,83565,1,8,0:0:0:0:
270,183,83654,6,0,L|246:281,1,90,2|0,3:2|3:0,0:0:0:0:
230,342,83918,1,8,0:0:0:0:
227,358,84007,1,0,3:0:0:0:
111,288,84183,1,8,0:0:0:0:
111,288,84271,1,8,0:0:0:0:
111,288,84359,2,0,L|21:304,1,90,2|0,3:2|3:0,0:0:0:0:
208,77,84712,1,4,0:0:0:0:
239,299,84889,2,0,L|227:348,1,45,0|8,3:0|0:0,0:0:0:0:
69,181,85065,6,0,B|121:190|121:190|156:174|156:174|202:182|241:219,1,180,2|8,3:2|0:0,0:0:0:0:
106,90,85595,2,0,P|94:29|92:-6,1,90,2|0,0:0|3:0,0:0:0:0:
235,214,85948,2,0,P|230:258|221:302,1,90,0|8,3:0|0:0,0:0:0:0:
208,77,86301,1,0,0:0:0:0:
208,77,86389,1,0,0:0:0:0:
208,77,86477,6,0,L|301:63,1,90,2|0,3:2|3:0,0:0:0:0:
495,95,86830,1,8,0:0:0:0:
411,21,87007,2,0,P|394:93|391:124,1,90,2|0,0:0|3:0,0:0:0:0:
436,350,87359,1,0,3:0:0:0:
442,333,87448,1,0,0:0:0:0:
448,316,87536,2,0,P|465:244|468:213,1,90,8|0,0:0|0:0,0:0:0:0:
397,190,87801,1,8,0:0:0:0:
397,190,87889,6,0,L|292:208,1,90,2|0,3:2|0:0,0:0:0:0:
96,56,88242,2,0,L|201:38,1,90,8|0,0:0|0:0,0:0:0:0:
336,60,88595,1,10,3:2:0:0:
160,176,88771,1,0,3:0:0:0:
308,205,88948,1,8,0:0:0:0:
192,49,89124,1,0,3:0:0:0:
192,49,89212,1,0,0:0:0:0:
192,49,89301,5,6,0:0:0:0:
284,336,89477,1,0,3:0:0:0:
336,60,89654,1,10,0:0:0:0:
130,304,89830,1,0,3:0:0:0:
428,368,90007,5,10,0:0:0:0:
308,205,90183,1,10,0:0:0:0:
308,205,90271,1,8,0:0:0:0:
308,205,90359,2,0,L|364:195,1,45,0|0,3:2|0:0,0:0:0:0:
477,106,90536,2,0,L|432:113,1,45,0|8,3:0|0:0,0:0:0:0:
336,60,90692,5,6,0:0:0:0:
25,179,91044,1,0,0:0:0:0:
25,179,91221,2,0,P|77:147|147:153,1,125.999996154785,10|0,0:0|0:0,0:0:0:0:
192,82,91750,2,0,P|187:43|177:15,1,62.9999980773926,2|0,3:2|0:0,0:0:0:0:
139,150,92103,5,0,3:0:0:0:
139,150,92280,2,0,P|117:210|110:293,1,125.999996154785,8|0,0:0|3:0,0:0:0:0:
229,326,92809,1,8,0:0:0:0:
318,275,92986,1,0,0:0:0:0:
234,238,93162,1,0,3:0:0:0:
314,361,93338,1,0,0:0:0:0:
314,361,93427,1,0,0:0:0:0:
314,361,93515,6,0,B|359:351|359:351|390:362|390:362|441:353,1,125.999996154785,2|0,3:2|0:0,0:0:0:0:
337,215,94044,2,0,L|316:280,1,62.9999980773926,2|0,0:0|0:0,0:0:0:0:
306,72,94397,1,0,3:0:0:0:
368,135,94574,2,0,P|430:139|481:87,1,125.999996154785,8|0,0:0|0:0,0:0:0:0:
306,72,95103,1,0,0:0:0:0:
224,105,95280,2,0,L|151:125,1,62.9999980773926,4|0,0:0|0:0,0:0:0:0:
26,156,95633,5,8,3:2:0:0:
36,143,95986,5,8,3:2:0:0:
46,129,96339,6,0,L|8:283,1,135,6|0,3:2|0:0,0:0:0:0:
13,278,96691,1,8,0:0:0:0:
209,201,96868,1,0,0:0:0:0:
158,358,97044,1,2,3:2:0:0:
105,251,97221,1,0,3:0:0:0:
105,251,97309,1,0,0:0:0:0:
105,251,97397,1,8,0:0:0:0:
242,298,97574,6,0,L|337:277,1,90,2|2,0:0|3:2,0:0:0:0:
378,82,97927,2,0,P|350:133|346:171,1,90,0|8,0:0|0:0,0:0:0:0:
511,252,98280,2,0,L|416:231,1,90,0|2,0:0|3:2,0:0:0:0:
329,278,98633,1,0,3:0:0:0:
254,120,98809,2,0,L|166:139,1,90,8|0,0:0|0:0,0:0:0:0:
56,360,99162,6,0,P|108:320|188:320,1,135,2|0,3:2|0:0,0:0:0:0:
192,328,99515,1,8,0:0:0:0:
32,252,99691,1,0,0:0:0:0:
32,252,99780,1,0,0:0:0:0:
32,252,99868,2,0,P|16:196|16:164,1,90,2|0,3:2|3:0,0:0:0:0:
167,26,100221,1,8,0:0:0:0:
108,192,100397,1,2,0:0:0:0:
12,68,100574,6,0,L|112:104,1,90,2|0,3:2|0:0,0:0:0:0:
200,208,100927,1,8,0:0:0:0:
270,64,101103,2,0,P|290:120|290:164,1,90,0|2,0:0|3:2,0:0:0:0:
144,328,101456,1,0,3:0:0:0:
344,248,101633,1,8,0:0:0:0:
192,180,101809,1,8,0:0:0:0:
260,348,101986,6,0,B|324:336|324:336|364:352|364:352|436:340,1,180,6|8,3:2|0:0,0:0:0:0:
344,248,102515,1,0,0:0:0:0:
476,144,102691,1,2,3:2:0:0:
356,108,102868,1,0,3:0:0:0:
488,264,103044,1,8,0:0:0:0:
336,136,103221,6,0,L|360:32,1,90,2|2,0:0|3:2,0:0:0:0:
224,165,103574,2,0,L|200:269,1,90,0|8,0:0|0:0,0:0:0:0:
122,49,103927,2,0,L|218:25,1,90,0|0,0:0|3:2,0:0:0:0:
120,168,104280,1,0,3:0:0:0:
120,168,104368,1,0,0:0:0:0:
120,168,104456,2,0,L|24:192,1,90,8|0,0:0|0:0,0:0:0:0:
160,332,104809,6,0,P|232:332|288:292,1,135,2|0,3:2|0:0,0:0:0:0:
292,280,105162,1,8,0:0:0:0:
438,371,105338,1,0,0:0:0:0:
415,200,105515,2,0,L|387:300,1,90,0|2,3:0|3:2,0:0:0:0:
328,32,105868,1,8,0:0:0:0:
484,96,106044,1,0,0:0:0:0:
480,112,106133,1,8,0:0:0:0:
476,128,106221,6,0,L|384:100,1,90,8|0,0:0|3:0,0:0:0:0:
161,191,106574,2,0,L|145:127,1,45,4|0,3:2|0:0,0:0:0:0:
239,61,106750,2,0,L|255:125,1,45
165,218,106927,5,0,3:0:0:0:
236,32,107103,1,0,3:0:0:0:
73,130,107280,1,8,0:0:0:0:
208,304,107456,1,8,0:0:0:0:
208,304,107544,1,8,0:0:0:0:
208,304,107633,6,0,P|148:264|64:276,1,135,2|0,3:2|0:0,0:0:0:0:
68,284,107986,1,12,0:0:0:0:
260,216,108162,1,0,0:0:0:0:
72,160,108338,2,0,P|60:104|60:56,1,90,0|0,3:0|3:0,0:0:0:0:
188,8,108691,2,0,P|176:64|176:112,1,90,8|2,0:0|0:2,0:0:0:0:
260,216,109044,5,0,3:0:0:0:
392,136,109221,1,2,3:2:0:0:
260,64,109397,1,8,0:0:0:0:
399,243,109574,1,2,0:0:0:0:
399,243,109662,1,0,0:0:0:0:
399,243,109750,2,0,L|423:147,1,90,0|0,3:0|3:0,0:0:0:0:
264,196,110103,2,0,L|240:292,1,90,10|0,0:0|3:0,0:0:0:0:
225,358,110368,1,0,3:0:0:0:
221,374,110456,5,0,3:0:0:0:
102,203,110633,2,0,L|85:261,1,45,0|0,3:0|0:0,0:0:0:0:
188,159,110809,6,0,B|123:151|123:151|78:172|78:172|3:157,1,180,14|0,0:0|3:0,0:0:0:0:
184,50,111338,1,2,3:2:0:0:
184,50,111427,1,0,0:0:0:0:
184,50,111515,1,8,0:0:0:0:
286,90,111691,6,0,L|300:184,1,90,2|0,0:0|3:0,0:0:0:0:
223,344,112044,2,0,L|209:255,1,90,2|8,3:2|0:0,0:0:0:0:
387,126,112397,1,2,0:0:0:0:
457,313,112574,2,0,P|397:291|315:279,1,135,0|0,3:0|0:0,0:0:0:0:
312,293,112927,1,8,0:0:0:0:
489,176,113103,1,0,3:0:0:0:
273,60,113280,6,0,L|281:120,1,45,0|0,3:0|0:0,0:0:0:0:
387,201,113456,2,0,L|379:141,1,45,0|0,3:0|0:0,0:0:0:0:
249,35,113633,6,0,L|257:136,1,90,14|0,0:0|0:0,0:0:0:0:
93,210,113986,1,0,3:0:0:0:
152,110,114162,1,2,3:2:0:0:
226,304,114338,1,8,0:0:0:0:
74,238,114515,1,2,0:0:0:0:
74,238,114603,1,0,0:0:0:0:
74,238,114691,6,0,L|175:214,1,90,0|2,3:0|3:2,0:0:0:0:
351,134,115044,1,8,0:0:0:0:
414,212,115221,2,0,L|386:309,1,90,2|0,0:0|3:0,0:0:0:0:
241,354,115574,1,0,3:0:0:0:
241,354,115662,1,0,0:0:0:0:
241,354,115750,2,0,L|269:257,1,90,8|0,0:0|3:0,0:0:0:0:
325,54,116103,5,8,0:0:0:0:
161,217,116280,1,0,3:0:0:0:
427,84,116456,1,8,0:0:0:0:
219,25,116633,1,0,3:0:0:0:
374,289,116809,5,10,0:0:0:0:
192,119,116986,1,0,0:0:0:0:
427,84,117162,1,0,3:0:0:0:
299,148,117338,5,0,0:0:0:0:
299,148,117427,1,8,0:0:0:0:
299,148,117515,2,0,L|281:219,1,45,8|0,0:0|0:0,0:0:0:0:
179,329,117691,5,0,0:0:0:0:
179,329,117780,1,8,0:0:0:0:
179,329,117868,2,0,L|161:258,1,45,8|0,0:0|0:0,0:0:0:0:
39,159,118045,1,0,0:0:0:0:
36,177,118133,1,0,3:0:0:0:
32,195,118221,6,0,L|81:181,1,45,0|0,3:0|0:0,0:0:0:0:
135,63,118397,2,0,L|114:127,1,45,0|0,0:0|3:0,0:0:0:0:
187,202,118574,2,0,L|220:96,1,90,0|0,3:0|0:0,0:0:0:0:
236,44,118838,1,0,0:0:0:0:
241,30,118927,5,4,0:0:0:0:
