osu file format v14

[General]
AudioFilename: audio.mp3
AudioLeadIn: 0
PreviewTime: 61628
Countdown: 0
SampleSet: Soft
StackLeniency: 0.4
Mode: 0
LetterboxInBreaks: 0
WidescreenStoryboard: 0

[Editor]
DistanceSpacing: 0.5
BeatDivisor: 4
GridSize: 4
TimelineZoom: 2

[Metadata]
Title:Marathon
TitleUnicode:マラソン
Artist:Hanazawa Kana
ArtistUnicode:花澤香菜
Creator:Sotarks
Version:Insane
Source:
Tags:pkhg appleeaterx akitoshi corinn
BeatmapID:1462837
BeatmapSetID:691239

[Difficulty]
HPDrainRate:6
CircleSize:3.7
OverallDifficulty:7.5
ApproachRate:9
SliderMultiplier:1.72
SliderTickRate:2

[Events]
//Background and Video events
0,0,"BG.jpg",0,0
//Break Periods
//Storyboard Layer 0 (Background)
//Storyboard Layer 1 (Fail)
//Storyboard Layer 2 (Pass)
//Storyboard Layer 3 (Foreground)
//Storyboard Sound Samples

[TimingPoints]
340,352.941176470588,4,2,1,75,1,0
10928,-100,4,2,1,48,0,0
11634,-100,4,2,1,70,0,0
11898,-100,4,2,1,15,0,0
11987,-100,4,2,1,70,0,0
14722,-100,4,2,1,15,0,0
14810,-100,4,2,1,70,0,0
17545,-100,4,2,1,15,0,0
17634,-100,4,2,1,70,0,0
20369,-100,4,2,1,15,0,0
20457,-100,4,2,1,70,0,0
22928,-166.666666666667,4,2,1,40,0,0
25751,-100,4,2,1,70,0,0
28575,-166.666666666667,4,2,1,40,0,0
31398,-100,4,2,1,70,0,0
42604,-100,4,2,1,15,0,0
42692,-100,4,2,1,70,0,0
45536,352.941176470588,4,2,1,60,1,0
45536,-142.857142857143,4,2,1,60,0,0
56830,-100,4,2,1,55,0,0
58242,-100,4,2,1,60,0,0
59654,-100,4,2,1,65,0,0
61507,-100,4,2,1,15,0,0
62124,-200,4,2,1,60,0,0
62477,-100,4,2,1,75,0,1
64154,-100,4,2,1,20,0,1
64242,-100,4,2,1,75,0,1
65565,-100,4,2,1,20,0,1
65654,-100,4,2,1,75,0,1
68389,-100,4,2,1,20,0,1
68477,-100,4,2,1,75,0,1
69801,-100,4,2,1,20,0,1
69889,-100,4,2,1,75,0,1
71212,-100,4,2,1,20,0,1
71301,-100,4,2,1,75,0,1
76859,-100,4,2,1,20,0,1
76948,-100,4,2,1,75,0,1
79683,-100,4,2,1,20,0,1
79771,-100,4,2,1,75,0,1
81801,-100,4,2,1,20,0,1
81889,-100,4,2,1,75,0,1
90692,352.941176470588,4,2,1,55,1,0
90692,-142.857142857143,4,2,1,55,0,0
96339,-100,4,2,1,55,0,0
106839,-100,4,2,1,5,0,0
106928,-100,4,2,1,75,0,0
107633,-142.857142857143,4,2,1,75,0,0
107898,-142.857142857143,4,2,1,5,0,0
107986,-71.4285714285714,4,2,1,75,0,0
108251,-71.4285714285714,4,2,1,5,0,0
108338,-90.9090909090909,4,2,1,75,0,0
110809,-71.4285714285714,4,2,1,75,0,0
111162,-90.9090909090909,4,2,1,75,0,0
113633,-71.4285714285714,4,2,1,75,0,0
113986,-90.9090909090909,4,2,1,75,0,0
116809,-71.4285714285714,4,2,1,75,0,0
117868,-100,4,2,1,65,0,0
118221,-142.857142857143,4,2,1,45,0,0
118574,-200,4,2,1,35,0,0
118927,-200,4,2,1,40,0,0

[Colours]
Combo1 : 254,227,199
Combo2 : 192,192,192
Combo3 : 255,149,202
Combo4 : 147,201,255

[HitObjects]
132,128,10928,6,0,L|208:116,1,43,8|8,0:0|0:0,0:0:0:0:
248,72,11104,2,0,L|290:78,1,43,8|8,0:0|0:0,0:0:0:0:
360,136,11281,1,8,0:0:0:0:
361,157,11369,1,8,0:0:0:0:
362,178,11457,1,8,0:0:0:0:
363,200,11545,1,8,0:0:0:0:
365,221,11634,6,0,B|293:217|321:277|205:253,1,129,6|0,3:2|0:0,0:0:0:0:
224,244,11987,2,0,P|152:232|128:232,1,86,8|0,0:0|0:0,0:0:0:0:
252,168,12339,1,2,3:2:0:0:
252,168,12516,1,0,3:0:0:0:
365,303,12692,1,8,0:0:0:0:
327,142,12869,6,0,P|331:86|348:49,1,86,2|2,0:0|3:2,0:0:0:0:
410,237,13222,1,0,0:0:0:0:
410,237,13310,1,0,0:0:0:0:
410,237,13398,1,8,0:0:0:0:
512,127,13575,2,0,P|508:71|491:34,1,86,0|2,0:0|3:2,0:0:0:0:
340,37,13928,1,0,3:0:0:0:
484,206,14104,2,0,L|494:312,1,86,8|0,0:0|0:0,0:0:0:0:
337,190,14457,6,0,P|270:177|183:180,1,129,2|0,3:2|0:0,0:0:0:0:
188,192,14810,2,0,P|133:201|85:200,1,86,8|0,0:0|0:0,0:0:0:0:
12,104,15163,1,2,3:2:0:0:
12,104,15339,1,0,3:0:0:0:
40,263,15516,1,8,0:0:0:0:
138,69,15692,6,0,L|238:43,1,86,2|2,0:0|3:2,0:0:0:0:
358,122,16045,1,0,0:0:0:0:
358,122,16134,1,0,0:0:0:0:
358,122,16222,1,8,0:0:0:0:
186,169,16398,2,0,L|269:190,1,86,0|2,0:0|3:2,0:0:0:0:
338,37,16751,1,0,3:0:0:0:
376,199,16928,1,8,0:0:0:0:
483,328,17104,1,8,0:0:0:0:
458,316,17192,1,8,0:0:0:0:
426,313,17281,6,0,B|357:301|378:361|273:338,1,129,6|0,3:2|0:0,0:0:0:0:
274,330,17634,2,0,P|219:312|175:310,1,86,8|0,0:0|0:0,0:0:0:0:
317,258,17987,1,2,3:2:0:0:
317,258,18163,1,0,3:0:0:0:
156,232,18339,1,8,0:0:0:0:
238,88,18516,6,0,L|247:187,1,86,2|2,0:0|3:2,0:0:0:0:
191,309,18869,1,0,0:0:0:0:
191,309,18957,1,0,0:0:0:0:
191,309,19045,1,8,0:0:0:0:
163,146,19222,2,0,L|154:245,1,86,0|0,0:0|3:2,0:0:0:0:
81,111,19575,1,0,3:0:0:0:
29,326,19751,2,0,P|63:300|104:291,1,86,8|0,0:0|0:0,0:0:0:0:
274,199,20104,6,0,P|211:186|150:125,1,129,2|0,3:2|0:0,0:0:0:0:
158,123,20457,2,0,L|263:114,1,86,8|0,0:0|0:0,0:0:0:0:
385,56,20810,1,0,3:0:0:0:
385,56,20987,1,2,3:2:0:0:
353,213,21163,1,8,0:0:0:0:
281,35,21339,6,0,P|226:28|188:43,1,86,0|2,0:0|3:2,0:0:0:0:
250,192,21692,1,2,3:2:0:0:
250,192,21781,1,0,0:0:0:0:
250,192,21869,1,8,0:0:0:0:
141,123,22045,1,2,3:2:0:0:
312,142,22222,2,0,P|329:199|326:207,1,43,0|0,3:0|0:0,0:0:0:0:
260,296,22398,1,0,3:0:0:0:
227,290,22487,1,8,0:0:0:0:
196,283,22575,2,0,L|57:313,1,129,6|0,0:0|0:0,0:0:0:0:
50,327,22928,6,0,P|70:271|21:181,2,154.799995275879,2|0|0,0:0|0:0|0:0,0:0:0:0:
125,113,24339,2,0,P|199:99|249:99,1,103.199996850586,2|0,0:0|0:0,0:0:0:0:
290,178,24869,2,0,P|341:174|391:163,1,103.199996850586,0|0,0:0|0:0,0:0:0:0:
454,93,25398,1,10,0:2:0:0:
366,335,25751,6,0,B|321:304|321:304|194:341,1,172,6|8,3:2|0:0,0:0:0:0:
68,240,26281,1,0,0:0:0:0:
68,240,26369,1,0,0:0:0:0:
68,240,26457,2,0,L|169:249,1,86,2|0,3:2|3:0,0:0:0:0:
271,114,26810,2,0,L|170:123,1,86,8|0,0:0|0:0,0:0:0:0:
330,201,27163,5,2,3:2:0:0:
228,289,27339,1,0,3:0:0:0:
399,295,27516,1,8,0:0:0:0:
390,145,27692,1,0,0:0:0:0:
390,145,27781,1,0,0:0:0:0:
390,145,27869,2,0,L|379:42,1,86,2|0,3:2|3:0,0:0:0:0:
330,201,28222,2,0,L|278:189,1,43,8|0,0:0|0:0,0:0:0:0:
181,86,28398,1,0,0:0:0:0:
197,72,28487,1,8,0:0:0:0:
217,65,28575,6,0,L|202:226,2,154.799995275879,6|0|0,3:2|0:0|0:0,0:0:0:0:
300,27,29810,1,0,0:0:0:0:
401,98,29987,2,0,P|339:105|284:134,1,103.199996850586,2|0,0:0|0:0,0:0:0:0:
276,200,30516,2,0,P|338:207|393:236,1,103.199996850586,0|0,0:0|3:0,0:0:0:0:
427,299,31045,1,10,0:0:0:0:
278,351,31222,1,0,0:0:0:0:
278,351,31310,1,0,0:0:0:0:
278,351,31398,6,0,L|171:340,1,86,6|0,3:2|0:0,0:0:0:0:
72,276,31751,1,8,0:0:0:0:
218,128,31928,2,0,L|303:119,1,86,0|0,0:0|3:0,0:0:0:0:
401,206,32281,1,0,3:0:0:0:
193,205,32457,2,0,P|145:164|147:118,1,86,8|0,0:0|0:0,0:0:0:0:
328,45,32810,6,0,P|376:86|374:132,1,86,2|0,3:2|3:0,0:0:0:0:
281,209,33163,1,8,0:0:0:0:
161,61,33339,2,0,L|60:51,1,86,0|0,0:0|3:0,0:0:0:0:
17,198,33692,2,0,P|68:184|85:187,1,43,0|8,0:0|0:0,0:0:0:0:
148,202,33869,1,8,0:0:0:0:
246,351,34045,1,0,0:0:0:0:
235,325,34134,1,8,0:0:0:0:
235,294,34222,6,0,B|241:250|241:250|261:215|261:215|262:148,1,129,6|0,3:2|0:0,0:0:0:0:
255,152,34575,1,8,0:0:0:0:
357,236,34751,1,0,0:0:0:0:
357,236,34839,1,0,0:0:0:0:
357,236,34928,2,0,P|411:231|458:199,1,86,2|0,3:2|3:0,0:0:0:0:
329,109,35281,1,8,0:0:0:0:
176,185,35457,1,0,3:0:0:0:
176,185,35545,1,0,0:0:0:0:
176,185,35634,6,0,P|122:180|75:148,1,86,2|0,3:2|0:0,0:0:0:0:
249,66,35987,2,0,L|255:164,1,86,8|0,0:0|0:0,0:0:0:0:
238,240,36251,1,0,0:0:0:0:
238,240,36339,2,0,L|232:325,1,86,0|2,3:0|3:2,0:0:0:0:
176,185,36692,1,8,0:0:0:0:
325,235,36869,2,0,L|377:222,1,43,0|0,0:0|0:0,0:0:0:0:
464,172,37045,6,0,B|374:150|399:227|272:161,1,172,2|8,3:2|0:0,0:0:0:0:
159,97,37575,1,0,0:0:0:0:
159,97,37663,1,0,0:0:0:0:
159,97,37751,2,0,L|254:84,1,86,2|0,3:2|3:0,0:0:0:0:
160,203,38104,2,0,L|65:190,1,86,8|0,0:0|3:0,0:0:0:0:
257,243,38457,6,0,P|265:309|265:354,1,86,2|0,3:2|0:2,0:0:0:0:
323,164,38810,1,8,0:0:0:0:
446,283,38987,1,8,0:0:0:0:
446,283,39075,1,0,0:0:0:0:
446,283,39163,1,2,3:2:0:0:
337,242,39339,1,0,3:0:0:0:
418,52,39516,2,0,L|426:194,1,129,8|0,0:0|0:0,0:0:0:0:
414,203,39869,5,2,3:2:0:0:
308,86,40045,2,0,P|247:74|214:72,1,86,0|8,0:0|0:0,0:0:0:0:
107,164,40398,1,0,0:0:0:0:
107,164,40487,1,8,0:0:0:0:
107,164,40575,2,0,P|168:152|201:150,1,86,2|0,3:2|3:0,0:0:0:0:
310,288,40928,2,0,L|294:196,1,86,8|0,0:0|0:0,0:0:0:0:
415,117,41281,5,2,3:2:0:0:
377,208,41457,1,0,3:0:0:0:
282,128,41634,1,8,0:0:0:0:
225,260,41810,1,2,0:0:0:0:
225,260,41898,1,0,0:0:0:0:
225,260,41987,2,0,L|134:253,1,86,0|2,3:0|3:2,0:0:0:0:
28,145,42339,2,0,L|171:134,1,129,8|0,0:0|0:0,0:0:0:0:
180,134,42692,5,6,3:2:0:0:
320,46,42869,1,8,0:0:0:0:
329,205,43045,1,8,0:0:0:0:
269,142,43222,5,6,3:2:0:0:
369,122,43398,1,0,0:0:0:0:
301,285,43575,1,8,0:0:0:0:
237,220,43751,1,6,3:2:0:0:
420,188,43928,1,8,0:0:0:0:
395,267,44104,5,6,3:2:0:0:
315,127,44281,2,0,L|317:26,1,86,8|0,3:2|0:0,0:0:0:0:
230,130,44634,1,0,0:3:0:0:
88,64,44810,5,8,0:0:0:0:
177,32,44987,1,0,3:0:0:0:
159,224,45163,1,8,0:0:0:0:
138,135,45339,1,2,0:0:0:0:
243,236,45536,6,0,P|289:221|379:213,1,120.399996325684,6|0,3:2|0:0,0:0:0:0:
493,171,46065,1,0,3:0:0:0:
452,94,46242,2,0,P|406:79|316:71,1,120.399996325684,8|0,0:0|0:0,0:0:0:0:
166,164,46771,1,0,0:0:0:0:
166,164,46859,1,0,0:0:0:0:
166,164,46948,6,0,L|245:152,1,60.1999981628419,2|8,3:2|0:0,0:0:0:0:
74,95,47301,1,0,0:0:0:0:
33,171,47477,2,0,L|43:245,1,60.1999981628419,0|8,3:0|0:0,0:0:0:0:
154,313,47830,1,0,0:0:0:0:
219,241,48007,1,0,0:0:0:0:
354,316,48183,1,0,0:0:0:0:
354,316,48271,1,0,0:0:0:0:
354,316,48359,5,2,3:2:0:0:
353,229,48536,2,0,B|289:223|309:271|217:252,1,120.399996325684,0|0,3:0|3:0,0:0:0:0:
134,150,49065,2,0,B|198:144|178:192|270:173,1,120.399996325684,8|0,0:0|0:0,0:0:0:0:
363,83,49595,1,0,3:0:0:0:
363,83,49683,1,0,0:0:0:0:
363,83,49771,5,2,3:2:0:0:
396,160,49948,2,0,P|351:168|326:158,1,60.1999981628419,8|0,0:0|0:0,0:0:0:0:
239,59,50301,1,0,0:0:0:0:
159,120,50477,1,8,0:0:0:0:
102,62,50654,2,0,L|120:201,1,120.399996325684,0|0,0:0|0:0,0:0:0:0:
82,324,51183,5,2,3:2:0:0:
159,260,51359,2,0,P|215:236|298:237,1,120.399996325684,0|0,0:0|3:0,0:0:0:0:
282,124,51889,2,0,P|341:127|396:151,1,120.399996325684,8|0,0:0|0:0,0:0:0:0:
448,65,52418,6,0,P|484:94|495:120,1,60.1999981628419,0|2,3:0|3:2,0:0:0:0:
405,209,52771,2,0,P|395:160|401:136,1,60.1999981628419,8|0,0:0|3:0,0:0:0:0:
324,75,53124,1,0,3:0:0:0:
249,247,53301,2,0,L|174:241,1,60.1999981628419,8|0,0:0|3:0,0:0:0:0:
293,152,53654,2,0,L|232:156,1,60.1999981628419,8|0,0:0|0:0,0:0:0:0:
273,326,54007,5,2,3:2:0:0:
343,263,54183,2,0,B|385:264|385:264|418:285|418:285|467:288,1,120.399996325684,0|0,0:0|3:0,0:0:0:0:
337,138,54712,1,8,0:0:0:0:
287,201,54889,2,0,P|342:221|398:189,1,120.399996325684,0|0,0:0|0:0,0:0:0:0:
410,168,55330,1,0,0:0:0:0:
410,168,55418,1,2,3:2:0:0:
295,60,55595,2,0,L|165:45,1,120.399996325684,8|0,0:0|3:0,0:0:0:0:
105,190,56124,1,8,0:0:0:0:
169,138,56301,2,0,P|188:181|156:256,1,120.399996325684,0|0,3:0|0:0,0:0:0:0:
58,353,56830,6,0,P|105:335|160:335,1,86,6|8,3:2|0:0,0:0:0:0:
220,354,57095,1,8,0:0:0:0:
220,354,57183,2,0,L|269:344,3,43,10|0|8|8,3:2|0:0|0:0|0:0,0:0:0:0:
277,266,57536,2,0,L|319:274,3,43,10|0|8|8,3:2|0:0|0:0|0:0,0:0:0:0:
332,196,57889,2,0,L|374:187,3,43,10|0|8|8,3:2|0:0|0:0|0:0,0:0:0:0:
268,139,58242,6,0,P|251:93|254:39,1,86,6|8,3:2|0:0,0:0:0:0:
165,28,58507,1,8,0:0:0:0:
165,28,58595,2,0,L|170:88,1,43,8|8,0:0|0:0,0:0:0:0:
79,127,58771,2,0,L|82:84,1,43,8|8,0:0|0:0,0:0:0:0:
178,149,58948,2,0,L|193:288,1,129,2|8,3:2|0:0,0:0:0:0:
171,317,59301,1,8,0:0:0:0:
204,291,59389,1,8,0:0:0:0:
246,284,59477,1,8,0:0:0:0:
287,298,59565,1,8,0:0:0:0:
320,323,59654,6,0,P|368:342|411:330,1,86,6|8,3:2|0:0,0:0:0:0:
453,271,59918,1,8,0:0:0:0:
453,271,60007,2,0,L|448:216,1,43,10|0,3:2|0:0,0:0:0:0:
381,122,60183,1,8,0:0:0:0:
381,122,60271,1,8,0:0:0:0:
381,122,60359,2,0,L|433:110,1,43,2|0,3:2|0:0,0:0:0:0:
346,222,60536,1,8,0:0:0:0:
346,222,60624,1,8,0:0:0:0:
346,222,60712,2,0,L|294:210,1,43,10|0,3:2|0:0,0:0:0:0:
273,68,60889,2,0,L|276:110,1,43,8|8,0:0|0:0,0:0:0:0:
177,193,61065,5,2,3:2:0:0:
216,177,61153,1,8,0:0:0:0:
256,191,61241,1,8,0:0:0:0:
278,227,61329,1,8,0:0:0:0:
271,269,61417,1,12,0:0:0:0:
444,78,62124,5,10,3:2:0:0:
444,78,62477,6,0,L|456:184,1,86,6|0,3:2|0:0,0:0:0:0:
384,300,62830,1,8,0:0:0:0:
308,196,63007,1,0,0:0:0:0:
308,196,63095,1,0,0:0:0:0:
308,196,63183,2,0,L|204:184,1,86,2|0,3:2|3:0,0:0:0:0:
116,308,63536,2,0,L|220:296,1,86,8|0,0:0|0:0,0:0:0:0:
128,78,63889,6,0,L|148:230,1,129,2|0,3:2|0:0,0:0:0:0:
148,222,64242,1,8,0:0:0:0:
109,329,64418,1,0,0:0:0:0:
261,268,64595,2,0,L|349:298,1,86,0|0,3:2|3:0,0:0:0:0:
397,161,64948,2,0,L|478:133,1,86,8|0,0:0|0:0,0:0:0:0:
281,40,65301,6,0,P|305:110|316:205,1,129,2|0,3:2|0:0,0:0:0:0:
315,184,65654,2,0,P|253:174|197:175,1,86,8|2,0:0|0:0,0:0:0:0:
119,229,66007,1,2,3:2:0:0:
64,67,66183,1,0,3:0:0:0:
64,67,66271,1,0,0:0:0:0:
64,67,66359,2,0,P|81:132|85:178,1,86,8|0,0:0|0:0,0:0:0:0:
208,249,66712,6,0,P|195:290|188:332,1,86,2|2,3:2|0:0,0:0:0:0:
320,220,67065,1,8,0:0:0:0:
428,296,67242,1,0,0:0:0:0:
428,296,67330,1,0,0:0:0:0:
428,296,67418,1,2,3:2:0:0:
372,152,67595,1,0,3:0:0:0:
408,328,67771,1,8,0:0:0:0:
460,152,67948,1,8,0:0:0:0:
460,152,68036,1,8,0:0:0:0:
460,152,68124,6,0,P|444:100|364:64,1,129,6|0,0:0|0:0,0:0:0:0:
355,64,68477,2,0,L|251:56,1,86,8|0,0:0|0:0,0:0:0:0:
161,171,68830,2,0,L|75:177,1,86,2|0,3:2|3:0,0:0:0:0:
174,69,69183,1,8,0:0:0:0:
262,160,69359,1,0,0:0:0:0:
262,160,69448,1,0,0:0:0:0:
262,160,69536,6,0,L|254:324,1,129,2|0,3:2|0:0,0:0:0:0:
243,308,69889,2,0,P|297:298|342:298,1,86,8|2,0:0|0:0,0:0:0:0:
459,213,70242,2,0,P|405:203|360:203,1,86,2|0,3:2|3:0,0:0:0:0:
231,174,70595,1,8,0:0:0:0:
326,77,70771,1,0,0:0:0:0:
326,77,70859,1,0,0:0:0:0:
326,77,70948,6,0,B|248:94|279:47|165:84,1,129,2|0,3:2|0:0,0:0:0:0:
180,83,71301,1,8,0:0:0:0:
81,172,71477,1,0,3:0:0:0:
110,169,71565,1,0,3:0:0:0:
139,160,71653,1,2,3:2:0:0:
16,85,71830,1,0,3:0:0:0:
88,262,72007,2,0,L|79:368,1,86,8|0,0:0|0:0,0:0:0:0:
203,233,72359,6,0,L|299:222,1,86,2|0,3:2|3:0,0:0:0:0:
429,310,72712,1,12,0:0:0:0:
372,187,72889,1,8,0:0:0:0:
372,187,72977,1,8,0:0:0:0:
372,187,73065,1,2,3:2:0:0:
330,314,73242,1,0,0:0:0:0:
472,216,73418,1,8,0:0:0:0:
314,329,73595,1,0,0:0:0:0:
289,336,73683,1,8,0:0:0:0:
262,329,73771,6,0,L|157:315,1,86,6|0,3:2|0:0,0:0:0:0:
154,118,74124,1,8,0:0:0:0:
101,271,74301,1,0,0:0:0:0:
101,271,74389,1,0,0:0:0:0:
101,271,74477,2,0,P|89:212|71:176,1,86,2|0,3:2|0:0,0:0:0:0:
261,97,74830,2,0,P|245:136|238:179,1,86,8|0,0:0|0:0,0:0:0:0:
394,315,75183,6,0,L|378:228,1,86,2|0,3:2|0:0,0:0:0:0:
493,87,75536,2,0,L|477:171,1,86,8|0,0:0|0:0,0:0:0:0:
392,147,75801,1,0,0:0:0:0:
392,147,75889,2,0,P|341:137|306:137,1,86,2|0,3:2|3:0,0:0:0:0:
199,60,76242,2,0,P|156:60|114:70,1,86,8|0,0:0|0:0,0:0:0:0:
45,136,76507,1,0,0:0:0:0:
45,136,76595,6,0,P|84:187|66:276,1,129,2|0,3:2|0:0,0:0:0:0:
63,275,76948,1,8,0:0:0:0:
185,339,77124,1,8,0:0:0:0:
185,339,77212,1,8,0:0:0:0:
185,339,77301,1,2,3:2:0:0:
219,184,77477,1,4,3:2:0:0:
341,285,77654,2,0,L|235:273,1,86,8|0,0:0|0:0,0:0:0:0:
387,188,78007,5,2,3:2:0:0:
432,339,78183,1,4,0:0:0:0:
475,188,78359,2,0,L|453:95,1,86,8|0,0:0|0:0,0:0:0:0:
374,66,78624,1,0,0:0:0:0:
374,66,78712,2,0,P|322:81|257:71,1,86,2|0,3:2|0:0,0:0:0:0:
134,44,79065,1,8,0:0:0:0:
220,138,79242,1,0,0:0:0:0:
220,138,79330,1,0,0:0:0:0:
220,138,79418,6,0,B|230:224|230:224|189:295,1,129,6|0,0:0|0:0,0:0:0:0:
196,281,79771,2,0,L|87:266,1,86,8|0,0:0|0:0,0:0:0:0:
304,177,80124,2,0,L|413:162,1,86,2|0,3:2|3:0,0:0:0:0:
506,269,80477,1,8,0:0:0:0:
374,288,80654,1,0,0:0:0:0:
374,288,80742,1,0,0:0:0:0:
374,288,80830,5,2,3:2:0:0:
414,156,81007,1,0,0:0:0:0:
492,288,81183,2,0,L|481:375,1,86,8|0,0:0|0:0,0:0:0:0:
390,207,81536,2,0,L|363:52,1,129,2|0,3:2|0:0,0:0:0:0:
380,51,81889,1,8,0:0:0:0:
292,178,82065,1,8,0:0:0:0:
257,174,82154,1,8,0:0:0:0:
223,169,82242,6,0,P|135:142|123:140,1,86,6|0,3:2|0:0,0:0:0:0:
98,294,82595,2,0,P|56:304|16:319,1,86,8|0,0:0|0:0,0:0:0:0:
88,209,82948,1,2,3:2:0:0:
183,313,83124,1,0,3:0:0:0:
183,313,83212,1,0,0:0:0:0:
183,313,83301,2,0,L|281:303,1,86,8|8,0:0|0:0,0:0:0:0:
335,245,83565,1,8,0:0:0:0:
350,235,83654,6,0,L|252:225,1,86,2|0,3:2|3:0,0:0:0:0:
192,168,83918,1,8,0:0:0:0:
177,158,84007,2,0,L|275:148,1,86,0|8,3:0|0:0,0:0:0:0:
285,136,84271,1,8,0:0:0:0:
312,120,84359,1,2,3:2:0:0:
112,97,84536,1,0,3:0:0:0:
112,97,84624,1,8,0:0:0:0:
112,97,84712,2,0,P|91:141|91:152,1,43,4|0,0:0|0:0,0:0:0:0:
120,275,84889,2,0,P|112:254|99:237,1,43,0|8,3:0|0:0,0:0:0:0:
5,201,85065,6,0,L|120:186,1,86,2|0,3:2|0:0,0:0:0:0:
211,261,85418,1,8,0:0:0:0:
239,86,85595,2,0,L|225:178,1,86,2|0,0:0|3:0,0:0:0:0:
286,301,85948,1,0,3:0:0:0:
319,154,86124,1,8,0:0:0:0:
211,261,86301,6,0,P|142:268|104:284,1,86,0|2,0:0|3:2,0:0:0:0:
38,147,86654,1,0,3:0:0:0:
38,147,86742,1,0,0:0:0:0:
38,147,86830,2,0,P|107:140|145:124,1,86,8|2,0:0|0:0,0:0:0:0:
253,32,87183,2,0,B|229:86|234:128|234:129,1,86,0|0,3:0|3:0,0:0:0:0:
301,237,87536,1,8,0:0:0:0:
404,168,87712,1,0,0:0:0:0:
404,168,87801,1,8,0:0:0:0:
404,168,87889,5,2,3:2:0:0:
322,147,88065,1,0,0:0:0:0:
277,318,88242,1,8,0:0:0:0:
370,279,88418,1,0,0:0:0:0:
231,185,88595,2,0,L|121:198,1,86,10|0,3:2|3:0,0:0:0:0:
56,330,88948,1,8,0:0:0:0:
48,148,89124,6,0,L|71:273,2,86,0|6|0,3:0|0:0|3:0,0:0:0:0:
141,281,89654,1,10,0:0:0:0:
162,119,89830,2,0,L|247:108,1,86,0|10,3:0|0:0,0:0:0:0:
352,213,90183,1,10,0:0:0:0:
352,213,90271,1,8,0:0:0:0:
352,213,90359,2,0,L|296:203,1,43,0|0,3:2|0:0,0:0:0:0:
335,98,90536,2,0,L|391:108,1,43,0|8,3:0|0:0,0:0:0:0:
435,176,90692,6,0,P|446:255|451:306,1,120.399996325684,6|0,3:2|0:0,0:0:0:0:
311,333,91221,2,0,P|253:311|235:308,1,60.1999981628419,2|0,3:2|0:0,0:0:0:0:
72,286,91574,1,0,3:0:0:0:
152,210,91750,2,0,P|166:293|169:357,1,120.399996325684,10|0,0:0|0:0,0:0:0:0:
73,172,92280,2,0,P|101:137|125:129,1,60.1999981628419,0|0,3:0|0:0,0:0:0:0:
205,144,92633,1,0,0:0:0:0:
262,255,92809,1,8,0:0:0:0:
152,210,92986,1,0,0:0:0:0:
320,180,93162,2,0,L|389:196,1,60.1999981628419,0|0,3:0|3:0,0:0:0:0:
453,275,93427,1,0,3:0:0:0:
458,293,93515,6,0,L|450:215,1,60.1999981628419,2|0,3:2|3:0,0:0:0:0:
400,88,93868,1,0,3:0:0:0:
384,182,94044,2,0,L|258:149,1,120.399996325684,10|0,0:0|0:0,0:0:0:0:
94,109,94574,2,0,P|140:129|177:198,1,120.399996325684,10|0,0:0|3:0,0:0:0:0:
155,282,95103,1,0,3:0:0:0:
33,161,95280,2,0,P|12:116|16:99,1,60.1999981628419,4|0,0:0|0:0,0:0:0:0:
255,15,95633,5,8,3:2:0:0:
256,328,95986,1,8,3:2:0:0:
256,328,96339,6,0,B|262:256|317:292|309:174,1,129,6|0,3:2|0:0,0:0:0:0:
298,191,96691,2,0,P|296:118|299:94,1,86,8|0,0:0|0:0,0:0:0:0:
219,208,97043,1,2,3:2:0:0:
219,208,97220,1,0,3:0:0:0:
337,339,97396,1,8,0:0:0:0:
425,242,97573,6,0,P|421:186|404:149,1,86,2|2,0:0|3:2,0:0:0:0:
282,270,97926,1,0,0:0:0:0:
282,270,98014,1,0,0:0:0:0:
282,270,98102,1,8,0:0:0:0:
202,162,98279,2,0,P|206:106|223:69,1,86,0|2,0:0|3:2,0:0:0:0:
282,270,98632,1,0,3:0:0:0:
110,179,98809,2,0,L|98:288,1,86,8|0,0:0|0:0,0:0:0:0:
202,162,99162,6,0,P|269:175|356:172,1,129,2|0,3:2|0:0,0:0:0:0:
353,190,99515,2,0,P|408:181|456:182,1,86,8|0,0:0|0:0,0:0:0:0:
510,276,99868,1,2,3:2:0:0:
510,276,100044,1,0,3:0:0:0:
482,117,100221,1,8,0:0:0:0:
384,311,100397,6,0,L|284:337,1,86,2|2,0:0|3:2,0:0:0:0:
164,258,100750,1,0,0:0:0:0:
164,258,100839,1,0,0:0:0:0:
164,258,100927,1,8,0:0:0:0:
336,211,101103,2,0,L|253:190,1,86,0|2,0:0|3:2,0:0:0:0:
80,220,101456,1,0,3:0:0:0:
195,126,101633,1,8,0:0:0:0:
39,52,101809,1,8,0:0:0:0:
64,64,101897,1,8,0:0:0:0:
96,67,101986,6,0,B|165:79|144:19|249:42,1,129,6|0,3:2|0:0,0:0:0:0:
248,50,102339,2,0,P|303:68|347:70,1,86,8|0,0:0|0:0,0:0:0:0:
195,126,102691,1,2,3:2:0:0:
195,126,102867,1,0,3:0:0:0:
356,152,103043,1,8,0:0:0:0:
274,296,103220,6,0,L|265:197,1,86,2|2,0:0|3:2,0:0:0:0:
321,75,103573,1,0,0:0:0:0:
321,75,103661,1,0,0:0:0:0:
321,75,103749,1,8,0:0:0:0:
349,238,103926,2,0,L|358:139,1,86,0|0,0:0|3:2,0:0:0:0:
431,273,104279,1,0,3:0:0:0:
483,58,104456,2,0,P|449:84|408:93,1,86,8|0,0:0|0:0,0:0:0:0:
238,185,104809,6,0,P|301:198|362:259,1,129,2|0,3:2|0:0,0:0:0:0:
354,261,105162,2,0,L|249:270,1,86,8|0,0:0|0:0,0:0:0:0:
127,328,105515,1,0,3:0:0:0:
127,328,105692,1,2,3:2:0:0:
159,171,105868,1,8,0:0:0:0:
22,279,106044,1,0,0:0:0:0:
28,241,106133,1,8,0:0:0:0:
34,203,106221,5,8,0:0:0:0:
197,261,106397,1,0,3:0:0:0:
119,97,106574,2,0,P|177:88|235:156,1,129,4|0,3:2|0:0,0:0:0:0:
237,149,106927,1,0,3:0:0:0:
339,171,107103,1,0,3:0:0:0:
482,107,107280,1,8,0:0:0:0:
366,32,107456,2,0,P|389:88|390:97,1,43,8|8,0:0|0:0,0:0:0:0:
474,244,107633,6,0,P|425:239|391:269,1,90.2999972442628,2|0,3:2|0:0,0:0:0:0:
449,313,107986,6,0,B|347:283|369:346|251:315,1,180.599994488526,12|0,0:0|0:0,0:0:0:0:
247,309,108338,2,0,P|190:293|152:303,1,94.600002886963,0|0,3:0|3:0,0:0:0:0:
23,364,108691,1,8,0:0:0:0:
59,232,108868,1,2,0:2:0:0:
59,232,108956,1,0,0:0:0:0:
59,232,109044,5,0,3:0:0:0:
19,58,109221,2,0,L|42:156,1,94.600002886963,2|8,3:2|0:0,0:0:0:0:
189,213,109574,2,0,L|210:120,1,94.600002886963,2|0,0:0|3:0,0:0:0:0:
362,104,109927,2,0,L|306:92,1,47.3000014434815,0|0,3:0|0:0,0:0:0:0:
231,40,110103,1,10,0:0:0:0:
322,211,110280,5,0,3:0:0:0:
315,202,110368,1,0,3:0:0:0:
313,193,110456,1,0,3:0:0:0:
406,201,110633,1,0,3:0:0:0:
261,263,110809,6,0,B|362:227|350:324|469:272,1,180.599994488526,14|0,0:0|0:0,0:0:0:0:
459,278,111162,2,0,P|494:226|490:180,1,94.600002886963,0|2,3:0|3:2,0:0:0:0:
420,53,111515,1,8,0:0:0:0:
315,141,111691,1,2,0:0:0:0:
315,141,111780,1,0,0:0:0:0:
315,141,111868,1,0,3:0:0:0:
171,61,112044,2,0,L|277:44,1,94.600002886963,2|8,3:2|0:0,0:0:0:0:
136,171,112397,2,0,L|30:154,1,94.600002886963,2|0,0:0|3:0,0:0:0:0:
223,160,112750,5,0,1:0:0:0:
223,160,112838,1,0,0:0:0:0:
223,160,112927,2,0,P|239:214|238:223,1,47.3000014434815,8|0,0:0|0:0,0:0:0:0:
225,326,113103,2,0,P|229:302|240:282,1,47.3000014434815,0|0,3:0|0:0,0:0:0:0:
317,239,113280,5,0,3:0:0:0:
317,239,113456,1,0,3:0:0:0:
149,236,113633,6,0,B|214:204|214:204|329:243,1,180.599994488526,14|0,0:0|0:0,0:0:0:0:
338,251,113986,2,0,L|448:235,1,94.600002886963,0|2,3:0|3:2,0:0:0:0:
362,87,114338,1,8,0:0:0:0:
267,172,114515,1,2,0:0:0:0:
267,172,114603,1,0,0:0:0:0:
267,172,114691,1,0,3:0:0:0:
185,38,114868,2,0,P|249:59|278:86,1,94.600002886963,2|8,3:2|0:0,0:0:0:0:
437,104,115221,2,0,P|373:125|344:152,1,94.600002886963,2|0,0:0|3:0,0:0:0:0:
285,263,115574,1,0,3:0:0:0:
140,131,115750,5,8,0:0:0:0:
266,155,115927,1,0,3:0:0:0:
172,330,116103,5,8,0:0:0:0:
180,208,116280,1,0,3:0:0:0:
365,216,116456,5,8,0:0:0:0:
260,278,116633,1,0,3:0:0:0:
388,129,116809,6,0,L|407:327,1,180.599994488526,10|0,0:0|0:0,0:0:0:0:
464,349,117162,2,0,P|385:335|347:360,1,120.399996325684,0|0,3:0|0:0,0:0:0:0:
261,349,117427,5,8,0:0:0:0:
261,349,117515,2,0,L|192:360,2,60.1999981628419,8|0|0,0:0|0:0|0:0,0:0:0:0:
290,262,117780,5,8,0:0:0:0:
290,262,117868,2,0,L|338:254,2,43,8|0|0,0:0|0:0|0:0,0:0:0:0:
218,201,118133,5,0,3:0:0:0:
218,201,118221,2,0,L|171:197,2,30.0999990814209,0|0|0,3:0|0:0|0:0,0:0:0:0:
284,132,118486,5,0,3:0:0:0:
284,132,118574,2,0,L|314:128,2,21.5,0|0|0,3:0|0:0|0:0,0:0:0:0:
216,85,118838,1,0,3:0:0:0:
219,73,118927,5,4,0:0:0:0:
