osu file format v14

[General]
AudioFilename: audio.mp3
AudioLeadIn: 0
PreviewTime: 61628
Countdown: 0
SampleSet: Soft
StackLeniency: 0.4
Mode: 0
LetterboxInBreaks: 0
WidescreenStoryboard: 1

[Editor]
Bookmarks: 10893,11599,62422,124575
DistanceSpacing: 1
BeatDivisor: 4
GridSize: 4
TimelineZoom: 1.2

[Metadata]
Title:Marathon
TitleUnicode:マラソン
Artist:Hanazawa Kana
ArtistUnicode:花澤香菜
Creator:Sotarks
Version:Akitoshi's Normal
Source:
Tags:pkhg appleeaterx akitoshi corinn
BeatmapID:1462835
BeatmapSetID:691239

[Difficulty]
HPDrainRate:4
CircleSize:3
OverallDifficulty:4
ApproachRate:5
SliderMultiplier:0.999999999999999
SliderTickRate:1

[Events]
//Background and Video events
0,0,"BG.jpg",0,0
//Break Periods
2,90892,95138
//Storyboard Layer 0 (Background)
//Storyboard Layer 1 (Fail)
//Storyboard Layer 2 (Pass)
//Storyboard Layer 3 (Foreground)
//Storyboard Sound Samples

[TimingPoints]
340,352.941176470588,4,2,1,75,1,0
10928,-100,4,2,1,48,0,0
11634,-100,4,2,1,70,0,0
11898,-100,4,2,1,15,0,0
11987,-100,4,2,1,70,0,0
14722,-100,4,2,1,15,0,0
14810,-100,4,2,1,70,0,0
17545,-100,4,2,1,15,0,0
17634,-100,4,2,1,70,0,0
20369,-100,4,2,1,15,0,0
20457,-100,4,2,1,70,0,0
22928,-100,4,2,1,40,0,0
25751,-100,4,2,1,70,0,0
28575,-100,4,2,1,40,0,0
31398,-100,4,2,1,70,0,0
42604,-100,4,2,1,15,0,0
42692,-100,4,2,1,70,0,0
45536,352.941176470588,4,2,1,60,1,0
56830,-100,4,2,1,55,0,0
58242,-100,4,2,1,60,0,0
59654,-100,4,2,1,65,0,0
61507,-100,4,2,1,15,0,0
62124,-100,4,2,1,60,0,0
62477,-100,4,2,1,75,0,1
64154,-100,4,2,1,20,0,1
64242,-100,4,2,1,75,0,1
65565,-100,4,2,1,20,0,1
65654,-100,4,2,1,75,0,1
68389,-100,4,2,1,20,0,1
68477,-100,4,2,1,75,0,1
69801,-100,4,2,1,20,0,1
69889,-100,4,2,1,75,0,1
71212,-100,4,2,1,20,0,1
71301,-100,4,2,1,75,0,1
76859,-100,4,2,1,20,0,1
76948,-100,4,2,1,75,0,1
79683,-100,4,2,1,20,0,1
79771,-100,4,2,1,75,0,1
81801,-100,4,2,1,20,0,1
81889,-100,4,2,1,75,0,1
90692,352.941176470588,4,2,1,75,1,0
90692,-100,4,2,1,75,0,0
106839,-100,4,2,1,5,0,0
106928,-100,4,2,1,75,0,0
107898,-100,4,2,1,5,0,0
107987,-100,4,2,1,75,0,0
108251,-100,4,2,1,5,0,0
108339,-100,4,2,1,75,0,0
117869,-100,4,2,1,65,0,0
118222,-100,4,2,1,45,0,0
118575,-100,4,2,1,35,0,0
118928,-100,4,2,1,40,0,0

[Colours]
Combo1 : 254,227,199
Combo2 : 192,192,192
Combo3 : 255,149,202
Combo4 : 147,201,255

[HitObjects]
26,134,10928,6,0,L|128:122,1,99.9999999999999,8|8,0:0|0:0,0:0:0:0:
224,108,11634,5,6,3:2:0:0:
318,141,11987,1,8,0:0:0:0:
367,227,12339,2,0,L|353:377,2,150,2|2|8,3:2|0:0|0:0,0:0:0:0:
448,168,13751,2,0,L|437:54,1,99.9999999999999,2|8,3:2|0:0,0:0:0:0:
352,16,14457,5,2,3:2:0:0:
252,29,14810,1,8,0:0:0:0:
180,98,15163,2,0,P|109:81|21:102,2,150,2|2|8,3:2|0:0|0:0,0:0:0:0:
252,167,16575,2,0,L|242:276,1,99.9999999999999,2|8,3:2|0:0,0:0:0:0:
237,319,17104,1,8,0:0:0:0:
236,319,17281,6,0,P|189:331|140:322,1,99.9999999999999,6|8,3:2|0:0,0:0:0:0:
53,272,17987,2,0,L|34:123,2,150,2|2|8,3:2|0:0|0:0,0:0:0:0:
141,225,19398,2,0,P|196:212|246:226,1,99.9999999999999,0|8,3:2|0:0,0:0:0:0:
315,284,20104,5,2,3:2:0:0:
412,305,20457,1,8,0:0:0:0:
494,248,20810,2,0,L|501:94,2,150,0|0|8,3:0|0:0|0:0,0:0:0:0:
412,305,22222,2,0,L|414:365,2,50,0|0|6,3:0|3:0|0:0,0:0:0:0:
353,223,22928,6,0,B|280:189|191:221|227:260|143:302|58:257,1,300,2|0,0:0|0:0,0:0:0:0:
32,171,24339,2,0,P|53:115|260:120,1,300,2|10,0:0|0:2,0:0:0:0:
284,211,25751,6,0,L|393:203,1,99.9999999999999,6|8,3:2|0:0,0:0:0:0:
473,158,26457,2,0,P|487:81|447:9,2,150,2|0|8,3:2|0:0|0:0,0:0:0:0:
383,203,27869,1,2,3:2:0:0:
285,182,28222,1,8,0:0:0:0:
222,103,28575,6,0,P|179:77|16:208,1,300,6|0,3:2|0:0,0:0:0:0:
53,300,29987,2,0,B|126:334|215:302|179:263|263:221|348:266,1,300,2|10,0:0|0:0,0:0:0:0:
434,258,31398,6,0,L|428:151,1,99.9999999999999,6|8,3:2|0:0,0:0:0:0:
360,84,32104,2,0,P|429:110|516:81,2,150,0|0|8,3:0|0:0|0:0,0:0:0:0:
275,29,33516,1,0,3:0:0:0:
202,97,33869,2,0,L|145:100,1,50,8|0,0:0|0:0,0:0:0:0:
114,133,34222,6,0,L|14:128,2,99.9999999999999,6|8|2,3:2|0:0|3:2,0:0:0:0:
188,200,35281,1,8,0:0:0:0:
267,261,35634,2,0,P|315:244|377:252,1,99.9999999999999,2|8,3:2|0:0,0:0:0:0:
385,344,36339,2,0,P|337:361|275:353,1,99.9999999999999,0|8,3:0|0:0,0:0:0:0:
192,328,37045,6,0,L|81:338,2,99.9999999999999,2|8|2,3:2|0:0|3:2,0:0:0:0:
267,261,38104,1,8,0:0:0:0:
347,201,38457,2,0,L|399:206,2,50,2|0|8,3:2|0:2|0:0,0:0:0:0:
266,141,39163,2,0,P|216:121|168:127,1,99.9999999999999,2|8,3:2|0:0,0:0:0:0:
99,196,39869,6,0,P|121:131|73:46,2,150,2|0|8,3:2|0:0|0:0,0:0:0:0:
16,253,41281,2,0,P|8:307|32:360,1,99.9999999999999,2|8,3:2|0:0,0:0:0:0:
118,380,41987,1,0,3:0:0:0:
210,342,42339,1,8,0:0:0:0:
248,249,42692,6,0,L|229:97,2,150,6|6|6,3:2|3:2|3:2,0:0:0:0:
324,313,44104,2,0,P|394:320|458:275,1,150,6|0,3:2|0:3,0:0:0:0:
486,236,44810,2,0,L|494:130,1,99.9999999999999,8|8,0:0|0:0,0:0:0:0:
434,54,45536,6,0,P|342:21|239:53,1,200,6|8,3:2|0:0,0:0:0:0:
183,125,46594,1,0,0:0:0:0:
240,206,46947,2,0,P|332:239|435:207,1,200,2|8,3:2|0:0,0:0:0:0:
493,136,48006,1,0,0:0:0:0:
434,54,48359,6,0,B|382:31|329:46|345:68|294:85|231:55,1,200,2|8,3:2|0:0,0:0:0:0:
148,19,49417,1,0,0:0:0:0:
56,59,49771,2,0,P|12:138|43:248,1,200,2|8,3:2|0:0,0:0:0:0:
112,305,50829,1,0,0:0:0:0:
187,239,51182,6,0,P|266:195|376:226,1,200,2|8,3:2|0:0,0:0:0:0:
449,277,52241,1,0,0:0:0:0:
388,356,52594,2,0,L|175:364,1,200,2|8,3:2|0:0,0:0:0:0:
87,365,53653,1,8,0:0:0:0:
32,280,54006,6,0,B|1:232|21:176|34:193|52:147|24:87,1,200,2|8,3:2|0:0,0:0:0:0:
98,20,55064,1,0,0:0:0:0:
162,96,55418,2,0,L|267:87,1,99.9999999999999,2|0,3:2|0:0,0:0:0:0:
344,31,56124,2,0,L|449:40,1,99.9999999999999,8|0,0:0|0:0,0:0:0:0:
256,192,56829,12,8,59300,0:0:0:0:
256,192,59653,12,0,61417,0:0:0:0:
324,147,62477,6,0,L|208:132,1,99.9999999999999,6|8,3:2|0:0,0:0:0:0:
130,99,63183,2,0,L|71:106,1,50,2|0,3:2|3:0,0:0:0:0:
31,114,63535,2,0,P|16:43|25:16,2,99.9999999999999,8|2|8,0:0|3:2|0:0,0:0:0:0:
89,195,64594,1,0,3:2:0:0:
184,225,64947,1,8,0:0:0:0:
267,170,65300,6,0,P|324:158|380:178,1,99.9999999999999,2|8,3:2|0:0,0:0:0:0:
420,250,66006,2,0,L|411:308,1,50,2|0,3:2|3:0,0:0:0:0:
399,347,66359,2,0,P|456:359|512:339,2,99.9999999999999,8|2|8,0:0|3:2|0:0,0:0:0:0:
312,296,67417,1,2,3:2:0:0:
266,207,67770,1,8,0:0:0:0:
283,108,68124,6,0,P|224:94|184:107,1,99.9999999999999,6|8,0:0|0:0,0:0:0:0:
122,181,68829,1,2,3:2:0:0:
110,280,69182,2,0,L|6:296,2,99.9999999999999,8|2|8,0:0|3:2|0:0,0:0:0:0:
208,261,70241,1,2,3:2:0:0:
301,297,70594,1,8,0:0:0:0:
377,361,70947,6,0,P|424:346|464:309,1,99.9999999999999,2|8,3:2|0:0,0:0:0:0:
506,222,71653,2,0,L|496:156,1,50,2|0,3:2|3:0,0:0:0:0:
491,122,72006,1,8,0:0:0:0:
396,90,72359,2,0,P|349:105|309:142,1,99.9999999999999,2|12,3:2|0:0,0:0:0:0:
265,227,73064,1,2,3:2:0:0:
169,257,73417,1,8,0:0:0:0:
70,237,73771,6,0,P|48:190|49:132,1,99.9999999999999,6|8,3:2|0:0,0:0:0:0:
103,60,74476,2,0,L|153:63,1,50,2|0,3:2|0:0,0:0:0:0:
197,85,74918,2,0,L|313:78,2,99.9999999999999,8|2|8,0:0|3:2|0:0,0:0:0:0:
133,162,75888,1,2,3:2:0:0:
152,260,76241,1,8,0:0:0:0:
227,325,76594,6,0,L|341:315,1,99.9999999999999,2|8,3:2|0:0,0:0:0:0:
415,270,77300,2,0,P|417:229|413:210,1,50,2|4,3:2|3:2,0:0:0:0:
402,171,77653,2,0,P|446:147|495:147,2,99.9999999999999,8|2|8,0:0|3:2|0:0,0:0:0:0:
313,217,78711,1,2,3:2:0:0:
219,180,79064,1,8,0:0:0:0:
182,86,79418,6,0,P|135:73|75:88,1,99.9999999999999,6|8,0:0|0:0,0:0:0:0:
16,155,80123,1,2,3:2:0:0:
55,247,80476,1,8,0:0:0:0:
153,266,80830,2,0,L|253:253,1,99.9999999999999,2|8,3:2|0:0,0:0:0:0:
294,162,81535,2,0,L|394:175,1,99.9999999999999,2|8,3:2|0:0,0:0:0:0:
475,231,82241,5,6,3:2:0:0:
418,313,82594,2,0,P|371:332|316:326,2,99.9999999999999,8|2|8,0:0|3:2|0:0,0:0:0:0:
475,231,83653,2,0,L|468:126,1,99.9999999999999,2|0,3:2|3:0,0:0:0:0:
414,46,84358,1,2,3:2:0:0:
316,24,84711,2,0,L|261:28,1,50,4|0,0:0|3:0,0:0:0:0:
231,64,85065,6,0,P|198:50|129:60,1,99.9999999999999,2|8,3:2|0:0,0:0:0:0:
98,91,85594,2,0,L|104:204,1,99.9999999999999,2|0,0:0|3:0,0:0:0:0:
104,240,86123,1,8,0:0:0:0:
118,338,86477,2,0,P|151:352|220:342,1,99.9999999999999,2|8,3:2|0:0,0:0:0:0:
250,313,87006,2,0,L|369:319,1,99.9999999999999,2|0,0:0|3:0,0:0:0:0:
400,318,87535,1,8,0:0:0:0:
492,278,87888,5,2,3:2:0:0:
508,179,88241,1,8,0:0:0:0:
436,108,88594,2,0,L|315:117,1,99.9999999999999,10|8,3:2|0:0,0:0:0:0:
300,150,89123,1,0,3:0:0:0:
300,150,89300,2,0,L|179:141,1,99.9999999999999,6|10,0:0|0:0,0:0:0:0:
114,91,90006,1,10,0:0:0:0:
192,29,90358,2,0,P|225:24|254:22,1,50,0|0,3:2|3:0,0:0:0:0:
286,26,90692,5,6,0:0:0:0:
326,64,96338,6,0,L|170:79,1,150,6|0,3:2|0:0,0:0:0:0:
77,90,97221,1,2,3:2:0:0:
28,177,97574,2,0,P|15:216|28:281,1,99.9999999999999,2|0,0:0|0:0,0:0:0:0:
100,337,98280,2,0,B|148:314|148:314|255:327,1,150,0|8,0:0|0:0,0:0:0:0:
343,331,99162,6,0,P|364:255|331:180,1,150,2|0,3:2|0:0,0:0:0:0:
269,120,100044,1,2,3:2:0:0:
317,32,100397,2,0,P|366:23|418:36,1,99.9999999999999,2|0,0:0|0:0,0:0:0:0:
488,101,101103,2,0,L|480:256,1,150,0|8,0:0|0:0,0:0:0:0:
405,317,101986,6,0,P|356:298|247:319,1,150,6|0,3:2|0:0,0:0:0:0:
174,359,102868,1,2,3:2:0:0:
88,307,103221,2,0,L|77:204,1,99.9999999999999,2|0,0:0|0:0,0:0:0:0:
70,107,103927,2,0,B|169:92|169:92|222:122,1,150,0|8,0:0|0:0,0:0:0:0:
295,171,104809,6,0,P|347:149|440:185,1,150,2|0,3:2|0:0,0:0:0:0:
492,256,105691,1,2,3:2:0:0:
454,348,106044,2,0,L|345:354,1,99.9999999999999,0|0,0:0|3:0,0:0:0:0:
303,355,106574,1,4,3:2:0:0:
207,324,106927,2,0,P|199:277|216:223,1,99.9999999999999,0|8,3:0|0:0,0:0:0:0:
295,171,107633,6,0,L|285:66,1,99.9999999999999,2|12,3:2|0:0,0:0:0:0:
192,34,108338,2,0,L|131:41,1,50,0|0,3:0|3:0,0:0:0:0:
102,70,108691,2,0,L|2:58,2,99.9999999999999,8|0|8,0:0|3:0|0:0,0:0:0:0:
176,137,109750,1,0,3:0:0:0:
199,234,110103,1,10,0:0:0:0:
187,333,110456,6,0,P|235:344|291:331,1,99.9999999999999,0|14,3:0|0:0,0:0:0:0:
364,273,111162,2,0,L|370:207,1,50,0|2,3:0|3:2,0:0:0:0:
375,173,111515,2,0,P|423:184|479:171,2,99.9999999999999,8|0|8,0:0|3:0|0:0,0:0:0:0:
318,90,112574,1,0,3:0:0:0:
226,49,112927,1,8,0:0:0:0:
150,114,113280,6,0,B|101:92|47:118,1,99.9999999999999,0|14,3:0|0:0,0:0:0:0:
26,212,113986,2,0,L|35:267,1,50,0|2,3:0|3:2,0:0:0:0:
78,284,114338,2,0,L|67:385,2,99.9999999999999,8|0|8,0:0|3:0|0:0,0:0:0:0:
157,222,115397,1,0,3:0:0:0:
255,207,115750,1,8,0:0:0:0:
342,255,116103,6,0,L|444:245,1,99.9999999999999,8|8,0:0|0:0,0:0:0:0:
494,160,116809,1,10,0:0:0:0:
437,77,117162,2,0,L|377:71,1,50,0|0,3:0|0:0,0:0:0:0:
344,45,117515,2,0,P|296:39|242:61,1,99.9999999999999,8|8,0:0|0:0,0:0:0:0:
196,142,118221,2,0,P|148:148|94:126,1,99.9999999999999,0|0,3:0|3:0,0:0:0:0:
41,49,118927,5,4,0:0:0:0:
256,192,119103,12,0,124574,0:0:0:0:
